<?xml version="1.0" standalone="no"?>
<!DOCTYPE svg PUBLIC "-//W3C//DTD SVG 1.1//EN" "http://www.w3.org/Graphics/SVG/1.1/DTD/svg11.dtd" >
<svg xmlns="http://www.w3.org/2000/svg">
<metadata>
Created by FontForge 20120731 at Thu Nov 26 11:11:18 2015
 By Ads
</metadata>
<defs>
<font id="iconfont" horiz-adv-x="1024" >
  <font-face 
    font-family="iconfont"
    font-weight="500"
    font-stretch="normal"
    units-per-em="1024"
    panose-1="2 0 6 3 0 0 0 0 0 0"
    ascent="896"
    descent="-128"
    x-height="792"
    bbox="0 -216 1122 812"
    underline-thickness="50"
    underline-position="-100"
    unicode-range="U+0078-E659"
  />
<missing-glyph horiz-adv-x="374" 
d="M34 0v682h272v-682h-272zM68 34h204v614h-204v-614z" />
    <glyph glyph-name=".notdef" horiz-adv-x="374" 
d="M34 0v682h272v-682h-272zM68 34h204v614h-204v-614z" />
    <glyph glyph-name=".null" horiz-adv-x="0" 
 />
    <glyph glyph-name="nonmarkingreturn" horiz-adv-x="341" 
 />
    <glyph glyph-name="x" unicode="x" horiz-adv-x="1001" 
d="M281 543q-27 -1 -53 -1h-83q-18 0 -36.5 -6t-32.5 -18.5t-23 -32t-9 -45.5v-76h912v41q0 16 -0.5 30t-0.5 18q0 13 -5 29t-17 29.5t-31.5 22.5t-49.5 9h-133v-97h-438v97zM955 310v-52q0 -23 0.5 -52t0.5 -58t-10.5 -47.5t-26 -30t-33 -16t-31.5 -4.5q-14 -1 -29.5 -0.5
t-29.5 0.5h-32l-45 128h-439l-44 -128h-29h-34q-20 0 -45 1q-25 0 -41 9.5t-25.5 23t-13.5 29.5t-4 30v167h911zM163 247q-12 0 -21 -8.5t-9 -21.5t9 -21.5t21 -8.5q13 0 22 8.5t9 21.5t-9 21.5t-22 8.5zM316 123q-8 -26 -14 -48q-5 -19 -10.5 -37t-7.5 -25t-3 -15t1 -14.5
t9.5 -10.5t21.5 -4h37h67h81h80h64h36q23 0 34 12t2 38q-5 13 -9.5 30.5t-9.5 34.5q-5 19 -11 39h-368zM336 498v228q0 11 2.5 23t10 21.5t20.5 15.5t34 6h188q31 0 51.5 -14.5t20.5 -52.5v-227h-327z" />
    <glyph glyph-name="uniE600" unicode="&#xe600;" 
d="M482 55q12 -13 30 -13t30 13l345 378q11 13 10.5 30.5t-12.5 29.5q-8 8 -18.5 10.5t-21 -1t-17.5 -11.5l-316 -346l-316 346q-5 6 -13 9.5t-16 3.5q-3 0 -6 -0.5t-6 -1.5t-5.5 -2t-5.5 -3t-5 -4q-12 -12 -12.5 -29.5t10.5 -30.5z" />
    <glyph glyph-name="uniE601" unicode="&#xe601;" 
d="M557 607q-6 7 -13.5 10t-15.5 3.5t-16 -2.5t-14 -8l-359 -356q-8 -8 -10.5 -18.5t0 -21t10 -18.5t18 -11t21 0t18.5 11l328 325l302 -348q11 -13 29 -14q16 -1 28 10q13 11 14 28t-10 30z" />
    <glyph glyph-name="uniE602" unicode="&#xe602;" 
d="M722 0.5q0 37.5 26 63.5t63.5 26t64 -26t26.5 -64q0 -24 -12 -45t-33 -33t-45 -12q-38 0 -64 26.5t-26 64zM572 600q0 37 26.5 63.5t63.5 26.5q18 0 34.5 -7.5t29 -19.5t19.5 -28.5t7 -35t-7 -35t-19.5 -28.5t-29 -19t-34.5 -7q-51 0 -77 43q-13 22 -13 47zM122 135
q0 62 44 106t106 44t106 -44t44 -106t-44 -106t-106 -44t-106 44t-44 106zM62 135q0 -87 61.5 -148.5t148.5 -61.5q61 0 111.5 32t76.5 84l202 -35v-6q0 -62 44 -106t106 -44t106 44t44 106t-44 106t-106 44q-45 0 -81.5 -23.5t-54.5 -62.5l-197 35q3 18 3 36q0 82 -55 142
l182 182q12 -4 25.5 -6.5t27.5 -2.5q24 0 47 7.5t41.5 21.5t32.5 32.5t21.5 41t7.5 47.5q0 62 -44 106t-106 44q-18 0 -34.5 -4t-31.5 -11.5t-28 -18t-23 -23.5t-17.5 -27.5t-11.5 -31.5t-4 -34q0 -63 45 -107l-177 -178q-50 30 -108 30q-87 0 -148.5 -61.5t-61.5 -148.5z
" />
    <glyph glyph-name="uniE603" unicode="&#xe603;" 
d="M512 727q-87 0 -166 -34t-136 -91t-91 -136t-34 -166q0 -116 57.5 -214t155.5 -155.5t214 -57.5q87 0 166 34t136 91t91 136t34 166q0 116 -57.5 214t-155.5 155.5t-214 57.5zM761 416l-292 -284q-8 -7 -18 -7q-11 1 -18 8l-114 113q-7 8 -7 18.5t7.5 18t18 7.5t17.5 -7
l96 -96l274 265q5 5 12 6.5t13.5 0t11.5 -6.5q7 -8 7 -18.5t-8 -17.5z" />
    <glyph glyph-name="uniE604" unicode="&#xe604;" 
d="M942 -78q-34 150 -154 247q-58 47 -128 72q-13 5 -27 9q29 17 53 41q73 73 73 176.5t-73.5 177t-177 73.5t-177 -73.5t-73.5 -177t74 -176.5q24 -25 53 -41q-4 -2 -8.5 -3.5t-8.5 -2.5t-9 -3q-35 -13 -67 -31t-61 -42q-120 -97 -153 -248q-3 -10 3 -19t16 -11q1 -1 3 -1
h3q8 0 15.5 5.5t9.5 14.5q29 133 135 220q52 41 114 64q32 11 65.5 17t67.5 6q69 0 133 -23q15 -6 30 -12.5t29 -14.5t27.5 -17.5t26.5 -19.5q106 -86 136 -218q2 -7 6.5 -12t11 -7t13.5 -1q10 3 15.5 12t3.5 19zM309 468q0 82 58.5 140.5t141 58.5t141 -58.5t58.5 -140.5
q0 -54 -26.5 -100t-72.5 -73t-100 -27t-100 27t-73 73t-27 100z" />
    <glyph glyph-name="uniE605" unicode="&#xe605;" 
d="M483 495q0 14 9 23t23 9q13 0 22.5 -9t9.5 -23v-485q0 -9 -4.5 -16t-12 -11.5t-15.5 -4.5q-14 0 -23 9.5t-9 22.5v485zM332 495q0 14 9.5 23t22.5 9t22.5 -9t9.5 -23v-485q0 -13 -9.5 -22.5t-22.5 -9.5t-22.5 9.5t-9.5 22.5v485zM633 495q0 5 1.5 9t3.5 7.5t5 6.5t6.5 5
t7.5 3t8 1q14 0 23 -9t9 -23v-485q0 -9 -4 -16t-11.5 -11.5t-16.5 -4.5q-13 0 -22.5 9.5t-9.5 22.5v485zM899 653h-126h-46v40q0 23 -18.5 39.5t-45.5 16.5h-296q-27 0 -45.5 -16.5t-18.5 -39.5v-40h-46h-132q-13 0 -22.5 -9.5t-9.5 -23t9.5 -22.5t22.5 -9h68v-675
q0 -26 18.5 -44.5t45.5 -18.5h516q17 0 32 8.5t23.5 23t8.5 31.5v675h62q13 0 22.5 9t9.5 22.5t-9.5 23t-22.5 9.5zM367 685h296v-32h-296v32zM739 -85q-414 -1 -449 -1q-16 0 -24 9t-9 18v9v608q0 16 7.5 24t15.5 7h8h79h296h72h5q2 0 8.5 -1.5t11.5 -4.5t9 -9.5t4 -15.5
v-313v-298q0 -14 -8.5 -22t-16.5 -9z" />
    <glyph glyph-name="uniE606" unicode="&#xe606;" 
d="M437 151q0 -31 -22 -53t-53 -22q-30 0 -52 22t-22 53q0 20 10 37.5t27 27.5t37 10q31 0 53 -22t22 -53zM735.5 119q-13.5 0 -22.5 9.5t-9 22.5q0 141 -100 241q-16 16 -34 30t-37 25t-39.5 19.5t-42 14.5t-44 8.5t-45.5 2.5q-13 0 -22 9.5t-9 22.5t9 22.5t22 9.5
q83 0 158 -32q73 -31 129 -87t86 -128q32 -76 32 -158q0 -13 -9 -22.5t-22.5 -9.5zM586 119q-13 0 -22 9.5t-9 22.5q0 79 -56.5 135.5t-136.5 56.5q-13 0 -22 9.5t-9 22.5t9 22.5t22 9.5q52 0 98.5 -19.5t82.5 -55.5q75 -75 75 -181q0 -13 -9.5 -22.5t-22.5 -9.5z
M511.5 -179q-32.5 0 -64 4t-62 12.5t-60.5 20.5q-86 37 -152.5 103.5t-102.5 152.5q-38 89 -38 186.5t38 186.5q18 43 44 81t59 71q66 67 152 103q89 38 186.5 38t186.5 -38q86 -36 153 -103q16 -16 31 -34t27.5 -37t23.5 -39.5t20 -41.5q38 -89 38 -187q0 -48 -9.5 -95
t-28.5 -91q-36 -86 -102 -153q-33 -33 -71.5 -58.5t-81.5 -44.5q-29 -12 -60 -20.5t-62.5 -12.5t-64 -4zM512 716q-42 0 -83 -8t-79 -24q-37 -16 -70.5 -38.5t-62 -51t-51 -62t-38.5 -70.5q-32 -77 -32 -161.5t32 -162.5q32 -74 89.5 -131.5t132.5 -89.5q77 -33 161.5 -33
t162.5 33q74 32 131.5 89.5t89.5 131.5q33 78 33 162.5t-33 161.5q-32 75 -89.5 132.5t-131.5 89.5q-78 32 -162 32z" />
    <glyph glyph-name="uniE607" unicode="&#xe607;" 
d="M809 325h-272v272q0 5 -2 9.5t-5.5 8t-8 5.5t-9.5 2q-10 0 -17.5 -7.5t-7.5 -17.5v-272h-272q-10 0 -17.5 -7.5t-7.5 -17.5t7.5 -17.5t17.5 -7.5h272v-272q0 -10 7.5 -17.5t17.5 -7.5t17.5 7.5t7.5 17.5v272h272q10 0 17.5 7.5t7.5 17.5q0 4 -1.5 8t-3.5 7t-5.5 5.5
t-7 3.5t-7.5 1z" />
    <glyph glyph-name="uniE608" unicode="&#xe608;" 
d="M352.5 404q-11.5 0 -22 -5.5t-16 -16t-5.5 -21.5q0 -19 12.5 -31.5t30.5 -12.5q9 0 17.5 3.5t14 9t9 14t3.5 17.5q0 11 -6 21.5t-16 16t-21.5 5.5zM528 404q-12 0 -22.5 -5.5t-16 -16t-5.5 -21.5q0 -9 3.5 -17.5t9 -14t14 -9t17.5 -3.5q18 0 30.5 12.5t12.5 31t-12.5 31
t-30.5 12.5zM703 404q-19 0 -31.5 -12.5t-12.5 -30.5q0 -9 3.5 -17.5t9 -14t14 -9t17.5 -3.5q11 0 21.5 5.5t16 16t5.5 22t-5.5 22t-16 16t-21.5 5.5zM527.5 667q-95.5 0 -176 -41t-127.5 -111.5t-47 -153.5q0 -72 35 -134t97 -105v-155l153 93q17 -3 33 -4.5t33 -1.5
q95 0 175.5 41t127.5 111.5t47 154t-47 154t-127.5 111.5t-176 41zM528 98q-37 0 -74 8l-103 -62l1 102q-61 36 -96 92.5t-35 122.5q0 108 90 185t217 77q83 0 153.5 -35t111.5 -95.5t41 -131.5q0 -36 -11 -70t-31 -63t-48 -53t-61.5 -41t-73.5 -26.5t-81 -9.5z" />
    <glyph glyph-name="uniE609" unicode="&#xe609;" 
d="M649 165q3 -2 6.5 -3t6.5 -1q5 0 9.5 2t7.5 5t5 7t2 9q0 13 -11 19q-14 10 -28.5 18t-30 14.5t-31.5 12.5q57 29 91.5 84.5t34.5 122.5q0 97 -68.5 165t-165.5 68q-38 0 -73.5 -11.5t-64.5 -33t-50.5 -50.5t-33 -64.5t-11.5 -73.5q0 -67 34.5 -122.5t91.5 -84.5
q-108 -35 -177 -127t-69 -208v-1v-1q0 -10 7 -16t16 -6q2 0 4 1h4q2 1 4 2.5t3 3.5l4 2l2 4t1.5 4t0.5 5q0 127 90 217t217 90q32 0 62 -6.5t57.5 -18t52.5 -28.5v0zM290 454.5q0 77.5 55 132.5t132.5 55t132 -55t54.5 -132.5t-54.5 -132t-132 -54.5t-132.5 54.5t-55 132z
M878 54h-99v98q0 6 -3 11t-8 8t-11 3q-9 0 -16 -6.5t-7 -15.5v-98h-98q-9 0 -15.5 -6.5t-6.5 -15.5q0 -6 3 -11.5t8 -8.5t11 -3h98v-99q0 -6 3 -11t8.5 -8t11.5 -3q9 0 15.5 6.5t6.5 15.5v99h99q9 0 15.5 6.5t6.5 16t-6.5 16t-15.5 6.5z" />
    <glyph glyph-name="uniE60A" unicode="&#xe60a;" 
d="M669 485q0 81 -57 138t-137.5 57t-137.5 -57t-57 -138q0 -24 6 -47.5t17 -44t26.5 -37.5t34.5 -31q-68 -22 -117 -74t-67 -121q-6 -17 -8 -35q-7 -31 -5 -59l-1 -2q-1 -3 -1 -4q0 -7 3 -14l1 -3l1 1q2 -4 5 -7t7 -5.5t8 -4t9 -1.5q14 0 24 10t10 24q0 1 -0.5 2t-0.5 2
q13 76 34 120q29 53 78 90.5t124 45.5h4q2 0 4 0.5t4 0.5t5 1h7l-1 1q75 6 126.5 61.5t51.5 130.5zM473 348q-54 0 -92.5 38.5t-38.5 92.5t38.5 92t92.5 38t92 -38t38 -92t-38 -92.5t-92 -38.5zM677 250q0 1 -0.5 1t-0.5 1h-1v0q-10 9 -22 9q-14 0 -24 -10t-10 -24
q0 -5 1.5 -9.5t4 -8t5.5 -6.5t7 -6q38 -31 59.5 -74.5t21.5 -93.5q0 -2 -3 -22h3q0 -4 2 -8.5t5 -8t7 -6t8.5 -4t9.5 -1.5q14 0 24 10t10 24v3l-1 2q1 9 1 11q0 66 -28.5 123.5t-78.5 97.5zM247 306v1q8 1 14 5t10 11t4 14.5t-4 14t-10 11t-14 5.5q-21 4 -39 14.5t-31 26
t-20.5 35.5t-7.5 41q0 41 25 72.5t63 42.5h1h1q3 0 6 0.5t5 1.5l6 4q2 1 4 3.5t3 5t2 5.5t1 6q0 5 -2 9t-4.5 7.5t-6.5 5.5t-8 3v1h-1h-1h-1q-2 1 -3 1t-2 -0.5t-2 -0.5v1q-2 0 -3.5 -0.5t-3.5 -1t-3 -1.5h-1q-59 -11 -98 -57.5t-39 -107.5q0 -45 22.5 -83t59.5 -61
q-75 -24 -122 -88t-47 -144q0 -5 1 -14l1 -4v-1v-2v-2v-1h1h-1v-1q0 -5 2.5 -10t6.5 -8t9 -4l6 -2q3 -1 6 -1q6 0 12 3q18 4 18 22v1h-1h1v1v1v1v2q0 2 -1 8q0 1 -1 3v8q-1 39 14 74.5t40 61.5t59.5 42.5t73.5 18.5zM847.5 699q-34.5 0 -66 -11.5t-54.5 -31t-36 -46.5
t-13 -57q0 -22 7.5 -42.5t22 -39t35.5 -32.5h1h1l1 -1l1 -1q6 -5 13 -11t11 -9l4 -3q-2 -13 -12 -38q-3 -8 3 -13l2 -2q1 -1 2.5 -1.5t3.5 -0.5q1 0 2.5 0.5t2.5 0.5q55 25 71 48q69 1 118 43.5t49 101.5q0 30 -13.5 57t-36.5 46.5t-54 31t-65.5 11.5zM880 506h-83
q-3 0 -6 1.5t-5 4t-2 6.5q0 2 1 4.5t3 4t4.5 2.5t4.5 1h83q4 0 7 -1.5t5 -4.5t2 -6q0 -5 -4 -8.5t-10 -3.5zM905 549h-108q-5 0 -9 3.5t-4 8.5q0 3 2 6t5 4.5t6 1.5h108q6 0 10 -3.5t4 -8.5q0 -3 -2 -6t-5 -4.5t-7 -1.5zM905 592h-108q-5 0 -9 3.5t-4 8.5q0 2 0.5 4t2 3.5
t3 2.5t3.5 1.5t4 0.5h108q6 0 10 -3.5t4 -8.5t-4 -8.5t-10 -3.5z" />
    <glyph glyph-name="uniE60B" unicode="&#xe60b;" 
d="M512 700q79 0 151 -30q70 -30 123.5 -83.5t83.5 -123.5q30 -72 30 -151t-30 -151q-30 -70 -83.5 -123.5t-123.5 -83.5q-72 -30 -151 -30t-151 30q-70 30 -123.5 83.5t-83.5 123.5q-30 72 -30 151t30 151q30 70 84 123q26 27 57 48t66 36q72 30 151 30zM512 760
q-122 0 -225 -60t-163 -163t-60 -225t60 -225t163 -163t225 -60t225 60t163 163t60 225t-60 225t-163 163t-225 60zM727 342h-185v185q0 12 -9 21t-21 9t-21 -9t-9 -21v-185h-185q-12 0 -21 -9t-9 -21t9 -21t21 -9h185v-185q0 -12 9 -21t21 -9t21 9t9 21v185h185q12 0 21 9
t9 21t-9 21t-21 9z" />
    <glyph glyph-name="uniE60C" unicode="&#xe60c;" 
d="M622 368q2 -2 5 -3t6 -1q8 0 13.5 5.5t5.5 13.5q0 10 -9 15q-34 23 -73 36q30 16 53 41t36 57.5t13 68.5q0 78 -55.5 133.5t-133.5 55.5t-133 -55.5t-55 -133.5q0 -36 13 -68.5t35.5 -57.5t53.5 -41q-87 -28 -142.5 -102.5t-56.5 -167.5v-2q1 -7 6 -12.5t12.5 -5.5
t13 5.5t5.5 12.5q0 103 73 175.5t175 72.5q76 0 139 -42v0zM333 601q0 63 44 107t106.5 44t106.5 -44t44 -107q0 -41 -20 -75.5t-55 -55t-76 -20.5q-62 0 -106 44.5t-44 106.5zM807 278h-80v79q0 7 -5 12.5t-13 5.5q-4 0 -7 -1.5t-5.5 -4t-4 -6t-1.5 -6.5v-79h-79
q-8 0 -13.5 -5.5t-5.5 -13t5.5 -12.5t13.5 -5h79v-80q0 -8 5.5 -13t12.5 -5q3 0 6 0.5t5 2.5t3.5 4t2.5 5t1 6v80h80q7 0 12.5 5t5.5 13q0 5 -2.5 9t-6.5 6.5t-9 2.5zM281 -170v-32h-26q1 7 1.5 12.5t0.5 9.5v9v9v143v14q0 6 -2 11q14 -2 25 -2h23h11h12q12 0 24 2
q-1 -4 -1.5 -10t-0.5 -15v-138l1 -20q0 -9 1 -21h-26v28h-43zM324 -149v131h-43v-131h43zM178 -28q-2 -38 -5.5 -65.5t-9.5 -48t-15.5 -36t-22.5 -28.5q-5 5 -10 8.5t-11 6.5q13 12 22.5 26.5t15.5 34t9 44.5t4 58h-7q-4 0 -7 -1h-3h-4h-3q-5 0 -9 -1q-2 0 -4 -0.5t-4 -0.5
v27q4 -1 8 -1.5t8 -0.5h11q3 -1 7 -1h7v29v16q0 6 -0.5 9t-1.5 5q13 -2 32 -3q2 -1 2.5 -2t-2.5 -4q-2 -4 -4 -15t-2 -35h11h9q9 1 15 1t11 0.5t10 1.5l-7 -149q-1 -16 -3 -25.5t-7 -15t-13.5 -8.5t-23.5 -5q0 5 -0.5 8.5t-2.5 7.5q-2 6 -7 14q10 -1 17 -0.5t10.5 4.5t5 12
t1.5 21l6 112h-33zM474 -7q-4 6 -7 11q-1 3 -3 5.5t-4 5.5l-8 10q-1 2 -3 4l-4 4l22 14q7 -10 15.5 -20.5t15.5 -17.5zM513 -117q-4 -15 -12.5 -27.5t-21 -24.5t-30 -23.5t-41.5 -23.5q-8 14 -23 25q20 5 37.5 13t32 19.5t24 25t12.5 29.5q-16 0 -28 -1h-25q-11 0 -21 -1
q-11 -1 -22 -1v25q11 0 22 -1h11h12q11 -1 25 -1h29q1 6 1.5 12.5t1.5 13.5v28h-28q-3 0 -6 -0.5t-6 -0.5h-5h-6h-10q-5 0 -9 -1q-10 0 -19 -1v26q12 -1 24 -1q11 -1 24.5 -1t30 -0.5t38.5 -0.5q6 10 10.5 18t7.5 15.5t5.5 14t4.5 12.5q3 -2 7.5 -4.5t9.5 -4.5q1 0 2.5 -1
t2.5 -2l3 -1l5 -2q4 0 4 -1.5t-6 -5.5q-1 -1 -4.5 -4t-7.5 -8q-3 -3 -5 -6t-5 -6q-5 -6 -9 -14q6 0 11 0.5t10 0.5h6h6h5q8 1 15.5 1t16.5 1v-26q-6 1 -11 1t-9 1h-20q-5 1 -12 1h-12h-34q1 -16 0 -29q0 -6 -0.5 -12.5t-1.5 -12.5h37h14h13q12 1 22 1q5 0 11 0.5t12 0.5v-25
q-12 1 -23 1q-5 0 -10.5 0.5t-11.5 0.5q-11 0 -26 1h-6h-5h-6h-6h-7h-6q9 -18 21 -31t27 -22t32 -14t36 -8q-2 -2 -4 -4.5t-3.5 -4.5t-2.5 -5q-4 -7 -6 -17q-19 6 -37 15t-32 21t-24.5 26t-15.5 31v0zM735 -105q-1 -3 -1.5 -6t-1.5 -6l-2 -6l-2 -6q-4 -13 -7 -26
q-4 -13 -7 -26q-4 -13 -7 -25q-8 6 -15 10t-14 6q6 10 11 22q1 4 3 8t3.5 8.5t2.5 9.5q4 12 8 25q1 4 2 9l2 8q1 5 2 9q10 -10 23 -14zM715 -75q-4 4 -9 8.5t-11 8.5t-11 7q-6 3 -11 5l16 20q11 -6 23 -13q6 -4 11 -7.5t9 -7.5zM728 -10q-7 7 -17.5 16t-20.5 15l16 19
q11 -7 20.5 -14.5t18.5 -14.5zM821 10q-1 9 -4 17l-4 8l-4 8l27 9l2 -4l2 -4q1 -2 1.5 -4t1.5 -4q4 -8 6 -17zM819 -99h-32q-2 -1 -4 -1h-5h-4q-2 0 -4 -0.5t-4 -0.5h-3v27q11 -2 24 -2q7 -1 15 -1h17v60q-21 -1 -37.5 -1.5t-29.5 -1.5v26q15 -1 35 -1.5t47.5 -0.5t47 0.5
t34.5 1.5v-26q-13 1 -31 2h-9h-10h-10q-6 0 -12 1v-60h18q9 0 16.5 0.5t14.5 1t13 1.5v-27q-12 1 -27.5 1.5t-34.5 0.5v-75q24 0 42.5 0.5t31.5 2.5v-27q-15 2 -36.5 2.5t-50.5 0.5t-50.5 -0.5t-37.5 -2.5v27q14 -2 32.5 -2.5t43.5 -0.5v75z" />
    <glyph glyph-name="uniE60D" unicode="&#xe60d;" 
d="M412 294q0 17 11 28l160 159q2 2 4.5 3.5t5 2t5 0t5 -2t4.5 -3.5q3 -2 4 -5.5t1 -6.5t-1 -6.5t-4 -5.5l-159 -159q-3 -4 0 -7l159 -159q5 -5 5 -12t-5 -12.5t-12 -5.5t-12 6l-160 159q-11 11 -11 27zM512 683q104 0 192.5 -51.5t140 -140t51.5 -193t-51.5 -192.5
t-140 -139.5t-192.5 -51.5t-192.5 51.5t-140 139.5t-51.5 192.5t51.5 193t140 140t192.5 51.5zM160 298.5q0 -95.5 47 -176.5t128 -128t177 -47t177 47t128 128t47 177q0 57 -18 111t-50.5 97t-75.5 75.5t-97 50.5t-111 18q-96 0 -177 -47t-128 -128.5t-47 -177z" />
    <glyph glyph-name="uniE60E" unicode="&#xe60e;" 
d="M511 762q-73 0 -141.5 -23t-124 -64.5t-97 -96.5t-64 -123.5t-22.5 -141.5q0 -92 35.5 -175t95.5 -143.5t143.5 -96t174.5 -35.5q73 0 142 23t124 64.5t96.5 96.5t64 123.5t22.5 142.5q0 170 -113 298q-109 123 -271 146q-33 5 -65 5zM760 341q-2 -10 -6 -13t-12 -3
q-4 0 -7.5 1.5t-6 3.5t-4 5t-1.5 7l3 19q9 30 -6 63q-13 22 -35.5 34t-38 13.5t-20.5 -0.5q-2 -1 -4.5 -2t-4.5 -1.5t-4 -0.5h-3l-1 -1q-8 0 -13.5 6t-5.5 13q0 15 14 19h1l1 1q38 7 65 1q21 -5 40 -16.5t35.5 -31.5t20 -48.5t-6.5 -68.5v0zM622 411q-13 0 -13 13q0 6 4 10
t9 4q3 0 8.5 0.5t19 -1.5t23.5 -8.5t17 -22.5t4 -41v-1q-2 -11 -13 -11q-6 0 -9.5 3.5t-3.5 9.5v2q0 1 0.5 5t0.5 7.5t-1 8.5t-3 8.5t-5 7.5t-8.5 5.5t-12.5 2.5t-17 -2zM629 387q6 -7 8.5 -14.5t2 -14t-2 -12t-3.5 -9.5l-2 -3q-9 -10 10 -14q7 -1 15.5 -5t18 -12t15.5 -19
t6 -28t-9 -37q-24 -49 -90 -75.5t-131 -21.5q-172 14 -184 123v13q0 9 8.5 34t26.5 49q7 9 18.5 23t44.5 42.5t63 38.5q76 26 76 -39q-5 -15 -3.5 -21.5t18.5 -1.5q-1 1 18 7t39 7.5t37 -10.5zM473 336q-60 -2 -102 -30.5t-42 -68.5t42 -66t102 -23q29 1 56 10.5t46 24
t30.5 33.5t11.5 38q0 10 -3 19t-8.5 17t-13.5 14.5t-17.5 12t-21 9.5t-24.5 6.5t-27 3.5t-29 0zM408 182q-10 5 -15.5 14t-5.5 15v6l1 27q11 50 67 57h2q28 4 48 -6.5t26.5 -27t5.5 -34.5t-10 -30q-19 -25 -51 -32t-68 11zM436 243q-11 -1 -18.5 -9.5t-7.5 -17.5
q0 -10 8 -15.5t19 -4t19 9t8 16.5q0 10 -8 16t-20 5zM488 252q-2 3 -6 3.5t-9 -2.5q-8 -6 -3 -15q5 -8 14 -1t4 15z" />
    <glyph glyph-name="uniE60F" unicode="&#xe60f;" 
d="M509 412q-8 0 -13.5 -5.5t-5.5 -13.5q0 -4 1.5 -8t4 -6.5t6 -4t7.5 -1.5q3 0 5.5 0.5t4.5 2t4 3.5t3 4t2 4.5t1 5.5q0 5 -2.5 9.5t-7 7t-10.5 2.5zM401 412q-8 0 -14 -5.5t-6 -13.5q0 -4 1.5 -8t4.5 -6.5t6.5 -4t7.5 -1.5q8 0 13.5 6t5.5 14q-4 16 -19 19zM562 301
q-4 0 -8 -2t-6.5 -6t-2.5 -9q0 -3 1.5 -6.5t3.5 -6t5.5 -3.5t6.5 -1q7 0 12.5 5t5.5 12q0 4 -1.5 7t-4 5.5t-5.5 3.5t-7 1zM511 746q-61 0 -118.5 -16t-106.5 -45t-90.5 -70t-70 -89.5t-44.5 -106.5t-16 -119q0 -90 35 -172.5t95 -142t142.5 -95t173.5 -35.5t173.5 35.5
t142.5 95t95 142t35 173t-35 173t-95 142t-142.5 95t-173.5 35.5zM396 223l-52 -27q1 3 2.5 8.5t5.5 17.5t7 20q0 1 -5.5 5t-12.5 9.5t-15 15.5t-14.5 21t-11 27t-3.5 33q2 55 52 92.5t113 32.5q61 -5 99 -35t46 -73q-7 1 -23 -0.5t-31.5 -4.5t-36 -17t-37.5 -37
q-13 -18 -16.5 -47.5t4.5 -46.5q-20 -4 -71 6zM680 163l12 -41q-4 2 -9.5 5t-17.5 9.5t-17 10.5q-6 -4 -25 -6.5t-44 -0.5t-52.5 18t-43.5 45q-36 80 38 137q38 23 82 23q39 -1 69 -17.5t45.5 -40.5t16.5 -51q1 -23 -12.5 -45.5t-23.5 -32t-18 -13.5zM646.5 301
q-7.5 0 -12.5 -5t-5 -12q0 -5 2.5 -9t6.5 -6t9 -2q17 0 17 17q0 7 -5 12t-12.5 5z" />
    <glyph glyph-name="uniE610" unicode="&#xe610;" 
d="M511 746q-72 0 -140 -22.5t-123 -63.5t-96 -96t-63.5 -122.5t-22.5 -140.5q0 -90 35.5 -172.5t95 -142t142 -94.5t173 -35t173 35t142 94.5t95 142t35.5 172.5q0 61 -16 118.5t-45 106.5t-70 90t-90 69.5t-106.5 44.5t-118.5 16zM674 208q0 -2 -3 -2t-6.5 2t-6.5 5
q-4 4 -8 9t-4 6q0 -2 -3 -9.5t-10 -18.5t-16 -19q1 0 3 -0.5t3.5 -1t4 -1.5t4.5 -2t4.5 -2t3.5 -2l4 -4q2 -2 3.5 -4t2 -4.5t1.5 -5.5q0 -5 -3.5 -10t-17.5 -11.5t-37 -8.5q-2 -1 -11.5 -0.5t-20 1.5t-22.5 5.5t-18 11.5h-18q-2 -3 -7 -6.5t-20.5 -7.5t-36.5 -4
q-8 0 -18 1.5t-21 4.5t-18.5 9.5t-8.5 15.5q0 2 1 4.5t4 6.5t9.5 7.5t15.5 5.5q-3 3 -9 8.5t-13.5 18t-10.5 25.5q-14 -25 -28 -25q-3 0 -5.5 5t-3 15t2.5 25q11 39 45 66q-4 26 11 42q-1 4 1 16t9 30t20 34t37.5 28t57.5 12q33 -1 57.5 -13.5t36 -26t18.5 -34t8 -26.5
t1 -16q3 -2 6.5 -11t5 -21.5t-6.5 -21.5q19 -16 32 -49t-1 -52z" />
    <glyph glyph-name="uniE611" unicode="&#xe611;" 
d="M512 747q-185 0 -316 -131t-131 -316t131 -316t316 -131t316 131t131 316t-131 316t-316 131zM512 -117q-113 0 -209 56t-152 152t-56 209t56 209t152 152t209 56t209 -56t152 -152t56 -209t-56 -209t-152 -152t-209 -56zM683 492l-171 -172l-171 172l-21 -21l172 -171
l-172 -171l21 -21l171 172l171 -172l21 21l-172 171l172 171z" />
    <glyph glyph-name="uniE612" unicode="&#xe612;" 
d="M698 317q-1 3 -4 5l-319 319q-5 5 -10.5 7.5t-11.5 2.5t-12 -2.5t-11 -7.5q-2 -2 -4 -5t-3 -6.5t-1.5 -7t0 -7t1.5 -7t3 -6.5t4 -5l297 -297l-297 -297q-9 -10 -9 -23t9.5 -22t22.5 -9t22 9l319 319q8 8 9.5 19.5t-5.5 20.5z" />
    <glyph glyph-name="uniE613" unicode="&#xe613;" 
d="M512 -212q-104 0 -199 40.5t-163.5 109t-109 163.5t-40.5 199t40.5 199t109 163.5t163.5 109t199 40.5t199 -40.5t163.5 -109t109 -163.5t40.5 -199t-40.5 -199t-109 -163.5t-163.5 -109t-199 -40.5zM512 763q-94 0 -180 -36.5t-148 -98.5t-98.5 -148t-36.5 -180
t36.5 -180t98.5 -148t148 -98.5t180 -36.5t180 36.5t148 98.5t98.5 148t36.5 180t-36.5 180t-98.5 148t-148 98.5t-180 36.5zM439 117l-178 178l34 34l144 -144l292 292l35 -34z" />
    <glyph glyph-name="uniE614" unicode="&#xe614;" horiz-adv-x="1000" 
d="M535 755h-44v-394h44v394zM681 683v-38q96 -48 154.5 -141t58.5 -205q0 -62 -19 -121t-54.5 -106t-82 -83t-105 -55.5t-120.5 -19.5q-103 0 -191 52t-139 140.5t-51 192.5q0 109 55.5 200t147.5 140v40q-107 -52 -172.5 -154t-65.5 -226q0 -114 56 -210.5t151.5 -153
t208.5 -56.5q85 0 162 33.5t132.5 89.5t88.5 134t33 163t-31.5 161t-87.5 133.5t-129 89.5z" />
    <glyph glyph-name="uniE615" unicode="&#xe615;" 
d="M954 -63q0 -19 -6.5 -35.5t-18.5 -29t-28 -19.5t-35 -7h-726q-19 0 -36 7t-30 19.5t-20.5 29t-7.5 35.5v499q0 38 26.5 64.5t64.5 26.5h726q38 0 64.5 -26.5t26.5 -64.5v-136h-227q-38 0 -64.5 -26t-26.5 -64q1 -26 11 -46q8 -17 26.5 -31t53.5 -14h227v-182zM818 573
h-454q54 28 102 54q42 22 83 44t64 34q35 19 62.5 17.5t46.5 -9.5q22 -11 38 -29zM682 210q0 19 13 32t32 13t32 -13t13 -32t-13 -32.5t-32 -13.5t-32 13.5t-13 32.5z" />
    <glyph glyph-name="uniE616" unicode="&#xe616;" 
d="M905 391h-63q-5 18 -13 37l-4 9q-2 6 -4.5 11.5t-5.5 11t-6 10.5l45 45q7 8 7 18q0 5 -2 9.5t-5 7.5l-94 94q-7 6 -17 6t-17 -6l-45 -46q-9 5 -17.5 9.5t-18.5 8.5l-8 3q-9 4 -18 7t-18 5v64q0 10 -7 17t-17 7h-132q-7 0 -12.5 -3t-9 -8.5t-3.5 -12.5v-64q-18 -5 -35 -12
l-10 -4q-17 -7 -34 -17l-45 46q-7 6 -17.5 6t-17.5 -6l-93 -94q-7 -7 -7 -17q0 -5 2 -9.5t5 -8.5l45 -45q-2 -4 -4.5 -8t-4.5 -8l-4 -10q-2 -4 -5 -9l-3 -8q-7 -18 -12 -36h-63q-11 0 -18 -7t-7 -17v-132q0 -7 3.5 -12.5t9 -9t12.5 -3.5h63q5 -18 13 -37l3 -9q8 -17 17 -33
l-45 -45q-7 -7 -7 -17.5t7 -17.5l93 -93q7 -7 17.5 -7t17.5 7l45 45q17 -9 33 -17l8 -3l3 -1q17 -7 35 -12v-64q0 -10 7.5 -17t17.5 -7h132q10 0 17.5 7t7.5 17v64l12 4l12 4q6 2 12 5l9 3q9 4 17.5 8t16.5 9l45 -45q7 -7 17.5 -7t16.5 7l94 93q7 7 7 17.5t-7 17.5l-45 45
l9 17l8 18l-13 6l15 -2l2 5q3 8 6 17l6 18h63q7 0 12.5 3.5t9 9t3.5 12.5v132q0 10 -7.5 17t-17.5 7zM901 239h-82l-3 -11q-5 -22 -14 -44l-1 -3l13 -6l-15 1q-4 -10 -9.5 -20t-11.5 -20l-6 -9l58 -58l-87 -88l-58 58l-10 -6q-18 -11 -41 -21l6 -13l-9 12l-5 -2
q-21 -9 -42 -14l-11 -2v-82h-124v82l-11 2q-22 6 -45 15l-5 -14l1 15l-6 -13l3 15q-20 9 -40 20l-9 6l-58 -58l-88 88l58 58l-6 9q-11 19 -21 41l-1 4l-13 -6l11 10q-8 21 -14 43l-2 11h-82v123h82l2 12q6 21 15 44l1 3l-13 5h15q9 20 20 39l6 10l-58 58l88 87l58 -58l9 6
q19 12 41 21l-4 14l8 -12l-3 14l8 -12q10 4 20.5 7t21.5 6l11 3v82h124v-82l11 -3l22 -6q11 -3 22 -8l5 13l-2 -14l5 -2q21 -9 39 -21l10 -6l58 58l87 -87l-58 -58l6 -10q3 -5 6 -9.5t5.5 -10t4.5 -10.5l6 -11l3 -8q8 -21 13 -42l3 -12h82v-123v0zM511 476q-73 0 -124 -51.5
t-51 -124t51 -123.5t123.5 -51t124 51t51.5 124q0 28 -9 55t-25 48.5t-37.5 37.5t-48.5 25t-55 9zM511 154q-61 0 -104 43t-43 103.5t43 103.5t104 43t103.5 -43t42.5 -103q0 -40 -19.5 -73.5t-53 -53.5t-73.5 -20z" />
    <glyph glyph-name="uniE617" unicode="&#xe617;" 
d="M298 323q20 -55 51 -89q47 -54 111 -50q20 1 38 8t34 20q33 28 56 75q17 35 27.5 73t14.5 79q3 25 0 49t-12 47q-11 28 -29 49t-44 34q-17 9 -35 14t-38 6q-54 4 -97 -12q-57 -22 -85 -74q-11 -21 -16 -44.5t-5 -50.5q0 -1 0.5 -5t0.5 -8v-7q3 -19 7 -38.5t9 -38
t12 -37.5zM552 138l-2 1q-7 0 -16.5 0.5t-16.5 1t-15.5 1t-16.5 1.5q-69 2 -132 -5q-59 -6 -104 -19q-46 -13 -74.5 -28.5t-38.5 -42.5q-8 -20 -8 -47v-59v-4h545q-122 63 -121 200zM797 166v98h-81v-98h-98v-82h98v-97h81v5v88q0 5 5 5h88h5v81h-98z" />
    <glyph glyph-name="uniE618" unicode="&#xe618;" 
d="M530 -73q104 0 192.5 51.5t140 140t51.5 192.5t-51.5 192.5t-140 140t-192.5 51.5t-192.5 -51.5t-140 -140t-51.5 -192.5q0 -159 112.5 -271.5t271.5 -112.5zM530 643q84 0 161.5 -46.5t124 -124t46.5 -161.5t-46.5 -161.5t-124 -124t-161.5 -46.5q-42 0 -84 12.5
t-78.5 35t-68 54t-54 68t-35 78.5t-12.5 84q0 84 46.5 161.5t124 124t161.5 46.5zM770 299q-8 -99 -76.5 -163.5t-163.5 -64.5q-37 0 -71.5 11t-63.5 31t-51.5 47.5t-36.5 63t-17 75.5h146h228q108 0 106 0zM338 431q0 -30 14 -51t34 -21t34 21t14 51q0 15 -3.5 28t-10 23
t-15.5 15.5t-19 5.5q-8 0 -15 -3.5t-13 -10.5t-10.5 -15.5t-7 -19.5t-2.5 -23zM626 431q0 -30 14 -51t34 -21t34 21t14 51q0 20 -6.5 36.5t-17.5 26t-24 9.5t-24 -9.5t-17.5 -26t-6.5 -36.5z" />
    <glyph glyph-name="uniE619" unicode="&#xe619;" 
d="M623 263h-222q-16 0 -26.5 -11t-10.5 -26.5t10.5 -26t26.5 -10.5h222q16 0 26.5 10.5t10.5 26t-10.5 26.5t-26.5 11zM902 40h-56v373q1 9 2 17.5t1 17.5q0 6 -1 15t-2 16v7q-18 95 -112 158.5t-219 63.5q-83 0 -156 -29t-121.5 -80t-59.5 -113v-446h-56q-23 0 -39 -21.5
t-16 -52.5t16 -52.5t39 -21.5h780q23 0 39 21.5t16 52.5q0 12 -2.5 23.5t-8 20.5t-12 16t-15 10.5t-17.5 3.5zM660 226v-112v-111h-296v111v112v74q0 46 43.5 78.5t104.5 32.5q53 0 94 -25q8 -6 16 -11q38 -32 38 -75v-74zM782 440q-3 2 -5.5 3t-5.5 2l-6 2q1 12 -0.5 24.5
t-6.5 25.5t-12 24q-16 26 -40.5 41.5t-50.5 17.5q-5 7 -13 12q33 10 68 -5t56 -49q15 -24 19 -50t-3 -48zM623 152h-222q-16 0 -26.5 -11t-10.5 -26.5t10.5 -26.5t26.5 -11h222q16 0 26.5 11t10.5 26.5t-10.5 26.5t-26.5 11z" />
    <glyph glyph-name="uniE61A" unicode="&#xe61a;" 
d="M979 -132l-269 268q87 104 87 239q0 102 -50 188t-136.5 136t-187.5 50q-51 0 -99.5 -13.5t-89.5 -37.5t-75.5 -58.5t-59 -75.5t-38 -89.5t-13.5 -99.5q0 -101 50.5 -187.5t136.5 -136.5t188 -50q135 0 239 86l268 -268zM88 375q0 68 26.5 130t71.5 107t107 71.5
t130 26.5t130 -26.5t106.5 -71.5t71 -107t26.5 -130t-26.5 -130t-71 -106.5t-106.5 -71t-130 -26.5q-91 0 -168 44.5t-122 121.5t-45 168z" />
    <glyph glyph-name="uniE61B" unicode="&#xe61b;" 
d="M901 517l-84 -84v-1t-1 -1l-312 -316q-1 0 -1.5 -2.5t-1.5 -3.5t-3 -2q-2 0 -3 -1l-14 -14l-225 -57l59 221l427 420q33 33 79.5 33t79.5 -33q21 -22 29 -50.5t0 -57.5t-29 -51zM312 88l125 45l-79 79zM443 297q-1 0 -2 -2l-1 -2l-41 -42l78 -79l59 60l220 220l-79 79z
M861 636q-11 11 -25.5 15t-28.5 0t-25 -15l-65 -65l79 -79l65 65q11 11 15 25.5t0 28.5t-15 25zM455 597h-252q-12 0 -22.5 -4.5t-18 -12t-12 -18t-4.5 -22.5v-561q0 -23 16.5 -39.5t40.5 -16.5h561q23 0 39.5 16.5t16.5 39.5v309q0 12 8 20t19.5 8t20 -8t8.5 -20v-309
q0 -46 -33 -79t-79 -33h-561q-47 0 -80 33t-33 79v561q0 47 33 80t80 33h252q8 0 14.5 -4t10 -10.5t3.5 -13.5q0 -12 -8 -20t-20 -8z" />
    <glyph glyph-name="uniE61C" unicode="&#xe61c;" 
d="M438 185h6q3 0 15 1t23.5 4.5t28 12.5t31.5 22t32.5 35t32 50t28 69.5t22.5 91.5q14 78 -6 142.5t-75.5 103.5t-137.5 39q-84 0 -141 -39t-77.5 -103.5t-5.5 -142.5q42 -222 161 -274q27 -12 63 -12zM563 112q0 4 1 16q-60 7 -124 7q-200 0 -327 -55q-41 -18 -61.5 -45
t-20.5 -79v-79h688q-70 29 -113 93t-43 142zM782 94q5 7 11 13l12 12q2 2 5 4l6 4l6 4q3 2 7 4q13 7 27 6q21 -2 34 -10q7 -4 12.5 -9t9.5 -11t6.5 -13t4.5 -15q3 -16 2 -32t-6 -31t-12 -28q-2 -5 -5 -9l-4 -8q-3 -4 -6 -7q-5 -6 -9 -11t-8 -9q-7 -7 -14 -13.5t-14 -11.5
q-14 -12 -27 -20.5t-23.5 -13.5t-16.5 -5q-7 0 -17 5t-22 13q-13 9 -26 20q-13 12 -27 24q-8 9 -18 19.5t-18.5 23.5t-15 28.5t-7 32.5t4 32t13 26.5t21 19.5t27.5 12q8 1 16 0q4 0 8 -1t8 -3q7 -3 14 -7q2 -1 4.5 -2.5t4.5 -3t4 -3.5q15 -11 28 -26z" />
    <glyph glyph-name="uniE61D" unicode="&#xe61d;" 
d="M957 568q-1 12 -9.5 19.5t-20.5 7.5h-94q-2 6 -5.5 11t-7.5 9.5t-9.5 8.5t-11 6.5t-12.5 4t-14 1.5h-523q-20 0 -36 -11.5t-23 -29.5h-95q-7 0 -13.5 -3.5t-11 -9.5t-5.5 -14q-4 -23 -2 -74t15 -88q24 -81 142 -153q3 -2 53 -32q15 -10 30 -19q39 -23 64 -34
q31 -47 62 -85l2 -3q2 -4 5 -7.5t7 -6.5l1 -1h-157q-17 0 -31 -8.5t-22 -22.5t-8 -30v0v-1v-60h570v60v1v0q0 12 -4.5 23.5t-13 19.5t-19.5 13t-24 5h-158q10 6 15 15l3 6q30 37 60 82q25 11 64 34q8 5 15.5 9.5t14.5 9.5q5 3 16 10t20 12t17 10q55 34 93 75.5t49 77.5
q22 64 12 162zM291 290q-8 5 -17 11q-3 2 -9.5 6t-11.5 7l-10 6q-16 10 -30.5 21.5t-25 23t-18 23.5t-10.5 22q-4 12 -6 25.5t-2.5 26.5t0 23.5t1.5 19.5q0 5 2.5 8.5t6.5 5.5t8 2h35l1 -2q15 -90 91 -231q-1 0 -2 1t-3 1zM865 410q-7 -21 -29 -45.5t-55 -44.5
q-2 -1 -31 -19q-9 -6 -18 -11q-1 -1 -3 -2q77 143 92 233h33q7 0 12 -4.5t6 -11.5q6 -57 -7 -95z" />
    <glyph glyph-name="uniE61E" unicode="&#xe61e;" 
d="M848 -149h-673q-30 0 -56 15t-41 41t-15 56v673v4q0 1 0.5 3t0.5 3l172 -124q114 -83 275 -83t275 83l173 124v-3q1 -5 1 -7v-673q0 -59 -50 -92q-29 -19 -62 -20zM679 90q0 5 -4 9.5t-10 4.5h-126v56h126q6 0 10 4t4 10v28q0 6 -4 10t-10 4h-64l76 136q4 7 -7 14l-23 14
q-3 1 -5.5 2t-4.5 1t-3.5 -1t-2.5 -2l-89 -160q-1 -1 0 -4h-17h-28h-9l-88 152q-5 7 -17 0l-24 -14q-12 -7 -8 -14l72 -124h-66q-6 0 -10 -4t-4 -10v-28q0 -6 4 -10t10 -4h126v-56h-126q-3 0 -5.5 -1.5t-4.5 -3t-3 -4.5t-1 -5v-28q0 -4 2 -7.5t5 -5t7 -1.5h126v-70
q0 -6 4 -10.5t10 -4.5h28q6 0 10 4.5t4 10.5v70h126q6 0 10 4t4 10v28zM291 561l-202 146q16 19 38.5 30t47.5 11h673q52 0 86 -41l-203 -146q-60 -43 -140 -58.5t-160 0t-140 58.5z" />
    <glyph glyph-name="uniE61F" unicode="&#xe61f;" 
d="M991 745q-5 2 -11 2q-17 0 -28 -11l-911 -459q-13 -7 -20 -18t-6 -23q2 -21 23 -28q7 -2 40 -12.5t74 -23.5t81.5 -25.5t67.5 -20.5l27 -9l5 -2l17 50l-254 80l780 406q-232 -264 -436 -494q-29 -33 -29 -71v-153v-54v-2q1 -6 4.5 -12t9.5 -9t13 -3q10 0 17.5 7t8.5 17
q1 191 0 205q0 20 11 33q113 128 466 528q-113 -562 -128 -637q-1 -4 -4 -4h-2q-13 4 -280 85l-5 1l-17 -50l5 -2q1 0 28.5 -8.5t66.5 -20t79 -24t72 -22t39 -11.5q8 -2 15 -2q20 0 35.5 13t19.5 34q2 9 56 278q6 30 12 59t12 59.5t12 59t11.5 56t10 51.5t9 45.5t8 38.5
t6 30t4 20t1.5 8l1 3q5 31 -17 42z" />
    <glyph glyph-name="uniE620" unicode="&#xe620;" 
d="M974 119q-4 11 -13 16.5t-26 11.5q-10 4 -14 6q-7 2 -32.5 13t-39.5 17q-6 2 -10.5 3t-8.5 2q-7 5 -20 32q-3 1 -8 1q-3 1 -4 1q0 6 2.5 10t5.5 7.5t4 7.5t2 14.5t3 15.5l3 3q1 1 2.5 2t3 1.5t2.5 2.5l3 2q2 2 3.5 5.5t2 6.5t1.5 6q4 23 -2 35q-5 11 -5 14q-1 5 1 23.5
t2 19.5q0 27 -4 46q-5 14 -12 18l-15 2l-9 9q-36 22 -96 -2q-3 -1 -6.5 -3t-6.5 -4t-5.5 -5t-5 -6.5t-4.5 -6.5q-1 -7 -1 -10q1 -1 1 -2t1 -1l4 -8q11 -24 4 -64q-4 -23 -14 -36q-1 -2 -2 -3t-2 -2.5t-3 -2.5q2 -12 4.5 -21t8.5 -13l3 -1q2 -1 4 -1h2q3 -27 4 -38
q1 -3 6 -8.5t6 -11.5l-9 -3q0 -1 -3 -5q9 -4 19.5 -8.5t19.5 -8t20 -8.5q31 -13 40 -17q2 -1 5.5 -2.5t6 -2t6.5 -2.5q18 -6 28 -10.5t23.5 -16.5t19.5 -28l1 -5v-4q0 -8 1 -34v-9v-10h103q0 11 -0.5 38t-0.5 32zM275 173l4 2q2 1 3.5 1.5t4 1.5t4 1.5t4 1.5t4 2t4 2
t3.5 1.5t4 1.5t4 2q38 16 59 25q-2 3 -3 5q-4 1 -12 2q0 5 1.5 8.5t3.5 5.5t4 5t3 6q1 4 2 9v12q1 5 3 9q1 2 4 4t6 3.5t4 3.5q5 6 7 18q0 3 0.5 5.5t0.5 4.5q-9 9 -14.5 24.5t-7 26t-2.5 27.5v8q-1 12 6 25q1 2 2 3q-4 16 -6 32l-14 2l-9 9q-16 10 -37 10.5t-32 -3
t-27 -9.5q-15 -5 -25.5 -20.5t-13.5 -39.5t3 -55q2 -6 -1.5 -13t-3.5 -9q0 -1 0.5 -7t1 -10t1.5 -10t2 -10t3.5 -8t5.5 -6l3 -1q2 -1 4 -1h2q1 -7 2 -20t2 -18q1 -3 6 -8.5t6 -11.5l-9 -3q-13 -27 -20 -32q-7 -2 -19 -5q-13 -6 -39 -17t-33 -13q-4 -2 -12 -5t-13.5 -5
t-11.5 -5.5t-10 -8t-6 -10.5q0 -6 -0.5 -19.5t-0.5 -27.5v-23h103q0 8 1 19v34v4l2 5q4 12 11.5 21.5t19 16t19 10t20.5 7.5q13 5 19 7zM771 150q-10 4 -46 19.5t-54 23.5q-18 4 -28 7l-5 4q-2 3 -4.5 6.5t-3.5 6.5l-4 8l-4 7l-4 7q-2 5 -2 6q-2 0 -4 1h-6q-2 1 -3.5 1
t-4.5 1q1 10 8.5 19.5t9 15t2.5 20.5t5 21q1 4 5 6.5t8 4.5t6 5q7 8 10 26q6 32 -2 49q-7 14 -8 19q-1 7 1.5 33t2.5 27q1 39 -5 64l-11 20q-3 4 -6 6l-21 3l-12 12q-24 14 -53 15t-44.5 -3.5t-37.5 -13.5q-34 -11 -49 -54.5t-1 -107.5q1 -8 -3.5 -17.5t-4.5 -12.5
q0 -2 0.5 -10.5t1 -14t2 -14t3.5 -14t5 -11t7 -8.5q1 0 4 -1t7 -2h3q0 -8 2 -25.5t3 -26.5q1 -3 2.5 -5.5t3.5 -4.5l3 -3q2 -2 3.5 -4.5t2.5 -5.5t2 -7l-13 -3q-18 -39 -28 -45q-12 -3 -27 -7q-19 -8 -54.5 -23.5t-45.5 -19.5q-6 -3 -22 -8.5t-23.5 -9t-16.5 -11.5t-13 -18
q0 -7 -1 -44.5t-1 -53.5h639q0 16 -0.5 53.5t-0.5 44.5q-4 10 -13 18t-17 11.5t-23.5 9t-21.5 8.5z" />
    <glyph glyph-name="uniE621" unicode="&#xe621;" 
d="M1019 598l-313 -268l-194 -159l-193 158l-314 269q-4 -10 -4 -18v-568q0 -5 1 -10q4 -22 21 -36.5t40 -14.5h898q20 0 36 12t22 30q4 10 4 19v568q0 4 -1 8.5t-3 9.5zM424 315l88 -71l88 71l44 37l335 286q-5 1 -9 2t-9 1h-899q-7 0 -17 -3l335 -287z" />
    <glyph glyph-name="uniE622" unicode="&#xe622;" 
d="M0 591l458 221v-529l-458 -205v513zM71 2l435 195h12l434 -195l-440 -197zM565 283v529l458 -221v-513z" />
    <glyph glyph-name="uniE623" unicode="&#xe623;" 
d="M512 688q-109 0 -201 -53.5t-145.5 -145.5t-53.5 -201t53.5 -201t145.5 -145.5t201 -53.5t201 53.5t145.5 145.5t53.5 201t-53.5 201t-145.5 145.5t-201 53.5zM512 -66q-96 0 -177.5 47.5t-129 129t-47.5 177.5t47.5 177.5t129 129t177.5 47.5t177.5 -47.5t129 -129
t47.5 -177.5t-47.5 -177.5t-129 -129t-177.5 -47.5z" />
    <glyph glyph-name="uniE624" unicode="&#xe624;" 
d="M192 396q40 0 68 -28t28 -68t-28 -68t-68 -28t-68 28t-28 68q0 26 13 48t35 35t48 13zM192 428q-53 0 -90.5 -37.5t-37.5 -90.5q0 -35 17 -64.5t46.5 -46.5t64.5 -17q53 0 90.5 37.5t37.5 90.5q0 35 -17 64.5t-46.5 46.5t-64.5 17zM512 396q26 0 48 -13t35 -35t13 -48
t-13 -48t-35 -35t-48 -13q-40 0 -68 28t-28 68t28 68t68 28zM512 428q-53 0 -90.5 -37.5t-37.5 -90.5q0 -35 17 -64.5t46.5 -46.5t64.5 -17t64.5 17t46.5 46.5t17 64.5t-17 64.5t-46.5 46.5t-64.5 17zM832 396q40 0 68 -28t28 -68q0 -13 -3.5 -25.5t-9.5 -23t-15 -19.5
t-19.5 -15t-23 -9.5t-25.5 -3.5q-40 0 -68 28t-28 68q0 19 7.5 37t20.5 31t30.5 20.5t37.5 7.5zM832 428q-53 0 -90.5 -37.5t-37.5 -90.5t37.5 -90.5t90.5 -37.5q35 0 64.5 17t46.5 46.5t17 64.5q0 53 -37.5 90.5t-90.5 37.5z" />
    <glyph glyph-name="uniE625" unicode="&#xe625;" 
d="M480 268zM448 268q0 13 9.5 22.5t22.5 9.5t22.5 -9.5t9.5 -22.5t-9.5 -22.5t-22.5 -9.5t-22.5 9.5t-9.5 22.5zM608 268zM576 268q0 13 9.5 22.5t22.5 9.5t22.5 -9.5t9.5 -22.5t-9.5 -22.5t-22.5 -9.5t-22.5 9.5t-9.5 22.5zM480 748q-98 0 -186.5 -38t-153 -102.5
t-102.5 -153t-38 -186.5t38 -186.5t102.5 -153t153 -102.5t186.5 -38t186.5 38t153 102.5t102.5 153t38 186.5t-38 186.5t-102.5 153t-153 102.5t-186.5 38zM704 204q0 -96 -96 -96h-71l-134 -90q-9 -5 -18 -5q-8 1 -15 4q-17 9 -17 28v63h-1q-96 0 -96 96v128q0 96 96 96
h256q46 0 71 -26t25 -70v-128zM352 268zM320 268q0 13 9.5 22.5t22.5 9.5t22.5 -9.5t9.5 -22.5t-9.5 -22.5t-22.5 -9.5t-22.5 9.5t-9.5 22.5z" />
    <glyph glyph-name="uniE626" unicode="&#xe626;" 
d="M512 812q-139 0 -257 -68.5t-186.5 -186.5t-68.5 -257t68.5 -257t186.5 -186.5t257 -68.5t257 68.5t186.5 186.5t68.5 257t-68.5 257t-186.5 186.5t-257 68.5zM512 182l-118 -118q-20 -20 -47.5 -20t-47.5 20l-23 23q-8 8 -13 17.5t-6.5 20t0 20.5t6.5 19.5t13 17.5
l118 118q13 13 30.5 17.5t33.5 -0.5l-159 -159q-10 -10 -10 -23.5t10 -23.5l24 -24q10 -10 23.5 -10t23.5 10l159 159q10 -37 -17 -64zM482 247q-2 -3 -5 -4t-6.5 -1t-6.5 1t-5.5 3.5t-3.5 5.5t-1 6.5t1 6.5t4 5l83 83q3 3 7 4t8.5 0t7.5 -4q12 -12 0 -24zM748 418
l-118 -118q-8 -9 -19 -13.5t-22.5 -5.5t-22.5 2l159 159q10 10 10 23.5t-10 23.5l-24 24q-6 6 -14.5 8.5t-17.5 0t-15 -8.5l-159 -159q-5 16 -0.5 33.5t17.5 30.5l118 118q8 8 17.5 13t19.5 6.5t20.5 0t20 -6.5t17.5 -13l23 -23q20 -20 20 -47.5t-20 -47.5z" />
    <glyph glyph-name="uniE627" unicode="&#xe627;" 
d="M512 812q-139 0 -257 -68.5t-186.5 -186.5t-68.5 -257t68.5 -257t186.5 -186.5t257 -68.5t257 68.5t186.5 186.5t68.5 257t-68.5 257t-186.5 186.5t-257 68.5zM720 508q44 -43 66 -100l-163 -155l31 305q37 -20 66 -50zM512 595q31 0 60.5 -6.5t56.5 -18.5l-5 -225
l-194 238q40 12 82 12zM304 508q43 44 100 66l155 -163l-305 31q20 37 50 66zM217 300q0 61 25 117l225 -5l-238 -194q-4 13 -6.5 26.5t-4 27.5t-1.5 28zM304 92q-44 43 -66 100l163 155l-31 -305q-37 20 -66 50zM512 5q-31 0 -60.5 6.5t-56.5 18.5l5 225l194 -238
q-13 -4 -26.5 -6.5t-27.5 -4t-28 -1.5zM720 92q-43 -44 -100 -66l-155 163l305 -31q-20 -37 -50 -66zM782 183l-225 5l238 194q12 -40 12 -82q0 -61 -25 -117z" />
    <glyph glyph-name="uniE628" unicode="&#xe628;" horiz-adv-x="1000" 
d="M156 633q63 60 150 66q33 3 66.5 -4t62.5 -22q43 -21 79 -62q39 44 86 65q30 16 75 22q23 3 46.5 1t46 -8t44 -16t39.5 -24q44 -33 70 -82t29 -103q5 -118 -68 -224q-41 -58 -111 -119q-9 -8 -18.5 -15.5t-20 -15.5t-19 -14.5t-20.5 -15.5t-19.5 -14t-21.5 -14.5
t-20 -13.5l-21 -14q-15 -10 -20 -14q-19 -12 -38 -26t-39 -30q-43 34 -82 59l-20 13q-16 11 -20 14t-19 13t-20.5 14t-18.5 13.5t-20 15t-18.5 14t-19.5 15t-18 15t-18 16.5q-96 85 -135 177q-18 44 -24 90q-7 51 0 90q14 82 75 138zM268 654q-47 -13 -85 -47.5t-55 -81.5
q-22 -57 -6 -135q17 -85 83 -163q66 -77 209 -174q86 -58 100 -69q13 10 101 71q106 71 161 123q39 37 69 78t47 86q26 70 18 139q-2 17 -7 33.5t-12.5 31.5t-18 29t-22.5 26t-26 22.5t-30 17.5q-31 15 -66 19t-70 -3q-50 -11 -89 -45q-8 -6 -16 -14.5t-13 -15t-13.5 -18
t-12.5 -17.5q-8 11 -15 20t-13 17q-41 50 -100 68q-58 19 -118 2z" />
    <glyph glyph-name="uniE629" unicode="&#xe629;" 
d="M512 -94q-5 3 -14.5 8.5t-38.5 24t-57 39t-66.5 51.5t-71 63t-66 73t-57 81.5t-38.5 88t-15 93.5q1 39 11.5 71t27.5 53t38.5 37.5t41 25.5t38 14.5t28 7.5t10.5 2q134 -4 229 -126q3 5 9 13.5t26 30t42.5 38t58.5 30t75 14.5q48 1 89 -19t66.5 -51.5t39.5 -67.5t15 -71
q0 -32 -10 -70.5t-29.5 -84.5t-54 -94.5t-79 -96t-109 -94.5t-139.5 -84z" />
    <glyph glyph-name="uniE62A" unicode="&#xe62a;" 
d="M438 37q-8 0 -15 3t-13 8l-218 209q-12 12 -12.5 29t11.5 29q7 8 17.5 11t21.5 0.5t19 -10.5l186 -178l337 410q11 13 28 15t30 -9t14.5 -28t-9.5 -30l-365 -444q-12 -14 -29 -15h-3z" />
    <glyph glyph-name="uniE62B" unicode="&#xe62b;" 
d="M195 426q31 0 46 -19.5t15 -43.5v-447h-193v443q0 32 20 49.5t44 17.5h68zM514 678q28 0 44 -17t16 -40v-705h-191v702q0 16 6 27t15.5 18.5t20.5 11t20 3.5h69zM833 234q9 0 19.5 -5t20.5 -14t16.5 -21t6.5 -25v-253h-191v251q0 11 4.5 23.5t12.5 22t19.5 15.5t24.5 6
h67z" />
    <glyph glyph-name="uniE62C" unicode="&#xe62c;" 
d="M767 -63v-33h-703v33q0 24 15 43t39 31t52.5 22.5t57.5 21t52.5 22.5t38.5 30t15 42v15v19q-41 45 -54 100q-18 8 -28 34q-7 16 -5.5 39t13.5 37v1v1q-2 11 -2.5 18.5t-0.5 23.5t2 29t5.5 29t11.5 31t19 27q14 15 31.5 26.5t40.5 19t48 8.5q73 -2 121 -54q46 -51 35 -158
v-1v-1q12 -14 13.5 -36.5t-6.5 -39.5q-9 -26 -28 -34q-13 -55 -54 -100q-1 -21 -1 -35q0 -27 20.5 -47.5t50.5 -31.5t65 -24t65.5 -25t50.5 -33.5t20 -49.5zM771 137q0 3 0.5 7t0.5 9v8q28 31 37 69q13 6 20 24q12 31 -6 52v1q2 17 2.5 30.5t-5.5 38t-21 40.5q-33 36 -83 38
q-36 -1 -65 -22q-5 -4 -9.5 -7.5t-8.5 -8.5q-32 -35 -24 -109v-1q-17 -21 -6 -52q3 -8 7.5 -13.5t10.5 -9.5h1l1 -1q9 -38 37 -69v-8v-7v-8q0 -18 -13 -32q12 -4 16 -6q27 -9 42 -15t40 -18t40 -24.5t29 -32t19 -41.5h126v22q0 23 -19.5 39.5t-47 26t-55 18.5t-47 24.5
t-19.5 37.5z" />
    <glyph glyph-name="uniE62D" unicode="&#xe62d;" 
d="M944 554q-17 37 -42.5 70.5t-57.5 62.5q-65 58 -149 89q-87 33 -182 33t-182 -33q-84 -31 -149 -89t-101 -133q-37 -78 -37 -163.5t37 -163.5q36 -75 101 -132.5t149 -89.5q87 -33 182 -33t182 33q51 19 95 49q-17 -11 -37 -16t-41 -5q-66 0 -112.5 46.5t-46.5 111.5
q0 21 6 42t16 38t24.5 32t32 25t38 15.5t42.5 5.5q65 0 111.5 -46.5t46.5 -111.5q0 -36 -15 -67t-41 -54q16 12 30 25q65 57 100 132q37 78 37 164q0 85 -37 163zM596 322q-78 -78 -189 -78q-27 0 -52.5 5t-49.5 15t-46 24.5t-41 33.5q-78 78 -78 189t78 189.5t189 78.5
t189 -78.5t78 -189.5t-78 -189z" />
    <glyph glyph-name="uniE62E" unicode="&#xe62e;" 
d="M512 748q-91 0 -174 -35.5t-143 -95.5t-95.5 -143t-35.5 -174t35.5 -174t95.5 -143t143 -95.5t174 -35.5t174 35.5t143 95.5t95.5 143t35.5 174t-35.5 174t-95.5 143t-143 95.5t-174 35.5zM768 236h-192v-192h-128v192h-192v128h192v192h128v-192h192v-128z" />
    <glyph glyph-name="uniE62F" unicode="&#xe62f;" 
d="M687 450q0 -25 -6 -49.5t-17.5 -45.5t-27.5 -38.5t-35.5 -29.5t-42 -19t-46.5 -7q-73 0 -124 55.5t-51 134t51 133.5t124 55t124 -55t51 -134zM642 288q-47 -55 -130 -55q-40 0 -73 13.5t-57 41.5q-94 -39 -152.5 -125t-58.5 -191v-11h682v5v6q0 53 -15.5 102.5t-43.5 90
t-67 72.5t-85 51z" />
    <glyph glyph-name="uniE630" unicode="&#xe630;" 
d="M615 368q5 -4 11 -4q8 0 13.5 5.5t5.5 13.5q0 5 -2.5 9t-6.5 6q-17 12 -35 21t-38 15q30 16 53 41t36 57.5t13 68.5q0 78 -55.5 133.5t-133.5 55.5t-133 -55.5t-55 -133.5q0 -36 13 -68.5t35.5 -57.5t53.5 -41q-43 -14 -79.5 -40t-63 -61t-41.5 -79t-15 -90v-2
q0 -7 5.5 -12.5t13 -5.5t13 5.5t5.5 12.5q0 103 73 175.5t175 72.5q76 0 139 -42v0zM325 601.5q0 62.5 44.5 106.5t107 44t106.5 -44t44 -107q0 -41 -20 -75.5t-55 -55t-76 -20.5q-62 0 -106.5 44.5t-44.5 107zM596 316l45 -86q3 7 8.5 19t24 45.5t38.5 62t51.5 59.5
t63.5 47q-1 -9 -2.5 -24t-2.5 -24.5t-1 -22.5t3 -25.5t9 -25.5q-35 -8 -96.5 -76.5t-90.5 -120.5q-35 43 -73.5 74.5t-68.5 41.5zM276 -56v64h-74q-30 0 -55 -0.5t-39 -1.5v29q6 -1 15.5 -1.5t22 -1t27.5 -0.5h32h33q16 0 28 1q25 0 38 2q-1 -7 -1.5 -18t-0.5 -26v-44
q0 -10 0.5 -20.5t1.5 -21.5h-28v17h-129v-72q0 -8 1 -12.5t4 -7t10 -3t19 -0.5q18 -1 35 -1h34q16 1 25 2t14.5 5.5t8.5 13.5q2 4 4 10t4 14q9 -14 26 -18q-6 -18 -11 -28t-13 -15t-21.5 -6.5t-37.5 -1.5h-34h-9h-10q-4 0 -8 0.5t-8 0.5q-21 1 -33 2t-17.5 5.5t-7 13
t-1.5 23.5v82v26q-1 5 -1.5 9t-0.5 6q7 -1 15 -1.5t15 0.5q4 0 4.5 -2t-1.5 -4q-3 -2 -4 -4t-1 -6v-9h129zM467 -7q-2 3 -3.5 5.5t-3 5.5t-3.5 6l-4 4l-4 6l-4 4q-2 3 -3.5 5t-3.5 4l22 14q7 -10 15.5 -20.5t15.5 -17.5zM506 -117q-5 -15 -13 -27.5t-20.5 -24.5t-30.5 -23
q-8 -6 -18.5 -12t-22.5 -12q-8 14 -23 25q20 5 37.5 13t31.5 19.5t23.5 25t13.5 29.5q-16 0 -29 -1h-24q-11 0 -22 -1q-10 -1 -21 -1v25q11 0 22 -1h12h11q11 -1 24 -1h6h6h6h6h6q1 4 1.5 8.5t0.5 8.5t1 9v28h-28q-3 0 -6 -0.5t-6 -0.5h-6h-5h-10q-5 0 -9 -1q-10 0 -19 -1
v26q11 -1 24 -1q11 -1 24.5 -1t30 -0.5t38.5 -0.5q6 10 10.5 18t7.5 15.5t5 13.5q1 2 2 4.5t1.5 4.5t1.5 4q1 -1 3 -2t5 -2q4 -3 9 -5q4 -2 7 -4q4 -1 5 -2q4 0 4 -1.5t-5 -5.5q-1 -1 -4.5 -4t-8 -8.5t-9.5 -11.5t-9 -14q6 0 11 0.5t10 0.5q9 0 17 0.5t15.5 0.5t16.5 1v-26
q-11 1 -20.5 1.5t-19.5 0.5q-6 1 -12 1h-13h-33q1 -16 0 -29q0 -6 -0.5 -12.5t-1.5 -12.5h37h10h8h9q12 1 22 1q5 0 10.5 0.5t12.5 0.5v-25q-12 1 -23 1q-5 0 -10.5 0.5t-11.5 0.5q-12 0 -26 1h-5h-6h-6h-6h-6h-7q9 -18 21 -31t27 -22t32 -14t36 -8q-2 -1 -3 -3l-2 -2
q-1 -2 -2 -3t-2 -2.5t-1 -3.5q-4 -7 -6 -17q-19 6 -37 15t-32 21t-24.5 26t-15.5 31v0zM728 -105q-4 -11 -7 -24l-8 -26q-3 -13 -7 -26q-3 -13 -6 -25q-8 6 -15 10t-15 6q6 10 12 22q1 4 3 8t3.5 8.5t2.5 9.5q4 12 8 25q1 4 2 9l2 8q1 5 2 9q10 -10 23 -14zM708 -75
q-4 4 -9 8.5t-11 8.5t-12 7q-5 3 -10 5l16 20q11 -6 23 -13q5 -4 10.5 -7.5t9.5 -7.5zM721 -10q-7 7 -17.5 16t-21.5 15l17 19l20 -14q5 -4 10 -7.5t9 -7.5zM814 10q-2 9 -5 17t-7 16l27 9l2 -4l2 -4q1 -2 1.5 -4t1.5 -4q3 -8 6 -17zM812 -99h-32q-14 -1 -24 -2v27
q2 -1 5 -1t6 -0.5t7 -0.5h6q14 -1 32 -1v60q-11 -1 -20 -1h-18q-16 -1 -29 -2v26q15 -1 35 -1.5t47 -0.5t47 0.5t35 1.5v-26q-14 1 -31 2h-12h-14q-8 0 -15 1v-60h7h8h6q4 0 7 0.5t6 0.5q8 0 15 0.5t13 1.5v-27q-12 1 -27.5 1.5t-34.5 0.5v-75q12 0 22.5 0.5t19.5 0.5h6
q3 0 6 0.5t5 0.5h6q2 0 4.5 0.5t4.5 0.5v-27q-16 2 -37.5 2.5t-50.5 0.5t-50 -0.5t-37 -2.5v27q14 -2 32 -2q10 0 20.5 -0.5t23.5 -0.5v75z" />
    <glyph glyph-name="uniE631" unicode="&#xe631;" horiz-adv-x="1000" 
d="M284 296h187h24h40h15h196q5 0 10 3t7.5 7.5t2.5 9.5q0 9 -6 14.5t-14 5.5h-196h-15h-40h-24h-187q-8 0 -14 -5.5t-6 -14t6 -14.5t14 -6z" />
    <glyph glyph-name="uniE632" unicode="&#xe632;" 
d="M577 193v491h-129v-491h-199l254 -259l266 259h-192z" />
    <glyph glyph-name="uniE633" unicode="&#xe633;" 
d="M426 365v-492h128v492h202l-254 259l-268 -259h192z" />
    <glyph glyph-name="uniE634" unicode="&#xe634;" 
d="M585 -72h-145q-10 0 -10 -10q0 -33 24 -56t58 -23t58.5 23t24.5 56q0 4 -3 7t-7 3zM755 154q12 37 12 74v204q0 78 -47 140.5t-125 87.5v20q0 33 -24.5 56t-58.5 23t-58 -23t-24 -56v-20q-78 -25 -125.5 -87.5t-47.5 -140.5v-204q0 -38 13 -74q-52 -3 -86 -26.5
t-34 -56.5v-73q0 -4 3 -7t7 -3h705q4 0 7 3t3 7v73q0 22 -16 40.5t-43 29.5t-61 13z" />
    <glyph glyph-name="uniE635" unicode="&#xe635;" 
d="M738 583l-6 -2l-6 -2l-6 -2l-5 -2l-6 -2l-6 -2l-4 -2l-2 -2l-6 -2l-2 -2l-2 -2l-4 -4l-2 -3l-2 -4l-2 -2l-2 -4l-2 -6l-2 -4v-20l2 -7l2 -6l2 -2l2 -4h4v-4l4 -4l2 -2l2 -2l6 -2l2 -2l6 -2h25l6 2l4 2l6 2l6 2l4 2l6 2l6 2l7 2l4 2l6 2l6 2l4 2l6 2l6 2l4 2l12 5l4 2l7 2
l2 2l4 2l4 4l2 2l2 2l2 2l2 4l2 2l4 12v21l-2 8l-2 4l-2 4l-4 4l-2 4l-2 2l-2 2l-6 2l-2 2l-5 2l-4 3l-10 2h-2l-16 -2l-6 -3l-4 -2l-6 -2l-7 -2l-4 -2l-6 -2l-6 -2l-4 -2l-6 -2l-6 -2zM895 340l-6 -2l-6 -2l-4 -2l-7 -2l-6 -2l-4 -2l-6 -2l-6 -2l-4 -3l-6 -2l-6 -2l-4 -2
l-13 -4l-6 -2l-4 -2l-6 -2l-6 -2l-4 -2l-2 -2l-4 -4l-2 -2l-4 -4l-2 -2l-2 -4l-2 -2l-2 -7l-3 -8v-16l3 -6l2 -6l2 -4l2 -2l2 -2l8 -9l2 -2l6 -2l2 -2l6 -2l10 -2h11l6 2l4 2l6 2l6 2l4 2l6 2l6 2l4 2l6 3l6 2l5 2l6 2l6 2l4 2l12 4l6 2l4 2l6 2l6 2l5 4l4 2l2 2l2 4l4 4
l2 4l2 4l2 5v26l-2 4l-2 6l-2 4l-8 9l-4 4l-4 2l-5 2l-4 2l-8 2h-18zM848 473l-6 -2l-6 -2l-4 -2l-6 -2l-7 -2l-4 -3l-6 -2l-6 -2l-4 -2l-6 -2l-6 -2l-6 -2l-4 -2l-6 -2l-7 -2l-4 -2l-6 -2l-6 -2l-4 -2l-2 -2l-4 -2l-2 -2l-4 -4l-4 -4l-2 -4l-2 -3l-2 -4l-2 -8v-20l2 -6
l2 -4l2 -2l2 -5l2 -2l2 -4l2 -2l2 -2l4 -2l2 -2l4 -2l4 -2l6 -2h21l6 2l4 2l6 2l6 2l4 2l6 2l6 2l4 2l7 2l6 2l6 3l4 2l6 2l6 2l4 2l6 2l6 2l4 2l7 2l4 2l4 2v4h4l2 2l2 2l2 4l2 2l2 4l4 8v25l-2 6l-2 4l-2 4l-2 4l-2 2l-2 2l-4 5l-4 2l-2 2l-6 2l-3 2l-10 2h-10zM1005 174
l-2 6l-2 5l-2 4l-2 4l-2 2l-4 4l-4 2l-2 2l-5 2l-4 2l-8 2h-22l-4 -2l-6 -2l-6 -2l-5 -2l-6 -2l-6 -2l-4 -2l-6 -2l-6 -2l-6 -2l-4 -2l-6 -2l-6 -3l-5 -2l-6 -2l-6 -2l-4 -2l-6 -2l-6 -2l-2 -2l-2 -2l-4 -2l-2 -2l-2 -2l-2 -4l-4 -4l-2 -6l-2 -4l-2 -9v-16l2 -4l2 -6l2 -4
l4 -4l2 -4l2 -2l4 -2l2 -2l2 -3l2 -2l6 -2l6 -2h21l6 2l6 2l6 2l4 3l6 2l6 2l4 2l12 4l5 2l6 2l6 2l4 2l6 2l6 2l6 2l4 2l6 2l4 2l7 2l2 2l2 2l2 2l4 4l2 2l2 5l2 2l2 4l2 6l2 8v6zM181 589l2 -6l2 -6l3 -4l2 -6l2 -6l2 -4l2 -7l2 -6l2 -4l2 -6l2 -6l2 -6l2 -4l2 -6l2 -7
l2 -4l2 -6l2 -6l2 -4l2 -6l2 -4h2l4 2l6 2l7 2l4 2l6 2l12 4l2 2l2 8l2 9l2 2l2 2l2 2l2 2l4 2l7 2l4 2l6 2l6 2l4 2l6 2l6 2l4 2l6 2l6 2l4 2l7 2l12 4l4 2l6 2l6 2l4 3l6 2l6 2l4 2l7 2l6 2l4 2l6 2l12 4l4 2l12 4l5 2l12 4l4 2l6 2l6 2l4 2l6 2l6 2l4 2l7 2l6 3l6 2l4 2
l6 2l6 2l4 2l6 2l6 2l4 2l7 2l6 2l4 2l12 4l4 2l6 2l6 2l6 2l4 2l7 2l6 2l4 2l6 2l6 2l4 3l6 2l6 2h17l2 -2l4 -2l4 -5l2 -4l2 -4l2 -6l2 -6l2 -4l4 -12l2 -4l2 -6l2 -3h6l6 3l4 2l7 2l6 2l4 2l6 2l4 2v4l-2 6l-2 6l-2 4l-4 12l-2 5l-4 12l-2 4l-2 6l-2 6l-2 4l-4 12l-3 7
l-2 4l-2 6l-2 6l-2 4l-4 12l-2 4l-2 7l-2 6l-2 4l-4 12l-2 4l-2 6l-2 6l-2 4l-2 3l-2 4l-2 2l-2 2l-4 2l-4 4l-2 2l-7 2l-6 2l-10 2h-2l-12 -2l-6 -2l-4 -2l-7 -2l-6 -2l-4 -2l-6 -2l-6 -2l-6 -2l-4 -2l-12 -5l-4 -2l-6 -2l-7 -2l-4 -2l-6 -2l-6 -2l-4 -2l-6 -2l-6 -2l-4 -2
l-6 -2l-7 -2l-6 -2l-4 -2l-6 -2l-6 -2l-4 -2l-12 -4l-4 -2l-6 -2l-7 -2l-4 -3l-6 -2l-6 -2l-4 -2l-6 -2l-6 -2l-6 -2l-4 -2l-7 -2l-6 -2l-4 -2l-6 -2l-6 -2l-4 -2l-12 -4l-4 -2l-6 -2l-7 -2l-4 -2l-6 -2l-6 -2l-6 -2l-4 -3l-6 -2l-6 -2l-4 -2l-6 -2l-7 -2l-4 -2l-6 -2l-6 -2
l-4 -2l-6 -2l-6 -2l-6 -2l-4 -2l-6 -2l-7 -2l-4 -2l-6 -2l-6 -2l-4 -2l-6 -2l-2 -2l-4 -3l-2 -2l-2 -2l-4 -2l-2 -2l-2 -4l-3 -2l-2 -4l-2 -2l-2 -4v-4l-2 -4v-12l2 -11zM375 636l2 6l2 4l6 2l4 3l6 2l7 2l4 2l6 2l6 2l4 2l6 2l6 2l6 2l4 2l13 4l4 2l6 2l6 2l4 2l6 2l6 2
l4 2h10l7 -2l2 -4l2 -2v-16l-2 -2l-2 -2l-5 -2l-4 -2l-6 -2l-6 -2l-4 -2l-6 -3l-6 -2l-4 -2l-6 -2l-6 -2l-7 -2l-4 -2l-6 -2l-6 -2l-4 -2l-6 -2l-6 -2l-4 -2l-12 -4l-5 -2h-10l-6 2l-2 2l-2 2l-2 4v8zM970 15l-2 4l-4 12l-2 4l-2 6l-2 7l-2 4l-4 12l-2 4l-2 6l-2 2h-6l-6 -2
l-4 -2l-7 -2l-12 -4l-4 -2l-6 -2l-6 -2l-4 -2l-6 -2l-10 -2q-56 0 -76 41l-2 6l-2 4l-2 4h-4l-4 -2l-6 -2l-6 -2l-6 -2l-5 -2l-12 -4l-4 -2l-6 -2l-6 -3l-4 -2l-6 -2l-6 -2l-4 -2l-7 -2l-6 -2l-4 -2l-6 -2l-6 -2l-6 -2l-4 -2l-6 -2l-6 -2l-4 -2l-7 -2l-6 -2l-4 -2l-6 -2
l-6 -2l-4 -2l-12 -4l-4 -2l-6 -3l-6 -2l-7 -2l-4 -2l-6 -2l-6 -2l-4 -2l-6 -2l-6 -2l-4 -2l-6 -2l-6 -2l-5 -2l-6 -2l-6 -2l-4 -2l-6 -2l-6 -2l-7 -2l-4 -2l-6 -2l-6 -3l-4 -2l-6 -2h-10l-6 2l-4 2l-2 3l-5 2l-2 6l-2 6l-2 4l-2 6l-2 6l-2 4l-2 6l-2 6l-2 7l-2 4l-2 6l-2 6
l-2 4l-4 12l-2 4l-2 7l-2 6l-2 4l-2 6l-2 6l-2 4l-2 6l-2 6l-3 4l-2 6l-2 7l-2 6l-2 4l-2 6l-2 6l-2 4l-2 6l-2 6l-2 5l-2 6l-2 6l-2 4l-4 12l-2 4l-2 6l-2 6l-2 5l-2 6l-2 6l-2 4l-2 6l-5 12l-2 4h-6l-6 -2l-4 -2l-12 -4l-4 -2l-6 -2l-2 -2v-4l2 -6l2 -4l2 -6l2 -7l2 -4
l2 -6l2 -6l2 -4l2 -6l2 -6l2 -4l4 -13l2 -6l2 -4l2 -6l2 -6l2 -4l2 -6l2 -6l3 -4l4 -13l2 -4l2 -6l2 -6l2 -6l2 -4l2 -6l2 -6l2 -7l2 -6l2 -4v-4l2 -2l2 -8l2 -6l2 -4l2 -6l4 -13l2 -4l2 -6l2 -4l2 -8l2 -4l3 -6l2 -6l2 -5l2 -6l2 -6l2 -4l4 -12l2 -4l2 -6l2 -6l2 -5l2 -6
l2 -6l2 -6l2 -4l4 -12l2 -4l2 -7l2 -6l2 -4l2 -6l2 -6l2 -4l3 -6l2 -6l2 -4l2 -7l2 -6l2 -4l4 -12l2 -6l2 -4l2 -6l2 -2l2 -4h4v-5l2 -2l2 -2l2 -2l8 -4l4 -2l6 -2h19l6 2l4 2l12 4l4 2l6 2l7 2l4 2l6 2l6 2l4 2l6 3l6 2l4 2l6 2l6 2l6 2l5 2l12 4l4 2l6 2l6 2l4 2l6 2l6 2
l4 2l7 2l6 2l4 2l6 2l6 2l6 2l4 2l6 2l6 3l4 2l7 2l6 2l4 2l6 2l6 2l4 2l12 4l4 2l6 2l7 2l6 2l4 2l6 2l6 2l4 2l6 2l6 2l4 2l6 2l6 2l5 2l12 5l4 2l6 2l6 2l6 2l4 2l6 2l6 2l5 2l6 2l6 2l4 2l6 2l6 2l4 2l6 2l6 2l9 4l4 2l2 2l2 2l4 5l2 4l2 2l2 2l2 6l2 8v20l-2 7z
M702 -87q-23 0 -39.5 16.5t-16.5 39.5q0 15 8 28v2l1 1l2 2l1 3l4 4h1q16 16 39 16t39.5 -16.5t16.5 -39.5q0 -12 -4.5 -22t-12 -17.5t-18 -12t-21.5 -4.5zM424 -128l-2 6l-2 4l-2 6l-2 6l-2 4l-4 13l-2 4l-2 6l-2 6l-2 4l-3 6l-2 6l-2 4l-2 7l-4 12l-2 4l-2 6l-2 6l-2 4
l-2 6l-2 6l-2 5l-2 6l-2 6l-2 4l-2 6l-2 6l-2 4l-4 13l-2 4l-2 6l-2 6l-2 4l-2 6l-2 6l-3 6l-2 4l-4 13l-2 4l-2 6l-2 6l-2 4l-2 6l-2 6l-2 5l-2 6l-2 6l-2 4l-2 6l-2 6l-2 6l-2 4l-2 6l-2 7l-2 4l-2 6l-2 6l-2 4l-2 6l-3 6l-2 4l-2 6l-2 7l-2 6l-2 4l-2 6l-2 6l-2 4v6l2 6
l2 2l2 5l2 2l4 2l4 2l5 2l6 2l6 2l4 2l6 2l6 2l4 2l6 2l6 2l6 2l5 2l6 2l6 2l4 2l6 2l6 2l4 2l6 2l6 2l4 2l7 3l6 2l4 2l6 2l6 2l6 2l4 2l12 4l4 2l7 2l6 2l4 2l6 2l6 2l4 2l6 2l2 2l4 2l2 2l4 2l2 2l5 4l2 3l2 2l4 4l2 2l2 4l2 2l2 4l2 6l2 2l2 6q2 6 3 12.5t1.5 12.5t0 12
t-2 11.5t-3.5 11t-4.5 10t-5.5 8.5q-6 9 -15.5 15.5t-20 10t-22.5 5.5t-25 2h-4q-4 -2 -9 -4t-10 -3.5t-9 -3.5l-5 -2l-6 -2l-6 -2l-4 -2l-6 -2l-6 -2l-4 -2l-12 -4l-6 -2l-5 -2l-6 -2l-6 -2l-4 -2l-6 -2l-6 -2l-4 -2l-6 -2l-6 -2l-4 -3l-7 -2l-12 -4l-4 -2l-6 -2l-6 -2
l-4 -2l-6 -2l-6 -2l-4 -2l-7 -2l-6 -2l-4 -2l-6 -2l-6 -2l-4 -2l-6 -2l-6 -2l-2 -2l-4 -2l-6 -2l-3 -2l-4 -2l-4 -3l-4 -2l-2 -2l-4 -2l-4 -2l-4 -2l-2 -2l-4 -2l-2 -2l-2 -2l-4 -2l-4 -2l-2 -2l-2 -2l-5 -2l-2 -2l-2 -2l-2 -2l-4 -2l-4 -4l-2 -2l-4 -2l-2 -2l-2 -2l-2 -2
l-2 -2l-2 -2l-2 -3l-2 -2l-2 -2l-2 -2l-2 -2l-2 -2l-2 -2l-2 -2l-2 -4l-2 -2l-2 -2l-3 -2l-2 -2l-2 -2l-2 -2l-2 -4l-2 -2l-2 -2l-2 -4l-2 -2l-2 -3l-2 -4l-2 -2l-2 -2l-2 -4l-2 -4l-2 -2l-2 -4l-2 -4l-2 -2l-2 -4l-2 -4l-2 -4l-2 -2l-2 -7l-2 -4l-2 -4l-3 -2l-2 -6l-2 -6
l-2 -4l-2 -6l-2 -6l-2 -6l-2 -7l-2 -4v-4l-2 -6l-2 -8l-2 -12l-2 -13l-2 -26v-25l2 -18v-6l2 -13l2 -10l2 -10l2 -4l2 -10l2 -6l2 -7l2 -4l2 -6l2 -6l2 -6l3 -4l2 -2l2 -6l2 -4l2 -4l2 -3l2 -6l2 -2l2 -4l2 -2l2 -4l2 -2l2 -6l2 -2l2 -2l2 -2l2 -4l2 -4h4v-6l2 -3l2 -2l2 -2
l2 -2l3 -2l2 -2l2 -4l2 -2l2 -2l2 -2l2 -2l2 -2l2 -2l2 -2l2 -2l2 -2l2 -2l4 -2l2 -2l2 -2l2 -2l2 -2l2 -2l2 -3l2 -2l4 -2l3 -2l4 -2l2 -2l2 -2l4 -2l4 -2l2 -2l4 -2l4 -2l2 -2l4 -2l2 -2l4 -2l6 -2l2 -2l7 -2l2 -2l6 -2l4 -2l4 -2l6 -2l6 -3l6 -2l6 -2l6 -2l9 -2l8 -2
l6 -2h4l10 -2l16 -2h9l18 -2h2l31 2l18 2h4l8 2l10 2h4l4 2l11 2l6 2h4l4 2l6 2l6 3l4 2l2 2v6l-2 6z" />
    <glyph glyph-name="uniE636" unicode="&#xe636;" horiz-adv-x="1000" 
d="M515.5 -21q-5.5 5 -5.5 12t6 13l308 308h-706q-7 0 -12 5t-5 12q0 5 2 9t6 6.5t9 2.5h706l-308 307q-6 6 -6 13t5.5 12t12.5 5t12 -5l338 -338q5 -5 5 -12q0 -3 -1 -6.5t-4 -5.5l-338 -338q-2 -3 -5.5 -4t-6.5 -1q-7 0 -12.5 5z" />
    <glyph glyph-name="uniE637" unicode="&#xe637;" 
d="M394 722v-762l-191 353l-45 -24l236 -436v-1h51v870h-51zM628 -148v762l191 -353l45 24l-236 436v1h-51v-870h51z" />
    <glyph glyph-name="uniE638" unicode="&#xe638;" horiz-adv-x="1025" 
d="M1024 -34q-28 -53 -72.5 -93t-103 -62.5t-121.5 -22.5q-96 0 -176 49t-122 129q30 58 80.5 100t113.5 62q-62 31 -130 38q-8 0 -14.5 -0.5t-12.5 -0.5q-17 0 -37 2q-67 -4 -127.5 -30.5t-107 -69.5t-77.5 -101t-41 -124l-3 -20q-2 -9 -6.5 -17t-12 -12.5t-17.5 -4.5
q-15 0 -25.5 10t-10.5 24v3q0 7 3 17q19 126 100.5 224t201.5 141q-76 42 -121.5 117t-45.5 164q0 88 43.5 162.5t119 117.5t164.5 43t164.5 -43t119.5 -117.5t44 -162.5q0 -89 -45.5 -164t-121.5 -117q31 -12 60.5 -27.5t57.5 -35.5q90 -5 164.5 -53t114.5 -125zM715 490.5
q0 103.5 -73 176.5t-177 73t-177 -73t-73 -176.5t73 -177t177 -73.5t177 73.5t73 177zM715 74q-67 -1 -130 -40q-63 -42 -84 -70q16 -21 37 -39t47 -31q65 -35 142 -35q-45 0 -76 31.5t-31 75.5t30 75t73 32h-3q-3 1 -5 1zM691 -33.5q0 -14.5 10.5 -25t25 -10.5t25 10.5
t10.5 25t-10.5 25t-25 10.5t-25 -10.5t-10.5 -25zM834 -34q0 -44 -31 -75t-76 -32q77 1 142 35q51 27 84 70q-22 28 -84 70q-1 1 -3 2t-8.5 4.5t-13.5 7t-18.5 7.5t-24 7.5t-29.5 6t-35 3.5q41 -4 69 -34t28 -72z" />
    <glyph glyph-name="uniE639" unicode="&#xe639;" 
d="M129 676h587q28 0 48 -19.5t20 -47.5v-374q0 -19 -9 -34.5t-24.5 -24.5t-34.5 -9h-304l-171 -154v154h-112q-18 0 -33.5 9t-24.5 24.5t-9 34.5v374q0 28 20 47.5t47 19.5zM811 202v327h84q28 0 47.5 -19t19.5 -46v-328q0 -14 -5 -25t-14.5 -18.5t-21.5 -12t-26 -4.5h-112
v-153l-168 153h-130q-28 0 -47.5 16.5t-19.5 43.5q1 0 329 1q13 0 28.5 10.5t25.5 25.5t10 29z" />
    <glyph glyph-name="uniE63A" unicode="&#xe63a;" 
d="M767 39l-2 2q-1 1 -2 1.5t-2 1.5q-5 3 -10 4q-3 1 -6 1v0h-1h-363h-105q-12 0 -20 -8t-8 -20v-2q1 -6 4 -11q0 -1 1 -2q1 -2 3 -4l2 -2q3 -2 7 -4t8 -2h3h103h366q9 0 16 5q2 1 4 3l2 2q3 4 5 9v3q1 3 1 5v0q0 10 -6 18zM92 784v-7v2v5zM765 197l-4 3q-5 3 -10 4
q-1 1 -3 1h-3v0h-1h-363h-105q-12 0 -20 -8t-8 -19v-3q1 -6 4 -10q0 -2 1 -3t1.5 -2t1.5 -2l2 -2q3 -2 7 -3.5t8 -2.5h1h2h103h366q12 0 20 8t8 19.5t-8 19.5zM932 522v1q0 4 -0.5 8t-2 7.5t-4 7.5t-6.5 7l-1 1l-153 149q-2 1 -98 95l-6 4q-2 3 -5 4q-4 3 -8 4.5t-9 1.5h-1
h-336h-72h-83q-20 0 -35 -12.5t-19 -31.5q0 -2 -0.5 -4t-0.5 -4v-3v6v14v-20v0v0v-287v-410v-217v0v0q0 -20 12.5 -35t31.5 -19q3 0 5.5 -0.5t5.5 -0.5h1v0h152h580q4 0 8 1q19 4 31.5 19t12.5 35v108q0 2 -0.5 5t-1.5 5.5t-2.5 4.5t-3.5 4t-4 3.5t-4.5 2.5t-5.5 1.5t-5 0.5
q-12 0 -20 -8t-8 -20v-1v-106h-730v914h468v-208q0 -19 13 -34.5t32 -19.5q1 0 3.5 -0.5t4.5 -0.5h2h207v-384q0 -8 4 -14.5t10 -10t13.5 -3.5t14 3.5t10 10t3.5 14.5v0v0v82v327v1v1v1zM670 549v169l177 -169h-177zM379 306h366q3 0 6 1q1 0 3 1q1 0 2.5 1t3 1.5t3.5 2.5
q1 0 2 1q2 2 3 4q5 7 5 16q0 5 -2 10q-7 17 -26 17h-1h-363h-12h-3h-4h-6h-4h-3h-4h-1h-1h-8h-7h-7h-3h-2h-20h-15h-5q-13 0 -22 -10q0 -1 -1 -2q-2 -2 -3 -4.5t-1.5 -5t-0.5 -5.5q0 -12 8 -20t20 -8h103z" />
    <glyph glyph-name="uniE63B" unicode="&#xe63b;" 
d="M510 747q-91 0 -173.5 -35.5t-142.5 -95t-95 -142.5t-35 -173.5t35 -173.5t95 -142.5t142.5 -95t173.5 -35.5t173.5 35.5t142.5 95t95.5 142.5t35.5 173.5t-35.5 173.5t-95.5 142.5t-142.5 95t-173.5 35.5zM576 241l-263 -143l131 274l263 131zM510 301zM479 300.5
q0 12.5 9 21.5t22 9t22 -9t9 -21.5t-9 -21.5t-22 -9t-22 9t-9 21.5z" />
    <glyph glyph-name="uniE63C" unicode="&#xe63c;" 
d="M654 -111q11 1 -13 -28q-29 -34 -61 -49q-51 -24 -107 -24q-89 0 -132 45q-37 37 -34 101q1 15 5 45q2 12 5.5 25t7.5 27l69 184l12 43q1 2 2 5.5t2.5 14.5t1.5 20.5t-3.5 21.5t-10.5 21t-21 15t-34 6q-26 0 22 44q32 29 51 38q39 17 84 15q11 -1 21 -2t18.5 -3
t16.5 -4.5t15 -5.5t13.5 -7t12.5 -9l12 -10q41 -39 38 -97l-5 -42q-1 -10 -3 -20t-4.5 -19t-5.5 -17l-63 -181q-6 -16 -14 -51q-8 -30 -8 -42q0 -46 56 -57q23 -5 54 -3zM589 684zM461 684q0 66 54 104q33 24 74 24q53 0 90.5 -37.5t37.5 -90.5q0 -35 -17.5 -64.5t-47 -46.5
t-63.5 -17q-53 0 -90.5 37.5t-37.5 90.5z" />
    <glyph glyph-name="uniE63D" unicode="&#xe63d;" 
d="M511 749q-91 0 -174 -35.5t-143 -95.5t-95.5 -143t-35.5 -174q0 -73 23 -141t64 -123t96 -96.5t123.5 -64t141.5 -22.5q91 0 174 35t143 95t95.5 143t35.5 174q0 37 -6 73t-17 69t-27.5 64t-36.5 58.5t-44.5 52t-52 45t-58.5 36.5t-64.5 27t-69 17t-72.5 6zM511 -55
q-97 0 -179 47.5t-129.5 129.5t-47.5 179q0 42 9.5 82t27 75t42 66t55 55t65.5 41.5t75 27t82 9.5q97 0 179 -47.5t129.5 -129.5t47.5 -179t-47.5 -179t-129.5 -129.5t-179 -47.5zM512 571q-32 2 -48 -25t-15 -68t7 -88q5 -40 12.5 -83.5t11.5 -67.5l5 -23q4 -22 27 -21
q12 0 18.5 5.5t7.5 10.5l1 5q17 88 30 176q26 175 -57 179zM513 83zM458 83q0 35 32 50q11 4 23 5q23 0 39 -16t16 -39t-16 -39t-39 -16t-39 16t-16 39z" />
    <glyph glyph-name="uniE63E" unicode="&#xe63e;" 
d="M512 28zM464 28q0 20 14 34t34 14q10 0 19 -4t15 -10.5t10 -15.5t4 -18q0 -13 -6.5 -24.5t-17.5 -17.5t-24 -6q-20 0 -34 14t-14 34zM512 -148q-185 0 -316.5 131.5t-131.5 316.5t131.5 316.5t316.5 131.5t316.5 -131.5t131.5 -316.5t-131.5 -316.5t-316.5 -131.5z
M512 684q-104 0 -192.5 -51.5t-140 -140t-51.5 -192.5t51.5 -192.5t140 -140t192.5 -51.5t192.5 51.5t140 140t51.5 192.5t-51.5 192.5t-140 140t-192.5 51.5zM512 138q-9 0 -16 4.5t-11.5 12t-4.5 15.5v54q0 25 13 50t25.5 39.5t36.5 38.5q18 18 26.5 27t17.5 23t9 24
q0 13 -3.5 25.5t-9.5 23t-15 19.5t-19.5 15.5t-23 10t-25.5 3.5q-40 0 -68 -27.5t-28 -67.5q0 -13 -9.5 -22.5t-22.5 -9.5q-7 0 -12.5 2.5t-10 7t-7 10.5t-2.5 12q0 32 12.5 61.5t34 51t51.5 34t62 12.5q66 0 113 -47t47 -114q0 -22 -12 -45.5t-24 -37t-35 -36.5
q-19 -19 -28.5 -29t-19 -26t-9.5 -28v-54q0 -13 -9.5 -22.5t-22.5 -9.5z" />
    <glyph glyph-name="uniE63F" unicode="&#xe63f;" 
d="M512 -212q139 0 257 68.5t186.5 186.5t68.5 257t-68.5 257t-186.5 186.5t-257 68.5t-257 -68.5t-186.5 -186.5t-68.5 -257t68.5 -257t186.5 -186.5t257 -68.5zM288 492q0 27 18.5 45.5t45.5 18.5t45.5 -18.5t18.5 -45.5t-18.5 -45.5t-45.5 -18.5t-45.5 18.5t-18.5 45.5z
M171 300h682q0 -93 -45.5 -171.5t-124 -124t-171.5 -45.5t-171.5 45.5t-124 124t-45.5 171.5zM608 492q0 27 18.5 45.5t45.5 18.5t45.5 -18.5t18.5 -45.5t-18.5 -45.5t-45.5 -18.5t-45.5 18.5t-18.5 45.5z" />
    <glyph glyph-name="uniE640" unicode="&#xe640;" 
d="M512 781q-98 0 -187 -38t-153.5 -102.5t-102.5 -153.5t-38 -187t38 -187t102.5 -153.5t153.5 -102.5t187 -38t187 38t153.5 102.5t102.5 153.5t38 187t-38 187t-102.5 153.5t-153.5 102.5t-187 38zM512 -152q-73 0 -142 23t-124.5 65t-97.5 97.5t-65 124.5t-23 142
q0 92 36 175.5t96.5 144t144 96.5t175.5 36t175.5 -36t144 -96.5t96.5 -144t36 -175.5t-36 -175.5t-96.5 -144t-144 -96.5t-175.5 -36zM190 258v-15q0 -60 31 -114t79 -90t104.5 -56.5t108.5 -20.5q25 0 52 5t54.5 14t54.5 23.5t51.5 32t46 40t37.5 48t25.5 56t10.5 62.5
l1 15h-656zM718 365q-29 0 -50 25.5t-21 62.5q0 17 5.5 33.5t15.5 28.5q21 26 50 26q13 0 26 -6.5t23 -19.5q4 -5 7.5 -10.5t6 -11.5t4 -12.5t2.5 -13.5t1 -14q0 -18 -5.5 -34t-15.5 -29q-20 -25 -49 -25zM319.5 365q-29.5 0 -49.5 26q-10 12 -15.5 28t-5.5 34q0 36 20.5 62
t49.5 26q7 0 14 -1.5t13.5 -5t12 -8.5t10.5 -11q10 -12 15.5 -28.5t5.5 -33.5q0 -9 -1.5 -17.5t-4 -16.5t-6.5 -15t-9 -13q-20 -26 -49.5 -26z" />
    <glyph glyph-name="uniE641" unicode="&#xe641;" 
d="M258 -17q-19 0 -35 9.5t-25.5 25.5t-9.5 35v245q0 20 9.5 37.5t26 27.5t34.5 10h69q65 0 108 44t43 110v18q0 18 10 34.5t26.5 26t35.5 9.5h2q22 0 40.5 -13t25.5 -35l5 -12q21 -64 5 -127l-2 -10q-1 -5 -3 -13t-6 -16h149q34 0 56 -28q10 -13 13 -29.5t-2 -33.5
l-75 -263q-6 -23 -25 -37.5t-43 -14.5h-432zM258 337q-13 0 -23.5 -12t-10.5 -27v-245q0 -14 10 -24t24 -10h432q5 0 9.5 1t8 3.5t7 5.5t5.5 7t4 9l75 263q5 17 -6 32q-3 3 -6 5.5t-6 4.5t-7 3t-8 1h-203v35h12q3 3 6.5 9t6 13t2.5 10v1v2l3 12q14 54 -4 107l-5 13
q-1 5 -4.5 9.5t-7.5 7.5t-9 4.5t-11 1.5h-2q-14 0 -25 -10.5t-11 -23.5v-18q0 -81 -53.5 -135.5t-133.5 -54.5h-69zM690 -4h-432q-11 0 -22 4.5t-18.5 12t-12 18.5t-4.5 22v245q0 25 17 43.5t40 18.5h69q70 0 117 48t47 119v18q0 23 18 40t41 17h2q18 0 33 -11t21 -28l5 -13
q19 -59 4 -119l-2 -11q0 -2 -1 -5t-2 -6.5t-2.5 -8t-3.5 -8.5t-5 -8.5t-6 -7.5h173q7 0 13 -1.5t12 -4.5t11 -7t9 -10q18 -23 10 -51l-76 -263q-5 -19 -20.5 -31t-34.5 -12zM258 351q-19 0 -33.5 -16t-14.5 -37v-245q0 -20 14 -34t34 -14h432q16 0 29 10.5t17 26.5l76 263
q1 5 1.5 11t-0.5 11.5t-3.5 10.5t-5.5 10q-7 9 -17 14t-21 5h-190v9q9 0 18 18t9 27l1 1l2 11q15 57 -4 114l-5 13q-5 14 -17.5 23t-27.5 9h-2q-19 0 -34 -14t-15 -33v-18q0 -37 -13.5 -70t-36.5 -56t-55 -36.5t-69 -13.5h-69zM335 -1q-8 0 -13 5t-5 13v322q0 8 5 13t13 5
q5 0 9 -2.5t6.5 -6.5t2.5 -9v-322q0 -15 -15 -18h-3zM335 12q-2 0 -3.5 1.5t-1.5 3.5v322q0 2 1.5 3.5t3.5 1.5q4 0 4 -5v-322q-1 -4 -4 -5zM335 12z" />
    <glyph glyph-name="uniE642" unicode="&#xe642;" 
d="M914 252q-12 0 -22.5 -6t-16.5 -16.5t-6 -22.5v-229q0 -15 -10.5 -25.5t-25.5 -10.5h-644q-15 0 -25.5 10.5t-10.5 25.5v644q0 15 10.5 25.5t25.5 10.5h201q9 0 17.5 3.5t14.5 9.5t9.5 14.5t3.5 17.5q0 18 -13 31t-32 13h-201q-34 0 -63 -16.5t-45.5 -45.5t-16.5 -63
v-644q0 -52 36.5 -88.5t88.5 -36.5h644q52 0 89 36.5t37 88.5v229q0 12 -6 22.5t-16.5 16.5t-22.5 6zM461 108h2h2q11 0 21 5t16 14.5t7 20.5q2 19 6 43.5t13.5 59t21.5 56.5q15 29 25.5 46t36 49t52 52t69.5 39t93 26q2 0 6 1q2 1 3 1l-76 -157q-8 -17 -1.5 -34.5
t23.5 -25.5q9 -4 19 -4q28 0 40 26l116 242q8 17 2 34q-2 3 -3.5 6.5t-3.5 6t-4.5 5t-5.5 4.5t-6 3l-242 116q-12 5 -23.5 4t-21.5 -7.5t-15 -17.5q-8 -17 -2 -34.5t23 -25.5l127 -61q-56 -11 -104.5 -36t-79 -50t-59.5 -61.5t-40.5 -56t-26.5 -48.5q-18 -33 -30.5 -83
t-15.5 -72t-5 -37q-1 -13 4 -23.5t15 -17.5t22 -8z" />
    <glyph glyph-name="uniE643" unicode="&#xe643;" 
d="M511 749q-91 0 -174 -35.5t-142.5 -95.5t-95 -143t-35.5 -174t35.5 -173.5t95 -142.5t142.5 -95.5t174 -35.5t174 35.5t142.5 95.5t95 142.5t35.5 173.5q0 41 -7 80.5t-21 76t-33 70t-44 62t-54 53.5t-62.5 44.5t-69.5 33t-75.5 21t-80.5 7.5zM511 -95q-108 0 -199 53
t-144 144.5t-53 199t53 198.5t144 144t199 53q65 0 125 -20t109 -56.5t85.5 -85t56.5 -109t20 -125.5q0 -46 -10.5 -90.5t-30 -83.5t-46.5 -73.5t-61.5 -61.5t-73.5 -46.5t-83.5 -30t-90.5 -10.5zM263 401h49q11 0 18 7t7 18v24q0 11 -7 18t-18 7h-49q-11 0 -18 -7t-7 -18
v-24q0 -11 7 -18t18 -7zM412 401h49q11 0 18 7t7 18v24q0 11 -7 18t-18 7h-49q-7 0 -13 -3t-9 -9t-3 -13v-24q0 -20 18 -24q4 -1 7 -1zM561 401h49q11 0 18 7t7 18v24q0 7 -3 13t-9 9t-13 3h-49q-11 0 -18 -7t-7 -18v-24q0 -11 7 -18t18 -7zM759 475h-24q-11 0 -18 -7
t-7 -18v-248h-447q-11 0 -18 -7.5t-7 -17.5v-25q0 -6 3 -12t9 -9.5t13 -3.5h472h24q11 0 18 7.5t7 17.5v298q0 11 -7 18t-18 7zM263 277h124q10 0 17.5 7t7.5 17v25q0 7 -3.5 12.5t-9 9t-12.5 3.5h-124q-11 0 -18 -7.5t-7 -17.5v-25q0 -10 7 -17t18 -7zM461 326v-25
q0 -6 3.5 -12t9 -9t12.5 -3h124q11 0 18 7t7 17v25q0 4 -1 8t-3.5 7t-5.5 5.5t-7 3.5t-8 1h-124q-3 0 -5.5 -0.5t-4.5 -2.5l-6 -2q-2 -2 -3.5 -4t-2.5 -4.5t-2 -5.5t-1 -6z" />
    <glyph glyph-name="uniE644" unicode="&#xe644;" 
d="M844 377q-12 44 -34 83l65 98l-93 93l-98 -65q-13 7 -26.5 13.5t-27.5 11.5t-29 9l-23 116h-132l-23 -116q-44 -11 -83 -34l-98 65l-93 -93l65 -98q-22 -39 -34 -83l-115 -23v-131l115 -24q12 -43 34 -82l-65 -99l93 -93l98 66q39 -23 83 -35l23 -115h132l23 115
q15 4 29 9.5t27.5 11.5t26.5 14l98 -66l93 93l-65 99q22 39 34 82l116 24v131zM668 288q0 -25 -8 -48.5t-22.5 -43t-33.5 -33.5t-43 -22t-49 -8q-64 0 -109.5 45.5t-45.5 110t45.5 110t109.5 45.5q76 0 123 -60q32 -43 33 -96z" />
    <glyph glyph-name="uniE645" unicode="&#xe645;" 
d="M726 -34h-439q-12 0 -20.5 -8.5t-8.5 -20.5t8.5 -20.5t20.5 -8.5h439q12 0 20.5 8.5t8.5 20.5t-8.5 20.5t-20.5 8.5zM475 290l90 69l-90 65v-134zM907 692h-790q-32 0 -54.5 -22.5t-22.5 -54.5v-518q0 -32 22.5 -54.5t54.5 -22.5h790q32 0 54.5 22.5t22.5 54.5v518
q0 32 -22.5 54.5t-54.5 22.5zM620 329l-2 -2l-135 -104q-12 -11 -29 -11q-16 0 -26.5 10.5t-10.5 26.5v212q0 17 11.5 28t27.5 11t27 -10l136 -100l1 -1q6 -6 9 -13.5t3.5 -16t-3 -16.5t-9.5 -14z" />
    <glyph glyph-name="uniE646" unicode="&#xe646;" horiz-adv-x="1114" 
d="M441 30v569l284 -285zM441 30z" />
    <glyph glyph-name="uniE647" unicode="&#xe647;" 
d="M0 719q0 39 27 66t66 27h838q39 0 66 -27t27 -66v-838q0 -39 -27 -66t-66 -27h-838q-39 0 -66 27t-27 66v838zM47 719v-838q0 -19 13.5 -32.5t32.5 -13.5h838q19 0 32.5 13.5t13.5 32.5v838q0 13 -6 23.5t-16.5 16.5t-23.5 6h-838q-19 0 -32.5 -13.5t-13.5 -32.5z
M465 347h-279v-94h279v-279h94v279h279v94h-279v279h-94v-279z" />
    <glyph glyph-name="uniE648" unicode="&#xe648;" 
d="M512 365q27 0 46 -19t19 -46q0 -7 -1 -13.5t-3.5 -12t-6 -11t-8 -10t-10 -8t-11 -6t-12 -3.5t-13.5 -1q-18 0 -33 8.5t-23.5 23.5t-8.5 33q0 27 19 46t46 19z" />
    <glyph glyph-name="uniE649" unicode="&#xe649;" 
d="M512 -146q91 0 173.5 35.5t142 95t95 142t35.5 173.5q0 52 -12 102t-34 94t-52.5 82.5t-69 69t-82.5 52.5t-94 34t-102 12q-72 0 -140 -22.5t-123 -64t-96.5 -96.5t-64 -123t-22.5 -140q0 -52 12 -102t34 -94t52.5 -82.5t69 -69t82.5 -52.5t94 -34t102 -12zM512 690
q79 0 151.5 -31t124.5 -83t83 -124.5t31 -151.5t-31 -151.5t-83 -124.5t-124.5 -83t-151.5 -31q-106 0 -195.5 52.5t-142 142t-52.5 195.5q0 40 8 78.5t22.5 73t36 66t48 58t58 48t66 36t73 22.5t78.5 8zM512 594q72 0 123 -50.5t51 -122t-51 -122t-123 -50.5t-123 50.5
t-51 122t51 122t123 50.5zM512 298q51 0 87.5 36t36.5 87q0 25 -9.5 48t-26.5 39.5t-40 26t-48 9.5q-34 0 -62.5 -16.5t-45 -44.5t-16.5 -62q0 -51 36.5 -87t87.5 -36zM512 298q103 0 176 -72t73 -175h-50q0 82 -58.5 140t-140.5 58q-54 0 -100 -26.5t-72.5 -72t-26.5 -99.5
h-50q0 51 20 96.5t53 78.5t79 52.5t97 19.5zM512 298z" />
    <glyph glyph-name="uniE64A" unicode="&#xe64a;" 
d="M785 732h-523q-38 0 -64.5 -26.5t-26.5 -64.5v-660q0 -37 26.5 -64t64.5 -27h523q19 0 35.5 7.5t29 19.5t19.5 29t7 35v660q0 19 -7 36t-19.5 29t-29 19t-35.5 7zM558 95h-69v68h69v-68zM657 367q-4 -5 -10 -11.5t-14 -14t-17.5 -16.5t-22.5 -18q-25 -20 -31 -32
q-2 -5 -3.5 -12t-1.5 -17q0 -1 0.5 -1.5t0.5 -1.5l-1 -2v-1v-8h-2q-8 -23 -31.5 -23t-31.5 23h-3v6v6v4v4v2v4q0 33 7 46q12 22 46 49q18 13 28 22t14 13q5 6 7.5 13.5t2.5 15.5q0 22 -18.5 37.5t-49.5 15.5q-15 0 -27.5 -4t-22.5 -12q-2 -2 -8 -6.5t-8 -6.5t-6 -6.5
t-6.5 -9.5t-3.5 -11v-6q0 -15 -10 -25t-25 -10q-9 0 -17 4.5t-12.5 12.5t-4.5 18q0 4 1 9q1 7 2.5 14.5t4 14t6 13t8 12.5t10 12t11.5 11q40 34 105 34q68 0 108 -34q8 -7 14.5 -14.5t11.5 -15t8 -15.5t4.5 -16.5t1.5 -17.5q0 -5 -1 -9v-8q-1 -4 -2.5 -8t-3 -7.5t-3.5 -7.5z
" />
    <glyph glyph-name="uniE64B" unicode="&#xe64b;" 
d="M904 204h-56v-113l-112 113h-336q-15 0 -28 7.5t-20.5 20.5t-7.5 29v396q0 23 16.5 39.5t39.5 16.5h504q12 0 22 -4t17.5 -12t12 -18.5t4.5 -21.5v-396q0 -24 -16.5 -40.5t-39.5 -16.5zM484 487q-7 0 -13.5 -3.5t-10.5 -10t-4 -14.5q0 -12 8.5 -20t20 -8t19.5 8t8 20
t-8 20t-20 8zM652 487q-11 0 -19.5 -8t-8.5 -20t8.5 -20t20 -8t19.5 8t8 20q0 8 -3.5 14.5t-10 10t-14.5 3.5zM820 487q-11 0 -19.5 -8t-8.5 -20t8.5 -20t20 -8t19.5 8t8 20t-8 20t-20 8zM680 148v-114q0 -9 -2.5 -17.5t-8 -15.5t-12.5 -12t-15.5 -8t-17.5 -3h-336
l-112 -113v113h-56q-23 0 -39.5 16.5t-16.5 39.5v397q0 23 16.5 39.5t39.5 16.5h168v-283q0 -23 16.5 -39.5t39.5 -16.5h336zM680 148z" />
    <glyph glyph-name="uniE64C" unicode="&#xe64c;" 
d="M753 618q21 -15 40 -32t35 -36q4 -5 7.5 -9t6.5 -9l8 -8l6 -10l6 -8l6 -10t6 -9.5t5.5 -9.5t5.5 -10q12 -22 20.5 -45.5t15.5 -47.5q12 -50 12 -100q0 -22 -2 -43.5t-6.5 -42t-10.5 -40t-15 -38.5q-33 -77 -90 -134t-133 -90q-20 -9 -39.5 -15t-40 -10t-42 -6.5
t-42.5 -2.5q-87 0 -163.5 33.5t-134 90.5t-90.5 134q-16 38 -24.5 79t-8.5 85q0 50 12 97.5t33.5 91t53.5 81t71 67.5q6 4 11 6.5t11 4t11 1.5h12q24 -4 39 -24q8 -10 10.5 -21t1 -23t-7.5 -22t-16 -18q-59 -43 -90.5 -106t-31.5 -135q0 -31 5.5 -60.5t17.5 -56.5
q24 -55 64.5 -96t95.5 -65q19 -8 38 -13.5t39 -8t41 -2.5q62 0 117 24t95.5 65t64.5 96q12 27 18 56.5t6 60.5q0 24 -3.5 47.5t-11 46.5t-19.5 44q-33 66 -94 108q-21 14 -25 39q-1 6 -1 11.5t1 11.5t3.5 11.5t5.5 10.5q15 19 39 24q8 1 16 0.5t15 -3t14 -7.5v0zM512 271
q-25 0 -42.5 17.5t-17.5 41.5v357q0 25 17.5 43t42.5 18t42.5 -18t17.5 -43v-357q0 -24 -17.5 -41.5t-42.5 -17.5v0zM512 271z" />
    <glyph glyph-name="uniE64D" unicode="&#xe64d;" 
d="M877 701h-731q-14 0 -26.5 -4t-23 -12t-18 -18t-12 -23t-4.5 -27v-466q0 -23 11.5 -42t30.5 -30t42 -11h139v-192l213 192h379q35 0 59 24t24 59v466q0 35 -24 59.5t-59 24.5zM289 366q-23 0 -39 16.5t-16 39.5t16 39.5t39 16.5q9 0 17.5 -3t15.5 -8t12 -12t8 -15.5
t3 -17.5q0 -23 -16.5 -39.5t-39.5 -16.5zM513 365q-23 0 -39.5 16.5t-16.5 39.5t16.5 39.5t39.5 16.5t39 -16.5t16 -39.5q0 -15 -7.5 -28t-20 -20.5t-27.5 -7.5zM734 364q-23 0 -39.5 16.5t-16.5 39.5t16.5 39t39.5 16q11 0 21.5 -4.5t18 -11.5t11.5 -17.5t4 -21.5
q0 -23 -16 -39.5t-39 -16.5zM734 364z" />
    <glyph glyph-name="uniE64E" unicode="&#xe64e;" 
d="M522 696q2 0 5 2q7 4 17 14q12 11 24.5 16t32.5 -3q10 -3 16.5 -8.5t12 -10.5t12 -8.5t17 -3.5t17.5 3t13.5 5.5t13.5 3.5t16 -2q10 -4 13.5 -12t2 -16t-7 -16t-13.5 -14q-20 -12 -30 -24.5t-20 -27.5q-6 -7 -12 -16t-11 -19q-6 -11 -13 -21h-212q-7 12 -15 23
q-6 11 -13 21t-12 18q-10 16 -23 27.5t-25 20.5q-14 10 -19 25.5t9 27.5q8 5 17 4t19.5 -4t20 -6.5t17.5 -0.5q15 3 22 10.5t24 18.5q14 8 30 5.5t25 -10.5q4 -5 8.5 -8.5t9.5 -6.5q5 -4 11 -7zM638 491q12 -17 31 -36q15 -17 37.5 -39.5t52.5 -46.5q24 -22 50.5 -51
t45.5 -68t27 -89.5t-2 -113.5q-10 -51 -37 -96.5t-72 -79.5t-107 -53.5t-141 -19.5q-81 0 -143.5 23t-106 59.5t-69 82t-33.5 91.5q-9 50 -2.5 96t24 86.5t43.5 74t57 60.5q26 23 47.5 44t36.5 39q17 19 31 37h230zM529 176l-49 50q-10 10 -14 15q-8 7 -21.5 11.5
t-22.5 -5.5q-8 -11 -4 -22t9 -17l15 -14q12 -12 25 -27q15 -16 34 -35l-1 -21h-70q-9 0 -15.5 -7t-6.5 -15.5t6 -14.5t16 -6h70v-36h-70q-9 0 -15.5 -5.5t-6.5 -14.5q-1 -9 5.5 -14.5t16.5 -5.5h70v-20q1 -15 9 -20.5t20 -5.5q13 -1 20.5 7.5t7.5 18.5v20h72q10 0 16.5 4.5
t5.5 15.5q0 21 -28 21h-66l1 35l67 1q14 -1 20 5.5t6 15.5t-6.5 15.5t-20.5 6.5h-67v19l32 32q12 12 24.5 25t18.5 18q23 21 10 36q-7 9 -18.5 9t-20.5 -8q-5 -4 -17.5 -15t-24.5 -22q-14 -13 -32 -30z" />
    <glyph glyph-name="uniE64F" unicode="&#xe64f;" horiz-adv-x="1093" 
d="M749 622q-10 0 -18 7t-13 17.5t-7.5 21t-2.5 17.5v127h2q8 0 17 -2.5t20.5 -9.5t28.5 -21t42 -37q28 -24 44 -41.5t24.5 -29t10.5 -20t2 -14.5v-15h-150zM867 238q48 0 88.5 -17.5t71.5 -48t48.5 -71.5t17.5 -88t-17.5 -88t-48.5 -71.5t-71.5 -48t-88.5 -17.5
q-46 0 -86.5 17.5t-71.5 48t-49 71.5t-18 88t18 88t49 71.5t71.5 48t86.5 17.5zM995 -23q10 0 17 10.5t7 24.5t-7 24.5t-17 10.5h-97v90q0 8 -8.5 14t-24 6t-23 -6t-7.5 -14v-113q-2 -8 -2 -12q0 -14 7 -24.5t16 -10.5h139zM576 44q-1 -7 -1 -15v-15q0 -46 13.5 -87
t36.5 -77h-362q-20 0 -43 11.5t-42.5 30t-33 42t-13.5 48.5v698q0 22 10 45t26.5 42t38 32t45.5 13h391v-128q0 -20 6.5 -42t19.5 -41.5t33.5 -32t48.5 -12.5h149v-254q-8 2 -17 2h-19q-76 0 -139.5 -36t-102.5 -96h-298q-26 0 -45 -18.5t-19 -45t19 -45.5t45 -19h253z
M323 428q-26 0 -45 -18.5t-19 -45.5t19 -45t45 -18h384q26 0 44.5 18t18.5 45t-18.5 45.5t-44.5 18.5h-384z" />
    <glyph glyph-name="uniE650" unicode="&#xe650;" 
d="M316 493q-16 0 -28 -9t-12 -24q0 -9 6 -17t15 -12t19 -4q15 0 24 9t9 24t-9 24t-24 9zM589 300q-5 0 -10 -2t-8.5 -6t-6 -8.5t-2.5 -9.5q0 -3 1 -6t3 -6l2 -4q2 -3 4.5 -5t5 -3t5.5 -2t6 -1q5 0 9.5 1t8 3t6.5 4.5t5 5.5t3 6t1 7q0 10 -9.5 18t-23.5 8zM502 427
q15 0 24.5 9t9.5 24t-9.5 24t-24.5 9t-27.5 -9t-12.5 -24q0 -7 3.5 -13.5t9 -10.5t13 -6.5t14.5 -2.5zM735 300q-10 0 -18 -8t-8 -18t8 -18.5t18 -8.5q15 0 24.5 8t9.5 18.5t-9.5 18.5t-24.5 8zM824 748h-623q-28 0 -53.5 -10.5t-43.5 -29t-29 -43.5t-11 -53v-623
q0 -57 40 -97t97 -40h623q57 0 96.5 40t39.5 97v623q0 56 -39.5 96t-96.5 40zM403 154q-10 0 -19 0.5t-20 2t-16.5 2.5t-19.5 4t-19 4l-93 -47l27 80q-51 36 -79 81.5t-28 98.5q0 95 78 160.5t189 65.5q64 0 121.5 -24t96.5 -67t50 -95q-14 1 -26 1q-94 0 -160 -61.5
t-66 -148.5q0 -15 2 -29t6 -27q-13 -1 -24 -1zM795 60l20 -66l-73 40q-53 -13 -80 -13q-62 0 -114 25.5t-82 70t-30 97.5q0 80 66 136.5t160 56.5q91 0 158.5 -57t67.5 -136q0 -84 -93 -154z" />
    <glyph glyph-name="uniE651" unicode="&#xe651;" 
d="M1024 111v504q0 81 -58 138.5t-139 57.5h-630q-91 0 -150 -69q-46 -56 -47 -127v-630q0 -82 58 -139.5t139 -57.5h630q47 0 89 21t69 58t36 83q-283 122 -397 176q-71 -86 -147.5 -129.5t-177.5 -43.5q-105 0 -169 56.5t-55 137.5q2 24 9.5 46t26.5 47t46.5 42t74.5 26
t107 3q18 -1 34 -3t31.5 -5t28 -5.5t26.5 -6t24.5 -6.5t25.5 -7.5t24.5 -8t27 -9.5t28.5 -9q35 64 57 139h-398v40h197v70h-240v44h240v102q0 1 0.5 3t1.5 3.5t2.5 3t3.5 3t5 2.5t7 1h98v-118h256v-44h-256v-70h209q-29 -116 -85 -213q17 -6 58 -19.5t87 -27.5t90 -28
t73 -22l29 -9v0zM284 20q-31 0 -57 5.5t-43 14.5t-30.5 20.5t-20.5 24.5t-11.5 25.5t-4 23.5t0.5 20q4 16 13.5 31t25.5 29t41 22.5t55 8.5q131 0 284 -75q-111 -143 -242 -150h-11z" />
    <glyph glyph-name="uniE652" unicode="&#xe652;" 
d="M484 751q-180 0 -315 -118q-130 -113 -159 -281q-6 -41 -6 -81q0 -79 24 -152t68.5 -132t103.5 -103.5t132 -68.5t152 -24q97 0 186 38t153.5 102t102.5 153t38 186.5t-38 186.5t-102.5 153.5t-153.5 102.5t-186 38zM707 340l-271 -268q-9 -9 -21 -9q-13 0 -22 9l-3 4
q-1 1 -2.5 1.5t-2.5 2.5l-125 123q-9 9 -9 22t9 22t22 9t22 -9l111 -110l249 246q6 6 14 8t15.5 0t13.5 -8q9 -9 9 -21.5t-9 -21.5z" />
    <glyph glyph-name="uniE653" unicode="&#xe653;" 
d="M300 508q-17 0 -30 -10t-13 -25.5t13 -26t30 -10.5q16 0 26 10t10 26.5t-9.5 26t-26.5 9.5zM501 436q16 0 26 10t10 26q0 8 -2.5 15t-7 11.5t-11.5 7t-15 2.5t-15.5 -2.5t-13.5 -7t-10 -11.5t-4 -15q0 -15 13 -25.5t30 -10.5zM595 300q-11 0 -20 -9t-9 -19.5t9 -19.5
t20 -9q15 0 25 8.5t10 19.5q0 6 -2.5 11t-7 9t-11.5 6.5t-14 2.5zM752 300q-10 0 -19 -9t-9 -19.5t9 -19.5t19 -9q16 0 26 8.5t10 20t-10 20t-26 8.5zM896 812h-768q-53 0 -90.5 -37.5t-37.5 -90.5v-768q0 -53 37.5 -90.5t90.5 -37.5h768q53 0 90.5 37.5t37.5 90.5v768
q0 53 -37.5 90.5t-90.5 37.5zM394 142q-29 0 -101 14l-100 -50l28 86q-55 39 -84.5 87.5t-29.5 106.5q0 102 84 173t203 71q105 0 187.5 -57.5t101.5 -143.5q-7 1 -14 1h-14q-102 0 -172.5 -66t-70.5 -161q0 -29 8 -60q-3 0 -6.5 -0.5t-6.5 -0.5h-7h-6zM817 42l21 -72
l-78 43l-30 -7q-10 -3 -26.5 -5t-29.5 -2q-51 0 -96 16t-77.5 44t-51.5 66.5t-19 81.5q0 86 71 147t173 61q97 0 170 -61.5t73 -146.5q0 -31 -13.5 -62t-35 -56t-51.5 -47z" />
    <glyph glyph-name="uniE654" unicode="&#xe654;" 
d="M987 442q0 -12 -14 -27l-208 -202l49 -286q1 -4 1 -12q0 -12 -6 -20t-18 -8q-10 0 -22 7l-257 135l-257 -135q-12 -7 -22 -7q-12 0 -18 8t-6 20q0 4 1 12l49 286l-208 202q-14 15 -14 27q0 21 32 27l286 41l129 260q11 24 28 24t28 -24l129 -260l286 -41q32 -6 32 -27z
" />
    <glyph glyph-name="uniE655" unicode="&#xe655;" horiz-adv-x="1000" 
d="M844 548v138h-829v-645h138v-92h860v599h-169zM138 548v-445h-61v522h706v-77h-645zM952 302h-737v108h737v-108z" />
    <glyph glyph-name="uniE656" unicode="&#xe656;" horiz-adv-x="1123" 
d="M561.5 -58q-11.5 0 -53.5 42t-42 53q0 18 36 31t59.5 13t59 -13t35.5 -31q0 -11 -41.5 -53t-53 -42zM715 97q-1 0 -22.5 14t-58 28.5t-73.5 14.5t-73.5 -14.5t-57.5 -28.5t-23 -14q-10 0 -53.5 42.5t-43.5 53.5q0 7 6 13q45 44 112 69t133 25t133.5 -25t111.5 -69
q6 -6 6 -13q0 -11 -43 -53.5t-54 -42.5zM871 252q-6 0 -13 5q-77 60 -143.5 88t-153.5 28q-48 0 -97 -12.5t-85.5 -30t-65 -35.5t-45 -30.5t-17.5 -12.5q-10 0 -53 43t-43 53q0 7 6 13q76 75 183 116.5t217 41.5t217.5 -41.5t182.5 -116.5q6 -6 6 -13q0 -10 -43 -53t-53 -43
zM1026 407q-6 0 -12 5q-103 90 -213 135.5t-240 45.5t-240 -45.5t-212 -135.5q-7 -5 -13 -5q-10 0 -53 43t-43 53q0 7 6 13q107 106 254 164.5t301 58.5t301.5 -58.5t254.5 -164.5q5 -6 5 -13q0 -10 -43 -53t-53 -43z" />
    <glyph glyph-name="uniE657" unicode="&#xe657;" 
d="M924 644h-823q-15 0 -25 -10.5t-10 -25.5v-613q0 -15 10 -25.5t25 -10.5h823q15 0 25 10.5t10 25.5v613q0 15 -10 25.5t-25 10.5zM898 46q0 -12 -9 -21t-21 -9h-711q-12 0 -21 9t-9 21v511q0 5 1.5 9.5t4.5 8t6.5 6.5t8 4.5t9.5 1.5h711q12 0 21 -9t9 -21v-511zM537 423
h285v-56h-285v56zM537 315h285v-56h-285v56zM358.5 313q32.5 0 55.5 34t23 63q0 15 -0.5 24t-4.5 24t-11.5 24t-23.5 16t-39 7q-19 0 -33 -4.5t-22.5 -13t-13.5 -16.5t-7 -21t-2.5 -20.5t-0.5 -19.5q0 -29 23.5 -63t56 -34zM450 287l-38 19l-38 -70l-6 16l11 21l-21 21
l-21 -21l10 -21l-6 -17l-37 71q-59 -27 -79.5 -42.5t-29.5 -63.5h255v87zM195 140h630v-55h-630v55z" />
    <glyph glyph-name="uniE658" unicode="&#xe658;" 
d="M511 -160q-61 0 -119 16t-107 45t-90.5 70.5t-70 90.5t-45 107t-16.5 119q0 91 35.5 174t95.5 142.5t143 95t174 35.5t173.5 -35.5t142.5 -95t95.5 -142.5t35.5 -174t-35.5 -174t-95.5 -143t-142.5 -95.5t-173.5 -35.5zM511 676q-106 0 -195 -52t-141 -141.5t-52 -195
t52 -195t141 -141t194.5 -51.5t195 51.5t141.5 141t52 195.5q0 79 -31 150.5t-83 123.5t-123.5 83t-150.5 31zM511 19q-25 0 -42.5 17.5t-17.5 42t17.5 42t42.5 17.5q16 0 29.5 -8t21.5 -21.5t8 -29.5q0 -25 -17.5 -42.5t-41.5 -17.5zM511 198q-13 0 -21.5 17.5t-8.5 42.5
l-30 268q0 25 17.5 42.5t42.5 17.5q16 0 29.5 -8t21.5 -21.5t8 -30.5l-29 -268q0 -25 -9 -42.5t-21 -17.5v0zM511 198z" />
    <glyph glyph-name="uniE659" unicode="&#xe659;" 
d="M406 195q-10 -6 -19.5 -8.5t-15.5 -1.5t-10.5 4t-7.5 6.5t-4.5 7.5t-2.5 6v2l-66 154q-17 48 4 43q8 -2 18 -11q4 -3 12 -8.5t27 -18.5t32 -22q9 -5 19 -7.5t18 -2.5t15 1t10 3l4 1l431 198q-61 75 -155.5 119t-203.5 44q-120 0 -221 -51.5t-160 -139.5t-59 -192
q0 -90 44.5 -168.5t122.5 -131.5l-19 -105q0 -1 -0.5 -3t-0.5 -7t2.5 -7t7 -3.5t13.5 3.5q25 12 107 66q78 -27 163 -27q119 0 220.5 51t160 139.5t58.5 192.5q0 15 -1.5 30t-4 30t-6.5 29t-9 28t-11 27.5t-14 25.5q-453 -271 -498 -296zM406 195z" />
  </font>
</defs>
</svg>
