<?xml version="1.0" standalone="no"?>
<!DOCTYPE svg PUBLIC "-//W3C//DTD SVG 1.1//EN" "http://www.w3.org/Graphics/SVG/1.1/DTD/svg11.dtd" >
<!--
2013-9-30: Created.
-->
<svg>
<metadata>
Created by iconfont
</metadata>
<defs>

<font id="iconfont" horiz-adv-x="1024" >
  <font-face
    font-family="iconfont"
    font-weight="500"
    font-stretch="normal"
    units-per-em="1024"
    ascent="896"
    descent="-128"
  />
    <missing-glyph />
    
    <glyph glyph-name="x" unicode="x" horiz-adv-x="1001"
d="M281 543q-27 -1 -53 -1h-83q-18 0 -36.5 -6t-32.5 -18.5t-23 -32t-9 -45.5v-76h912v41q0 16 -0.5 30t-0.5 18q0 13 -5 29t-17 29.5t-31.5 22.5t-49.5 9h-133v-97h-438v97zM955 310v-52q0 -23 0.5 -52t0.5 -58t-10.5 -47.5t-26 -30t-33 -16t-31.5 -4.5q-14 -1 -29.5 -0.5
t-29.5 0.5h-32l-45 128h-439l-44 -128h-29h-34q-20 0 -45 1q-25 0 -41 9.5t-25.5 23t-13.5 29.5t-4 30v167h911zM163 247q-12 0 -21 -8.5t-9 -21.5t9 -21.5t21 -8.5q13 0 22 8.5t9 21.5t-9 21.5t-22 8.5zM316 123q-8 -26 -14 -48q-5 -19 -10.5 -37t-7.5 -25t-3 -15t1 -14.5
t9.5 -10.5t21.5 -4h37h67h81h80h64h36q23 0 34 12t2 38q-5 13 -9.5 30.5t-9.5 34.5q-5 19 -11 39h-368zM336 498v228q0 11 2.5 23t10 21.5t20.5 15.5t34 6h188q31 0 51.5 -14.5t20.5 -52.5v-227h-327z" />
    

    
    <glyph glyph-name="shezhi" unicode="&#58926;" d="M989.632 375.456l-47.008 0c-21.568 0-44.384 16.832-50.848 37.408l-26.944 65.568c-10.208 18.976-6.048 46.976 9.152 62.208l33.344 33.312c15.296 15.296 15.296 40.192 0 55.456l-55.424 55.36c-15.264 15.232-40.192 15.232-55.424 0l-33.344-33.312c-15.168-15.232-43.232-19.392-62.24-9.216l-65.472 26.976c-20.544 6.368-37.44 29.248-37.44 50.784L597.984 767.072c0 21.504-17.664 39.2-39.136 39.2l-78.304 0c-21.568 0-39.232-17.696-39.232-39.2l0-47.008c0-21.568-16.8-44.448-37.408-50.784l-65.568-26.976C319.328 632.064 291.36 636.224 276.192 651.488L242.752 684.8C227.52 700 202.592 700 187.392 684.8l-55.36-55.36c-15.264-15.264-15.264-40.16 0-55.392l33.248-33.344c15.296-15.232 19.424-43.232 9.216-62.208l-26.976-65.632c-6.368-20.576-29.184-37.44-50.784-37.44l-46.976 0.064c-21.536 0-39.2-17.6-39.2-39.168l0-78.336c0-21.568 17.664-39.232 39.2-39.232l46.976 0c21.6-0.032 44.384-16.832 50.688-37.408l27.072-65.568c10.144-19.008 6.016-47.072-9.216-62.272l-33.344-33.28c-15.168-15.264-15.168-40.192 0-55.392l55.456-55.456c15.2-15.232 40.128-15.232 55.36 0l33.376 33.344c15.168 15.232 43.136 19.36 62.048 9.12l65.728-27.008c20.608-6.4 37.408-29.216 37.408-50.752l0-46.912c0-21.504 17.568-39.168 39.232-39.168l78.304 0c21.472 0 39.136 17.664 39.136 39.168l0 46.912c0 21.536 16.896 44.352 37.44 50.752l65.6 27.008c18.976 10.24 47.04 6.08 62.272-9.12l33.184-33.344c15.264-15.232 40.192-15.232 55.424 0l55.424 55.456c15.296 15.232 15.296 40.16 0 55.392l-33.344 33.28c-15.232 15.232-19.36 43.296-9.152 62.272l26.944 65.568c6.464 20.576 29.344 37.376 50.848 37.376l47.008 0c21.504 0 39.136 17.664 39.136 39.2l0 78.4C1028.736 357.856 1011.136 375.456 989.632 375.456M715.552 297.216c0-108.192-87.68-195.808-195.808-195.808-108.16 0-195.84 87.584-195.84 195.808 0 108.096 87.68 195.776 195.84 195.776C627.872 492.992 715.552 405.312 715.552 297.216"  horiz-adv-x="1029" />

    
    <glyph glyph-name="closecircled" unicode="&#58902;" d="M512 746C264.6 746 64 545.4 64 298c0-247.4 200.6-448 448-448 247.4 0 448 200.6 448 448C960 545.4 759.4 746 512 746zM728.6 147c3-3 4.6-7 4.6-11.2 0-4.2-1.6-8.4-4.6-11.2l-43.2-43.4c-3.2-3.2-7.2-4.6-11.2-4.6-4 0-8.2 1.6-11.2 4.6L512 232.4l-150.8-151.4c-3-3.2-7.2-4.6-11.2-4.6-4 0-8.2 1.6-11.2 4.6l-43.2 43.4c-3 3-4.6 7-4.6 11.2 0 4.2 1.6 8.4 4.6 11.2l151.4 152-151.8 150c-6.2 6.2-6.2 16.4 0 22.6l43.2 43.4c3 3 7 4.6 11.2 4.6 4.2 0 8.2-1.6 11.2-4.6l151.4-149.4 151.4 149.4c3 3 7 4.6 11.2 4.6 4.2 0 8.2-1.6 11.2-4.6l43.2-43.4c6.2-6.2 6.2-16.4 0-22.6l-151.8-150L728.6 147z"  horiz-adv-x="1024" />

    
    <glyph glyph-name="user" unicode="&#58960;" d="M512 300c106.015545 0 191.883215 86.107123 191.883215 191.883215 0 106.015545-85.86767 191.883215-191.883215 191.883215s-191.883215-85.86767-191.883215-191.883215C320.116785 386.108147 405.984455 300 512 300zM512 204.058904c-127.841643 0-383.76643-64.040549-383.76643-191.883215l0-95.941096L895.765407-83.765407l0 95.941096C895.765407 140.017332 639.841643 204.058904 512 204.058904z"  horiz-adv-x="1024" />

    
    <glyph glyph-name="home" unicode="&#58890;" d="M535.040 711.904c12.128-12.864 11.456-33.088-1.376-45.248l-419.328-394.816c-12.832-12.096-33.12-11.488-45.216 1.344v0c-12.096 12.864-11.52 33.12 1.344 45.216l419.328 394.88c12.864 12.096 33.088 11.488 45.248-1.376v0zM488.832 711.904c12.096 12.896 32.352 13.504 45.216 1.376l419.488-394.656c12.832-12.128 13.504-32.384 1.408-45.28v0c-12.16-12.832-32.352-13.472-45.248-1.376l-419.488 394.688c-12.864 12.128-13.472 32.352-1.376 45.248v0zM963.584 565.984c0-17.664-14.304-32-32-32v0c-17.696 0-32 14.336-32 32v128c0 17.664 14.304 32 32 32v0c17.696 0 32-14.336 32-32v-128zM963.584 693.984c0-17.664-14.304-32-32-32h-128c-17.696 0-32 14.336-32 32v0c0 17.664 14.304 32 32 32h128c17.696 0 32-14.304 32-32v0zM257.344-138.688c0-17.696-14.336-32-32-32v0c-17.664 0-32 14.304-32 32v440c0 17.664 14.336 32 32 32v0c17.664 0 32-14.336 32-32v-440zM835.552-138.688c0-17.696-14.304-32-32-32v0c-17.664 0-32 14.304-32 32v440c0 17.664 14.336 32 32 32v0c17.696 0 32-14.336 32-32v-440zM449.312-138.688c0-17.696-14.304-32-32-32h-192c-17.664 0-32 14.304-32 32v0c0 17.696 14.336 32 32 32h192c17.696 0 32-14.304 32-32v0zM835.488-138.688c0-17.696-14.304-32-32-32h-192c-17.696 0-32 14.304-32 32v0c0 17.696 14.304 32 32 32h192c17.696 0 32-14.304 32-32v0zM643.488 117.312c0-17.696-14.304-32-32-32h-192c-17.664 0-32 14.304-32 32v0c0 17.696 14.336 32 32 32h192c17.696 0 32-14.304 32-32v0zM449.312-138.688c0-17.696-14.336-32-32-32v0c-17.664 0-32 14.304-32 32v256c0 17.696 14.336 32 32 32v0c17.664 0 32-14.304 32-32v-256zM643.488-138.688c0-17.696-14.304-32-32-32v0c-17.664 0-32 14.304-32 32v256c0 17.696 14.336 32 32 32v0c17.696 0 32-14.304 32-32v-256z"  horiz-adv-x="1024" />

    
    <glyph glyph-name="add" unicode="&#58882;" d="M512-128c-279.893 0-512 232.107-512 512s232.107 512 512 512 512-232.107 512-512-232.107-512-512-512zM512 827.733c-245.76 0-443.733-197.973-443.733-443.733s197.973-443.733 443.733-443.733 443.733 197.973 443.733 443.733-197.973 443.733-443.733 443.733zM757.76 349.867h-491.52c-13.653 0-34.133 13.653-34.133 34.133s20.48 34.133 34.133 34.133h484.693c20.48 0 34.133-13.653 34.133-34.133s-13.653-34.133-27.307-34.133zM512 97.28c-20.48 0-34.133 13.653-34.133 34.133v512c0 20.48 13.653 34.133 34.133 34.133 0 0 0 0 0 0 20.48-6.827 34.133-20.48 34.133-34.133v-512c0-20.48-13.653-34.133-34.133-34.133 0 0 0 0 0 0z"  horiz-adv-x="1024" />

    
    <glyph glyph-name="fenxiang" unicode="&#58925;" d="M777.017374 240.017748c-54.984289 0-102.762455-29.633924-129.444141-73.516364L382.0703 316.389136c10.324136 20.48352 16.618493 43.205011 16.618493 67.610864 0 21.747303-4.736884 42.35669-12.981662 61.020772L651.210064 594.974016c27.329439-40.409338 73.485665-66.991764 125.806287-66.991764 83.673701 0 151.835104 68.062142 151.835104 151.769612 0 83.741239-68.161403 151.805428-151.835104 151.805428-83.676771 0-151.839197-68.064188-151.839197-151.805428 0-12.852726 2.142803-25.089421 5.130857-36.968983L356.69333 488.287181c-27.721365 29.114085-66.538439 47.485501-109.771079 47.485501-83.742263 0-151.772682-68.096934-151.772682-151.771659 0-83.675748 68.030419-151.838174 151.772682-151.838174 40.440038 0 76.985372 16.162098 104.252389 42.09677l277.05606-156.413376c-1.88493-9.573029-3.050476-19.47454-3.050476-29.664623 0-83.676771 68.160379-151.738913 151.839197-151.738913 83.673701 0 151.835104 68.064188 151.835104 151.738913C928.852478 171.954583 860.691075 240.017748 777.017374 240.017748"  horiz-adv-x="1024" />

    
    <glyph glyph-name="close" unicode="&#58935;" d="M512-25.6 512-25.6C738.215834-25.6 921.6 157.784166 921.6 384 921.6 610.215834 738.215834 793.6 512 793.6 285.784166 793.6 102.4 610.215834 102.4 384 102.4 157.784166 285.784166-25.6 512-25.6L512-25.6 512-25.6 512-25.6ZM512-128 512-128C229.230208-128 0 101.230208 0 384 0 666.769792 229.230208 896 512 896 794.769792 896 1024 666.769792 1024 384 1024 101.230208 794.769792-128 512-128L512-128 512-128 512-128ZM512 456.407734 367.181118 601.226616C347.218573 621.189161 314.77164 621.218047 294.776797 601.223203 274.822639 581.269045 274.780425 548.811841 294.773384 528.818882L439.592266 384 294.773384 239.181118C274.810839 219.218573 274.781953 186.77164 294.776797 166.776797 314.730955 146.822639 347.188159 146.780425 367.181118 166.773384L512 311.592266 656.818882 166.773384C676.781427 146.810839 709.22836 146.781953 729.223203 166.776797 749.177361 186.730955 749.219575 219.188159 729.226616 239.181118L584.407734 384 729.226616 528.818882C749.189161 548.781427 749.218047 581.22836 729.223203 601.223203 709.269045 621.177361 676.811841 621.219575 656.818882 601.226616L512 456.407734 512 456.407734Z"  horiz-adv-x="1024" />

    
    <glyph glyph-name="email-copy" unicode="&#58913;" d="M999.145 435.61l442.089 431.309c12.511-12.437 20.294-29.677 20.294-48.761v-868.296c0-18.022-7.056-34.313-18.358-46.545l-444.025 532.294zM31.967 868.873c12.065 10.966 27.89 17.818 45.41 17.818h1316.082c17.52 0 33.364-6.851 45.41-17.818l-703.451-553.425-703.451 553.425zM27.667-96.684c-11.301 12.232-18.358 28.523-18.358 46.545l0 868.278c0 19.084 7.782 36.324 20.294 48.761l442.089-431.29-444.025-532.294zM735.418 178.344l184.599 180.094 520.118-458.268c-12.195-11.618-28.56-18.86-46.676-18.86l-1316.082-0c-18.115 0-34.481 7.242-46.676 18.86l520.099 458.268 184.618-180.094z"  horiz-adv-x="1471" />

    
    <glyph glyph-name="baodan" unicode="&#59132;" d="M796.255687 288.933584c53.011393 0 102.233188-18.949015 140.097446-49.272964L936.353132 633.853544c0 18.954132-11.357537 49.278081-26.504673 64.435451L743.2402 868.854687C728.099204 884.01615 701.593508 895.385968 678.871269 895.385968l-564.192684 0C73.031893 895.385968 38.95007 861.270374 38.95007 819.581723l0-826.291041c0-41.693768 34.081823-75.809362 75.728515-75.809362l511.181291 0c-34.075683 37.90724-56.797921 90.970826-56.797921 147.826056C569.062978 186.597034 671.30026 288.933584 796.255687 288.933584L796.255687 288.933584zM659.941699 800.628615c0 22.741683 11.358561 26.533328 26.504673 11.370841l170.390694-170.561599c15.147136-15.162487 11.359584-26.533328-11.358561-26.533328l-109.809314 0c-41.651809 0-75.728515 34.110478-75.728515 75.804245L659.940676 800.628615 659.941699 800.628615zM182.83609 709.662906 519.839137 709.662906c15.147136 0 26.504673-11.374935 26.504673-26.531281 0-15.162487-11.357537-26.536398-26.504673-26.536398L182.83609 656.595227c-15.142019 0-26.504673 11.373912-26.504673 26.536398C156.330394 698.287971 167.694072 709.662906 182.83609 709.662906L182.83609 709.662906zM182.83609 558.049298l617.204078 0c15.146112 0 26.504673-11.375958 26.504673-26.533328 0-15.16044-11.359584-26.531281-26.504673-26.531281l-617.204078 0c-15.142019 0-26.504673 11.370841-26.504673 26.531281C156.330394 546.674363 167.694072 558.049298 182.83609 558.049298L182.83609 558.049298zM156.330394 379.903386c0 15.162487 11.362654 26.531281 26.504673 26.531281l450.600935 0c15.140995 0 26.504673-11.369818 26.504673-26.531281s-11.364701-26.531281-26.504673-26.531281L182.83609 353.372105C167.694072 353.372105 156.330394 364.741923 156.330394 379.903386L156.330394 379.903386zM156.330394 379.903386M796.255687 251.031461c-106.025856 0-189.330498-83.387535-189.330498-189.515731s83.303618-189.515731 189.330498-189.515731c106.022786 0 189.326404 83.387535 189.326404 189.515731S902.278473 251.031461 796.255687 251.031461L796.255687 251.031461zM796.255687-86.306232c-83.303618 0-151.461123 68.225049-151.461123 151.612584s68.156482 151.612584 151.461123 151.612584c83.298501 0 151.462147-68.225049 151.462147-151.612584C947.717833-21.871805 879.554187-86.306232 796.255687-86.306232L796.255687-86.306232zM796.255687-86.306232M898.488875 107.001143l-53.01037 7.578173-26.504673 49.272964c-7.57715 15.162487-30.294271 15.162487-37.864257 0l-26.50672-49.272964-53.01037-7.578173c-7.575103 0-15.147136-7.58329-18.934687-15.162487-3.787551-7.58329 0-15.16044 7.569986-18.954132l41.651809-37.901099-11.358561-56.856254c0-7.578173 3.787551-15.162487 7.575103-18.954132 3.782435-3.786528 15.142019-7.578173 22.717122-3.786528l49.223842 26.531281 49.226912-26.531281c3.782435-3.791645 7.569986-3.791645 7.569986-3.791645 7.57715 0 7.57715 3.791645 11.359584 3.791645 7.575103 7.578173 7.575103 11.369818 7.575103 18.949015l-3.787551 53.063586 41.651809 37.90724c3.787551 7.578173 3.787551 18.949015 3.787551 26.531281C909.848459 99.417853 906.066024 103.209498 898.488875 107.001143L898.488875 107.001143zM898.488875 107.001143"  horiz-adv-x="1024" />

    
    <glyph glyph-name="return-copy" unicode="&#58892;" d="M399.211 76.048l39.583-39.585 365.646 365.721-365.646 365.679-39.583-39.583 326.126-326.12z"  horiz-adv-x="1024" />

    
    <glyph glyph-name="fanhui-copy" unicode="&#58884;" d="M774.836 408.467l-474.080 474.19c-14.272 14.199-37.319 14.236-51.555 0-14.272-14.236-14.272-37.356-0.036-51.554l424.964-425.038c0 0-0.837 0.837 11.942-11.942 12.78-12.743-1.238-24.249-1.238-24.249l-433.084-433.084c-14.272-14.236-14.272-37.246 0-51.483 14.236-14.236 37.283-14.272 51.518 0l468.8 468.765c0.51 0.51 0.874 0.946 1.311 1.42 0.582 0.51 1.020 0.91 1.456 1.382 14.236 14.236 14.236 37.393 0 51.591z"  horiz-adv-x="1024" />

    
    <glyph glyph-name="yanzhengma" unicode="&#58962;" d="M853.333333 156.444444l0-113.777778c0-31.402667-25.486222-56.888889-56.888889-56.888889L170.666667-14.222222c-31.402667 0-56.888889 25.486222-56.888889 56.888889L113.777778 782.222222c0 31.402667 25.486222 56.888889 56.888889 56.888889l625.777778 0c31.402667 0 56.888889-25.486222 56.888889-56.888889l0-227.555556 56.888889 0L910.222222 782.222222c0 62.862222-50.915556 113.777778-113.777778 113.777778L170.666667 896C107.804444 896 56.888889 845.084444 56.888889 782.222222l0-739.555556c0-62.862222 50.915556-113.777778 113.777778-113.777778l625.777778 0c62.862222 0 113.777778 50.915556 113.777778 113.777778l0 113.777778L853.333333 156.444444zM227.555556 554.666667l341.333333 0 0-56.888889-341.333333 0 0 56.888889ZM227.555556 327.111111l341.333333 0 0-56.888889-341.333333 0 0 56.888889ZM778.922667 497.777778 739.555556 459.832889 897.080889 308.167111 936.504889 346.055111ZM1212.188444 611.555556 897.080889 308.167111 936.504889 270.222222 1251.555556 573.610667Z"  horiz-adv-x="1309" />

    
    <glyph glyph-name="careful" unicode="&#58905;" d="M512-128c-282.761 0-512 229.239-512 512 0 282.795 229.239 512 512 512 282.761 0 512-229.205 512-512 0-282.761-229.239-512-512-512zM512 827.767c-245.077 0-443.733-198.69-443.733-443.733 0-245.077 198.656-443.733 443.733-443.733 245.077 0 443.733 198.656 443.733 443.733 0 245.043-198.656 443.733-443.733 443.733zM529.067 76.834h-34.133c-9.421 0-17.067 7.646-17.067 17.067v68.267c0 9.421 7.646 17.067 17.067 17.067h34.133c9.421 0 17.067-7.646 17.067-17.067v-68.267c0-9.421-7.646-17.067-17.067-17.067zM529.067 213.367h-34.133c-9.421 0-17.067 7.646-17.067 17.067v443.699c0 9.455 7.646 17.067 17.067 17.067h34.133c9.421 0 17.067-7.612 17.067-17.067v-443.699c0-9.421-7.646-17.067-17.067-17.067z"  horiz-adv-x="1024" />

    
    <glyph glyph-name="wode" unicode="&#59002;" d="M960.053977-128l-0.938726 7.791427C933.074988 95.116424 732.506765 270.320267 512 270.320267c-220.506765 0-421.074988-175.185068-447.096476-390.52884l-0.938726-7.791427L5.087896-128l1.051373 9.819075C26.509626 71.68582 159.395695 242.815592 336.814932 307.606468l5.407062 1.990099-4.843827 3.116571c-90.699718 58.332441-144.84544 155.509369-144.84544 259.989586C192.532727 744.921418 341.827729 896 512 896c170.191045 0 319.467273-151.078582 319.467273-323.334825 0-104.461443-54.145723-201.63837-144.84544-259.989586l-4.843827-3.116571 5.407062-1.990099c177.419237-64.809651 310.305306-235.920648 330.675663-425.787393L1018.912104-128 960.053977-128zM512 836.353342c-131.515529 0-260.590371-130.614352-260.590371-263.669392 0-138.912691 137.5797-242.717025 260.590371-242.717025 123.010671 0 260.590371 103.78556 260.590371 242.717025C772.590371 705.73899 643.515529 836.353342 512 836.353342z"  horiz-adv-x="1024" />

    
    <glyph glyph-name="icon" unicode="&#58886;" d="M83.455225 368.460072c-12.69309 0-17.857716 5.252631-17.857716 17.928325 0 247.14482 201.045899 448.208115 448.13853 448.208115 167.289074 0 319.470055-92.128257 397.191184-240.439094 5.880941-11.239995 1.539053-25.14161-9.665127-31.024597-11.275811-5.901407-25.160029-1.541099-31.04097 9.6815-69.75469 133.132136-206.351742 215.805044-356.484064 215.805044-221.75864 0-402.179802-180.438559-402.179802-402.230967C111.556237 373.712703 96.148315 368.460072 83.455225 368.460072L83.455225 368.460072zM83.455225 368.460072M513.735016-61.819718c-149.117203 0-288.026926 73.882708-371.57476 197.614753-7.090489 10.522658-4.341888 24.806989 6.198166 31.899524 10.522658 7.089465 24.826432 4.324492 31.899524-6.180769 74.986855-111.070678 199.663412-177.357384 333.478094-177.357384 218.851427 0 399.273612 178.023556 402.142963 396.821771l0.034792 5.41022c0 12.69309 15.408945 17.928325 28.102035 17.928325 12.675694 0 17.856693-5.234211 17.856693-17.928325l-0.053212-5.989411C958.599989 136.547165 757.606279-61.819718 513.735016-61.819718L513.735016-61.819718zM513.735016-61.819718M592.119247 343.597825c-6.197142 0-12.360516 2.486634-16.877389 7.370875L435.561585 502.186749 302.044686 371.207649c-4.27128-4.183276-15.406898-2.695389-21.37789-2.747577L83.455225 368.460072l0 0c-12.623505 0-17.788132 5.759167-17.857716 18.400069-0.070608 12.69309 5.164626 17.385972 17.857716 17.455557l197.211571 0L420.329672 551.664627c4.411473 4.341888 10.995425 6.617721 16.650215 6.513344 6.215562-0.140193 12.115945-2.819209 16.300244-7.388271l155.734924-168.604022c8.632611-9.331529 8.037047-23.880897-1.278109-32.459273C603.289658 345.629087 597.686033 343.597825 592.119247 343.597825L592.119247 343.597825zM592.119247 343.597825M573.350788 217.994152c-5.952572 0-11.871375 2.311649-16.388249 6.898107L391.581931 392.971325c-8.894577 9.051143-8.771781 23.600511 0.279363 32.494065 9.03477 8.894577 23.600511 8.789177 32.495088-0.279363l149.344377-151.777799 119.318526 112.980167c4.324492 4.219091 30.341029 17.034978 35.856649 17.928325l215.139895 0c12.69309-0.069585 17.928325-4.744048 17.856693-17.438161-0.053212-12.640901-10.345626-22.236444-22.986527-22.236444l5.129834 3.817955-215.139895 0L589.388043 224.822674C584.905962 220.480786 579.128375 217.994152 573.350788 217.994152L573.350788 217.994152zM573.350788 217.994152"  horiz-adv-x="1024" />

    
    <glyph glyph-name="scan" unicode="&#58922;" d="M647.678 760.32l211.199 0c19.2 0 30.72-10.24 30.72-30.72l0-180.48c0-19.2 20.48-26.88 40.96-26.88 20.48 0 34.56 15.36 34.56 34.56l0 175.36c0 57.6-46.08 103.68-103.68 103.68L650.238 835.84c-19.2 0-34.56-15.36-34.56-34.56S628.478 760.32 647.678 760.32zM346.879 7.682 165.12 7.682c-19.2 0-30.72 10.24-30.72 30.72l0 165.12c0 19.2-20.48 42.24-40.96 42.24s-33.28-15.36-33.28-34.56l0-172.8c0-57.6 46.08-103.68 103.68-103.68l172.8 0c19.2 0 34.56 15.36 34.56 34.56C373.759-14.078 366.079 7.682 346.879 7.682zM94.72 522.241c19.2 0 40.96 23.04 40.96 42.24l0 166.4c0 19.2 10.24 30.72 30.72 30.72l165.12 0c19.2 0 42.24 20.48 42.24 40.96s-15.36 33.28-34.56 33.28L163.84 835.841c-57.6 0-103.68-46.08-103.68-103.68l0-172.8C60.16 538.881 75.52 522.241 94.72 522.241zM929.278 245.762c-19.2 0-40.96-23.04-40.96-42.24l0-165.12c0-19.2-10.24-30.72-30.72-30.72L647.678 7.682c-19.2 0-32-20.48-32-40.96s15.36-34.56 34.56-34.56l207.359 0c57.6 0 103.68 46.08 103.68 103.68l0 175.36C963.838 229.122 948.478 245.762 929.278 245.762zM971.518 414.721 52.48 414.721c-20.48 0-37.12-16.64-37.12-37.12 0-20.48 16.64-37.12 37.12-37.12l919.038 0c20.48 0 37.12 16.64 37.12 37.12C1008.637 398.081 991.997 414.721 971.518 414.721z"  horiz-adv-x="1024" />

    
    <glyph glyph-name="toutiao1" unicode="&#58894;" d="M1461.146 626.71c0.078 24.464-8.727 45.443-26.195 62.891-17.17 17.143-38.335 26.011-63.496 26.682l-985.802-0.524c-25.087 0-52.631-6.205-82.521-18.556-29.819-12.337-53.591-27.263-71.116-44.779l-206.195-205.907c-17.173-17.213-25.75-38.271-25.835-63.326 0.083-25.060 8.663-46.202 25.835-63.344l206.195-205.9c17.526-17.51 41.212-32.447 71.116-44.79 29.89-12.337 57.21-18.329 82.069-18.031l986.773-0.521c24.425 0 45.435 8.732 62.913 26.259 17.17 17.129 26.104 38.272 26.792 63.315l-0.533 486.532M262.147 320.172c-17.539-17.51-38.625-26.299-63.427-26.299-24.789 0-45.961 8.718-63.5 26.243-17.467 17.44-26.272 38.569-26.272 63.329 0 24.758 8.734 45.819 26.272 63.342 17.467 17.44 38.639 26.23 63.429 26.23 24.872-0.071 45.958-8.789 63.426-26.23 17.537-17.524 26.272-38.651 26.272-63.342 0.001-24.833-8.731-45.89-26.2-63.272v0M343.098 383.441v0zM724.471 250.036l-82.727-84.091-196.137 0.226v49.545h142.5l63.864 65.91-206.364-0v50.683h247.728v252.045h77.499l0-252.045h100l-23.864-50.683-55.227-0.228 76.818-115.455h-88.182l-55.909 84.092zM564.699 578.445l75-91.364h-88.637l-75.228 91.364h88.864zM565.38 457.308l75.228-91.364h-87.954l-75.454 91.364 88.18-0zM1183.107 431.854l155-70.682h-144.999l-76.137 32.273-70.454-32.273h-135l137.273 67.5-110.455 60h114.318l59.772-28.41 107.501 62.954-197.955-0-17.727-18.409h-94.318l75.909 83.409h87.273l-14.318-15.682h255.682l-0.228-64.091-131.137-76.591zM965.834 264.581h73.182l-55.455-101.137h-72.727l55 101.137zM1155.38 328.444h181.591l-23.636-49.545-157.955 0v-73.182l-70.682-48.182h-39.773l0.228 49.773h32.728l0.228 71.591h-164.773v49.545h164.772v28.863h77.273v-28.862zM1262.88 266.171l67.728-100.454h-77.499l-67.5 100.454h77.272z"  horiz-adv-x="1462" />

    
    <glyph glyph-name="jihuo" unicode="&#58906;" d="M836.593246 453.791737C837.151766 461.494659 837.803373 469.220854 837.803373 477.086678c0 7.865824-0.651607 15.545475-1.186855 23.271669L930.89005 500.358347l0-46.566611L836.593246 453.791737 836.593246 453.791737zM725.145221 723.114768l66.580246 66.580246 32.929412-32.906141-66.62679-66.62679C747.85837 701.96082 736.897414 712.945048 725.145221 723.114768L725.145221 723.114768zM651.630017 236.131812l0-247.773465c0-64.253079-52.081996-116.358347-116.358347-116.358347l-46.543339 0c-64.276351 0-116.358347 52.12854-116.358347 116.358347L372.369983 235.945639c-83.35912 48.218899-139.630017 138.001-139.630017 241.234126C232.739966 631.354575 357.732103 756.346712 511.86037 756.346712c154.17481 0 279.143675-124.992137 279.143675-279.143675C791.004045 374.062997 734.849507 284.420526 651.630017 236.131812L651.630017 236.131812zM512-81.433389c51.407118 0 93.10995 41.656288 93.10995 93.063406l-186.196627 0C418.89005-39.777101 460.592882-81.433389 512-81.433389L512-81.433389zM605.10995 58.196627l0 46.543339-186.196627 0 0-46.543339L605.10995 58.196627 605.10995 58.196627zM511.953457 700.355075c-123.293305 0-223.245125-99.95182-223.245125-223.245125 0-90.038089 53.431753-167.439662 130.181719-202.766056l0-11.030771 0-112.07636 186.196627 0 0 112.07636L605.086678 274.390437c76.726694 35.303123 130.065361 112.727967 130.065361 202.719513C735.17531 600.403254 635.246762 700.355075 511.953457 700.355075L511.953457 700.355075zM488.728331 801.679924 488.728331 895.976728l46.543339 0 0-94.296805c-7.726194 0.535248-15.405845 1.186855-23.271669 1.186855C504.134176 802.866779 496.454525 802.238444 488.728331 801.679924L488.728331 801.679924zM199.345121 756.812145 232.274533 789.718286l66.62679-66.62679c-11.752193-10.16972-22.759693-21.177219-32.929412-32.906141L199.345121 756.812145 199.345121 756.812145zM93.10995 453.791737 93.10995 500.358347l94.296805 0C186.848234 492.632153 186.196627 484.952502 186.196627 477.086678c0-7.865824 0.651607-15.592019 1.186855-23.294941L93.10995 453.791737 93.10995 453.791737z"  horiz-adv-x="1024" />

    
    <glyph glyph-name="yanzhengma1" unicode="&#58927;" d="M958.377608 737.181644c-2.482492 0.204742-253.756723 26.191568-428.416652 153.018743a30.112369 30.112369 0 0 1-17.909771 5.799306 30.291518 30.291518 0 0 1-17.90977-5.799306C320.41306 764.100044 68.207254 737.386385 65.724762 737.181644c-15.734391-1.448547-27.537743-14.598075-27.537743-30.332466 0-6.935621 0.619343-171.655347 56.733894-356.562593 33.234678-109.536749 79.096794-203.339107 136.55752-278.709604 72.780516-95.558017 164.100382-161.510401 271.251892-195.881395 3.004583-0.931574 6.106418-1.448547 9.315742-1.448547s6.316278 0.516973 9.213371 1.448547c107.258999 34.370994 198.471376 100.221007 271.251892 195.881395 57.358356 75.268126 103.322842 168.962995 136.55752 278.709604 56.01218 184.907246 56.733894 349.626971 56.733894 356.562593 0.112608 15.734391-11.685626 28.77643-27.425136 30.332466z m-34.166252-57.148496l-0.102371-1.658407c-3.004583-60.153078-13.871243-180.561606-53.217457-310.490617-69.054219-227.872268-189.565117-372.819075-358.220999-430.796773l-0.619344-0.204742-0.619343 0.204742c-168.133791 57.875328-288.542319 202.300044-357.806398 429.348227-41.204244 135.108973-51.144448 263.179955-53.632059 312.046653l-0.10237 1.658406 1.550917 0.204742c73.092747 10.661918 259.346169 46.384207 409.467819 147.429298l0.931574 0.726833 1.033945-0.726833c150.326392-101.045092 336.584932-136.76738 409.677679-147.531669l1.658407-0.20986zM641.765218 544.806448L467.013155 315.572649 378.037579 391.649504a29.559567 29.559567 0 0 1-19.092153 6.997044c-8.599147 0-16.793929-3.700704-22.393611-10.298502-10.498125-12.294732-9.095645-30.992758 3.301458-41.485764l112.669296-96.371865c5.200436-4.396826 12.397103-6.997044 19.59377-6.997044 0.900863 0 1.801726 0 2.69747 0.102371a29.426485 29.426485 0 0 1 20.29501 11.398988l193.644593 253.925635a28.919749 28.919749 0 0 1 5.696935 21.794742c-0.998115 7.795536-5.098066 14.695327-11.296617 19.496517-13.098343 9.991389-31.591627 7.493542-41.388512-5.405178z"  horiz-adv-x="1024" />

    
    <glyph glyph-name="scan1" unicode="&#59098;" d="M53.191111 578.218667h29.184c9.784889 0 17.692444 7.964444 17.692445 17.635555V831.715556h236.657777c9.784889 0 17.749333 7.964444 17.749334 17.692444V878.364444A17.635556 17.635556 0 0 1 336.782222 896H53.191111a17.635556 17.635556 0 0 1-17.692444-17.635556v-282.510222c0-9.671111 7.850667-17.635556 17.635555-17.635555zM336.782222-63.658667H100.124444v235.804445a17.749333 17.749333 0 0 1-17.749333 17.635555H53.191111a17.692444 17.692444 0 0 1-17.692444-17.635555v-282.510222c0-9.728 7.850667-17.635556 17.635555-17.635556H336.782222a17.635556 17.635556 0 0 1 17.692445 17.635556v29.013333a17.635556 17.635556 0 0 1-17.692445 17.635555z m425.415111 895.317334h236.657778v-235.804445c0-9.671111 7.964444-17.635556 17.749333-17.635555h29.184a17.635556 17.635556 0 0 1 17.692445 17.635555V878.364444a17.635556 17.635556 0 0 1-17.692445 17.635556h-283.591111a17.635556 17.635556 0 0 1-17.692444-17.635556v-29.013333a17.635556 17.635556 0 0 1 17.635555-17.692444z m283.591111-641.820445h-29.184a17.749333 17.749333 0 0 1-17.692444-17.692444v-235.804445h-236.714667a17.635556 17.635556 0 0 1-17.692444-17.635555v-29.013334a17.635556 17.635556 0 0 1 17.692444-17.692444h283.591111a17.635556 17.635556 0 0 1 17.692445 17.635556v282.510222a17.749333 17.749333 0 0 1-17.692445 17.635555z m35.441778 225.28H17.692444a17.635556 17.635556 0 0 1-17.692444-17.635555v-26.908445c0-9.784889 7.964444-17.749333 17.692444-17.749333h1063.594667c9.728 0 17.635556 7.964444 17.635556 17.749333v26.908445a17.635556 17.635556 0 0 1-17.635556 17.635555z"  horiz-adv-x="1137" />

    
    <glyph glyph-name="bofang" unicode="&#58893;" d="M512 843.519c-249.221 0-451.256-202.035-451.256-451.256S262.778-58.992 512-58.992s451.256 202.034 451.256 451.255S761.22 843.52 512 843.52zM703.247 366.59L417.663 201.71c-19.763-11.41-44.466 2.852-44.466 25.672V557.144c0 22.82 24.703 37.083 44.466 25.673l285.584-164.881c19.763-11.41 19.763-39.936 0-51.346z"  horiz-adv-x="1024" />

    
    <glyph glyph-name="xuanzhong" unicode="&#58947;" d="M512 832C262.4 832 64 633.6 64 384s198.4-448 448-448 448 198.4 448 448S761.6 832 512 832z m0-832c-217.6 0-384 166.4-384 384s166.4 384 384 384 384-166.4 384-384-166.4-384-384-384z m192 556.8L435.2 281.6 320 396.8c-12.8 12.8-32 12.8-44.8 0s-12.8-32 0-44.8l134.4-140.8c12.8-12.8 32-12.8 44.8 0l294.4 294.4c12.8 12.8 12.8 38.4 0 51.2s-32 12.8-44.8 0z"  horiz-adv-x="1024" />

    
    <glyph glyph-name="zhangdan" unicode="&#59079;" d="M309.197084 200.071967c-18.302855 0-33.169447-14.931061-33.169447-33.351595 0-18.396999 14.865569-33.332153 33.169447-33.332153h121.861442a294.676369 294.676369 0 0 0-3.3984 44.705178c0 7.396457 0.278339 14.72026 0.817622 21.97857H309.197084z m220.874503 200.11776H309.197084c-18.302855 0-33.169447-14.935154-33.169447-33.352619 0-18.419512 14.865569-33.351596 33.169447-33.351595h163.153894a292.13243 292.13243 0 0 0 57.720609 66.704214z m201.348798 320.583413h33.172517c36.5965 0 66.39006-29.91738 66.39006-66.716494v-208.105689c23.947412-10.276041 46.229904-23.701818 66.34708-39.756469V654.062785c0 73.67907-59.436694 133.408429-132.73714 133.40843h-33.172517c-18.352997 0-33.199123-14.94027-33.199123-33.345456 0-18.405185 14.84715-33.352619 33.199123-33.352619z m-329.22421 0h165.904541c27.52796 0 49.7818 22.404266 49.7818 50.030463 0 27.614941-22.301935 50.019207-49.7818 50.019207H402.196175c-27.502377 0-49.812499-22.404266-49.812499-50.019207 0-27.620058 22.309098-50.030463 49.812499-50.030463z m64.019059-687.887916H209.655997c-36.623106 0-66.372663 29.918403-66.372663 66.709331v554.46823c0 36.791951 29.750581 66.709331 66.372663 66.709332h33.1981c18.302855 0 33.17354 14.947434 33.17354 33.352618 0 18.405185-14.870686 33.351596-33.17354 33.351596h-33.1981c-73.323982 0-132.762723-59.734476-132.762723-133.413546v-554.461067c0-73.687256 59.438741-133.414569 132.762723-133.414569H518.728238a292.090475 292.090475 0 0 0-52.513004 66.698075zM309.197084 533.071154h355.826078c18.328437 0 33.199123 14.932084 33.199123 33.345456 0 18.404162-14.870686 33.350572-33.199123 33.350572H309.197084c-18.302855 0-33.169447-14.945387-33.169447-33.350572 0-18.413372 14.865569-33.345456 33.169447-33.345456z m408.138514-124.056434c-126.898155 0-229.770104-103.387695-229.770103-230.921323 0-127.531582 102.871949-230.916207 229.770103-230.916207s229.771127 103.385649 229.771128 230.916207c0 127.533628-102.872972 230.921323-229.771128 230.921323zM867.909989 192.647881c0-6.53688-5.554506-11.976776-12.222369-11.976776v-0.007163h-118.90818v-50.110281h118.909203c6.667863 0 12.222369-5.443989 12.222369-11.978823v-21.787212c0-6.53074-5.554506-11.983939-12.222369-11.983939H735.671199v-45.74588c0-6.541997-5.555529-11.983939-12.221346-11.983939h-22.229281c-6.664793 0-12.219299 5.441942-12.219299 11.983939v45.74588H578.9846c-6.665817 0-12.219299 5.454222-12.219299 11.983939v21.787212c0 6.535857 5.553483 11.978822 12.219299 11.978823h110.017696v50.110281H578.9846c-6.665817 0-12.219299 5.448082-12.219299 11.983939v21.786189c0 6.53381 5.553483 11.983939 12.219299 11.983939h74.454736l-41.224913 66.673515c-4.151553 7.281847-4.340865 21.414729 7.927553 28.471448 15.653515 9.124821 30.067806-2.108011 30.067806-2.10801l61.015655-93.036953h3.334955l58.056254 93.036953c5.938246 9.980305 21.174252 13.601786 34.357506 4.211928 16.063861-12.079106 6.446829-27.366278 6.446829-27.366278L771.234159 226.416985h84.454484c6.667863 0 12.222369-5.448082 12.222369-11.983939V192.647881h-0.001023z"  horiz-adv-x="1024" />

    
    <glyph glyph-name="zhuyi" unicode="&#58899;" d="M869.473-24.128H154.906c-31.943 0-60.546 16.517-76.515 44.181-15.968 27.666-15.961 60.696 0.017 88.355L435.69 726.88c15.972 27.648 44.568 44.153 76.496 44.153 31.93 0 60.528-16.505 76.5-44.152L945.97 108.408c15.978-27.66 15.984-60.689 0.017-88.355-15.968-27.664-44.57-44.181-76.514-44.181zM512.187 726.86c-15.962 0-30.26-8.252-38.247-22.076L116.658 86.313c-7.99-13.83-7.993-30.345-0.008-44.18 7.984-13.831 22.285-22.09 38.257-22.09h714.567c15.971 0 30.273 8.259 38.256 22.09 7.985 13.833 7.98 30.35-0.008 44.18L550.437 704.786c-7.984 13.823-22.284 22.076-38.25 22.075z m1.545-451.98c-18.296 0-33.257 14.833-33.257 33.13v256.2c0 18.296 14.96 33.129 33.257 33.129 18.297 0 33.258-14.833 33.258-33.13v-256.2c0-18.296-14.96-33.13-33.258-33.13z m-50.037-116.5a48.853 48.853 0 1 1 99.983 0 48.853 48.853 0 1 1-99.983 0z"  horiz-adv-x="1024" />

    
    <glyph glyph-name="shenfenzheng" unicode="&#58928;" d="M1295.494365-128H173.94134A174.245656 174.245656 0 0 0 0.002454 45.938886v674.895146A174.245656 174.245656 0 0 0 173.94134 896h1121.553025a174.245656 174.245656 0 0 0 173.938886-173.938886v-674.895146a174.245656 174.245656 0 0 0-173.938886-175.165968zM173.94134 819.30737A97.246255 97.246255 0 0 1 76.695084 722.061114v-674.895146a97.246255 97.246255 0 0 1 97.246256-97.246256h1121.553025a97.246255 97.246255 0 0 1 97.246256 97.246256v674.895146a97.246255 97.246255 0 0 1-97.246256 97.246256zM465.373335 571.130018m-125.775914 0a125.775914 125.775914 0 1 1 251.551828 0 125.775914 125.775914 0 1 1-251.551828 0ZM719.686097 107.59976a38.959856 38.959856 0 0 1 35.585381 53.991612 312.905932 312.905932 0 0 1-579.796286 0 38.959856 38.959856 0 0 1 35.585381-53.991612zM1265.430854 546.588376H893.624983a38.346315 38.346315 0 0 0 0 76.692631h371.805871a38.346315 38.346315 0 0 0 0-76.692631zM1265.430854 352.709407H893.624983a38.346315 38.346315 0 1 0 0 76.69263h371.805871a38.346315 38.346315 0 1 0 0-76.69263zM1265.430854 159.750749H893.624983a38.346315 38.346315 0 0 0 0 76.69263h371.805871a38.346315 38.346315 0 0 0 0-76.69263z"  horiz-adv-x="1469" />

    
    <glyph glyph-name="fanhui" unicode="&#58943;" d="M795.264 797.525333L706.005333 886.698667 289.066667 469.802667l-0.213334 0.170666-88.32-88.277333 0.213334-0.170667-0.213334-0.213333 89.258667-89.173333 0.170667 0.128 411.050666-410.965334 88.32 88.32-411.050666 410.965334 416.981333 416.938666z"  horiz-adv-x="1024" />

    
    <glyph glyph-name="jiejiqia" unicode="&#58997;" d="M942.343314 702.844343H86.659657c-21.445486 0-38.853486-17.2032-38.853486-38.912v-591.842743c0-21.591771 17.437257-38.853486 38.941258-38.853486v0.117029h855.537371v-0.117029c21.504 0 38.941257 17.261714 38.941257 38.853486V663.932343a38.765714 38.765714 0 0 1-38.882743 38.912z m-19.485257-58.280229v-97.250743H106.144914V644.564114h816.713143z m0-552.901485H106.144914V489.003886h816.713143v-397.341257zM386.018743 352.8704H183.149714a29.140114 29.140114 0 1 1 0-58.280229h202.898286a29.169371 29.169371 0 0 1-0.029257 58.280229z"  horiz-adv-x="1024" />

    
    <glyph glyph-name="yanzhengma3" unicode="&#59015;" d="M956.461791 735.131149c-2.503007 0.245593-252.410754 25.697265-426.470021 151.22419-11.270694 8.129144-26.53126 8.129144-37.818328 0C318.082452 760.828414 68.206428 735.36037 65.719794 735.131149c-16.488533-1.587148-29.083385-15.343453-29.083385-31.79924 0-6.854105 0.63752-170.214706 56.66251-353.59834 33.205263-108.727307 79.137385-201.75198 136.502907-276.489149 72.856331-94.938256 164.195619-160.368454 271.467785-194.489576a32.43676 32.43676 0 0 1 9.81453-1.521656c3.320629 0 6.624884 0.506537 9.798157 1.521656 107.272165 34.104749 198.611453 99.534947 271.467785 194.473203C849.713558 147.982612 895.629307 240.990912 928.850943 349.718219c56.023968 183.382611 56.67786 346.744235 56.67786 353.614713 0 16.438391-12.57848 30.195719-29.067012 31.798217zM719.459982 502.283963L519.490601 241.890398c-5.365194-6.985088-13.380752-11.466146-22.180161-12.399401a34.157961 34.157961 0 0 0-3.418866-0.180102c-7.622608 0-15.065114 2.699482-20.905123 7.671727l-116.349915 98.782817c-13.510712 11.466146-15.081487 31.619138-3.549849 45.031613 11.54801 13.413498 31.848359 14.983249 45.359071 3.517103l90.48892-76.81448 179.342598 233.534848c10.763135 14.034645 30.964222 16.734126 45.097104 6.03546 14.132882-10.697643 16.848737-30.751375 6.085602-44.78602z"  horiz-adv-x="1024" />

    
    <glyph glyph-name="time" unicode="&#58937;" d="M846.278 718.953C761.08 804.017 647.94 850.883 527.538 850.883c-120.402 0-233.587-46.866-318.695-131.975C123.648 633.8 76.781 520.66 76.781 400.26c-0.044-120.4 46.823-233.543 131.976-318.696 85.106-85.021 198.292-131.932 318.695-131.932 120.444 0 233.631 46.956 318.826 131.976 175.673 175.718 175.673 461.539 0 637.345z m-41.543-595.757c-74.107-74.108-172.593-114.9-277.286-114.9-104.691 0-203.133 40.791-277.15 114.767-74.02 74.02-114.77 172.505-114.77 277.197 0 104.69 40.75 203.134 114.813 277.109 74.018 74.017 172.461 114.81 277.196 114.81 104.693 0 203.135-40.793 277.197-114.81 152.79-152.793 152.79-401.43 0-554.173z m-82.468 166.65l-155.783 90.081V625.571c0 20.683-16.854 37.539-37.582 37.539s-37.54-16.855-37.54-37.54v-262.85c0-13.95 17.34-25.653 28.562-32.08 3.124-4.71 11.705-8.933 16.943-11.925l154.944-93.91c17.913-10.342 37.41-4.18 47.748 13.773 10.389 17.956 0.75 40.928-17.292 51.269z"  horiz-adv-x="1024" />

    
    <glyph glyph-name="suo" unicode="&#59091;" d="M857.6 499.2h-76.8V640C780.8 787.2 659.2 889.6 512 889.6 364.8 889.6 243.2 787.2 243.2 640v-134.4h-76.8c-38.4 0-64-32-64-64v-486.4c0-38.4 32-64 64-64h691.2c38.4 0 64 32 64 64v480c0 38.4-25.6 64-64 64z m-307.2-320v-108.8c0-6.4-6.4-6.4-6.4-6.4h-57.6c-6.4 0-6.4 6.4-6.4 6.4V179.2c-32 12.8-51.2 38.4-51.2 70.4 0 44.8 38.4 83.2 83.2 83.2 44.8 0 83.2-38.4 83.2-83.2 0-32-19.2-57.6-44.8-70.4z m128 320H345.6V646.4c0 76.8 76.8 140.8 166.4 140.8 89.6 0 166.4-64 166.4-140.8v-147.2z m0 0"  horiz-adv-x="1024" />

    
    <glyph glyph-name="zhinanzhen1" unicode="&#58880;" d="M511.999-66.255c-60.773 0-119.74 11.908-175.263 35.393-53.618 22.679-101.768 55.142-143.112 96.485-41.345 41.345-73.807 89.495-96.487 143.113-23.485 55.523-35.392 114.49-35.392 175.263 0 60.773 11.908 119.74 35.392 175.263 22.68 53.618 55.142 101.768 96.487 143.112s89.494 73.807 143.112 96.487c55.523 23.485 114.49 35.392 175.263 35.392 60.774 0 119.741-11.908 175.263-35.392 53.617-22.68 101.768-55.142 143.113-96.487 41.344-41.345 73.807-89.494 96.485-143.112 23.485-55.523 35.393-114.49 35.393-175.263 0-60.774-11.908-119.741-35.393-175.263-22.679-53.617-55.142-101.768-96.485-143.113-41.345-41.344-89.495-73.807-143.113-96.485-55.522-23.485-114.489-35.393-175.263-35.393zM511.999 793.322c-55.266 0-108.868-10.819-159.318-32.159-48.739-20.616-92.516-50.133-130.114-87.731s-67.116-81.375-87.731-130.114c-21.34-50.45-32.159-104.052-32.159-159.318s10.819-108.868 32.159-159.316c20.616-48.74 50.133-92.516 87.731-130.114 37.598-37.599 81.375-67.117 130.114-87.731 50.45-21.34 104.052-32.159 159.318-32.159s108.868 10.819 159.316 32.159c48.74 20.616 92.516 50.132 130.114 87.731 37.599 37.598 67.117 81.374 87.731 130.114 21.34 50.45 32.159 104.052 32.159 159.316s-10.819 108.868-32.159 159.318c-20.616 48.739-50.132 92.516-87.731 130.114-37.598 37.598-81.374 67.116-130.114 87.731-50.449 21.34-104.051 32.159-159.316 32.159zM754.585 626.576c-3.411 3.41-8.737 3.976-12.787 1.361l-286.006-184.684c-1.219-0.788-2.257-1.826-3.045-3.045l-184.694-285.986c-2.617-4.050-2.050-9.378 1.36-12.787 1.976-1.976 4.597-2.997 7.24-2.997 1.917 0 3.845 0.536 5.547 1.637l285.996 184.685c1.219 0.788 2.257 1.825 3.045 3.044l184.705 285.986c2.617 4.049 2.050 9.377-1.36 12.786zM511.999 341.149c-23.628 0-42.851 19.223-42.851 42.851s19.223 42.851 42.851 42.851 42.851-19.223 42.851-42.851-19.223-42.851-42.851-42.851z"  horiz-adv-x="1024" />

    
    <glyph glyph-name="baozhangzhong" unicode="&#59023;" d="M758.074027-44.373333c-237.909333-136.874667-542.037333-55.2448-679.594667 180.974933-137.557333 236.7488-55.534933 539.374933 181.8624 676.2496 237.909333 136.874667 542.0544 55.261867 679.611733-180.974933 137.557333-237.226667 56.046933-539.869867-181.879466-676.2496m192.580266 681.813333C810.042027 879.786667 498.26816 962.901333 254.743893 823.005867 11.219627 683.076267-72.321707 372.8384 68.273493 130.525867c140.5952-242.312533 451.874133-325.461333 695.9104-185.531734C1007.70816 84.906667 1091.249493 395.144533 950.654293 637.44M728.019627 6.826667c-208.861867-119.637333-476.330667-48.657067-597.572267 159.1808C10.212693 374.357333 81.534293 640.494933 290.413227 761.1392 499.787093 880.776533 767.255893 809.813333 887.985493 601.975467c120.746667-208.349867 49.425067-474.487467-159.965866-595.1488m165.5808 597.674666C770.822827 815.906133 499.787093 887.876267 287.853227 766.208 75.40736 644.0448 2.566827 374.357333 125.344427 163.498667c122.7776-210.8928 393.813333-283.374933 605.7472-161.723734 212.4288 122.180267 284.7744 391.850667 162.5088 602.743467M393.82016 28.125867c3.584 2.525867 2.56 5.5808 2.048 8.618666l-1.536 22.306134 17.322667 14.6944c2.56 2.542933 5.085867 4.061867 4.078933 7.611733-1.024 3.037867-5.614933 3.549867-7.645867 4.0448-6.621867 2.048-13.755733 3.549867-20.8896 5.5808l-7.645866 21.2992c-1.024 3.549867-2.542933 6.075733-5.597867 6.587733-2.56 0.512-4.590933-3.549867-5.597867-5.0688l-11.7248-18.773333-23.944533-1.006933c-2.56 0-6.621867-1.024-6.621867-4.5568 0.512-2.525867 2.048-5.5808 4.590934-7.594667 4.573867-5.5808 9.1648-11.1616 13.755733-16.2304l-7.133867-24.849067c-0.512-2.525867 1.536-5.0688 4.078934-6.075733 2.030933 0.512 4.573867 1.024 6.109866 1.536l14.267734 4.539733c2.030933 1.024 4.573867 1.536 6.109866 2.048 5.597867-4.061867 11.2128-7.611733 16.810667-11.6736 2.048-2.030933 4.590933-3.549867 7.645867-4.5568 0 1.518933 0.512 1.518933 1.536 1.518934zM860.50816 296.277333c3.549867 2.525867 2.542933 5.563733 2.030933 8.618667l-1.536 22.306133 17.339734 14.6944c2.542933 2.542933 5.085867 4.061867 4.061866 7.611734-1.024 3.037867-5.597867 3.549867-7.645866 4.0448-6.6048 1.536-13.755733 3.549867-20.8896 5.5808l-7.6288 21.794133c-1.024 3.549867-2.56 6.0928-5.614934 6.587733-2.542933 0.512-4.573867-3.549867-5.597866-5.0688l-11.7248-18.756266-23.927467-1.024c-2.56 0-6.638933-1.006933-6.638933-4.539734 0.512-2.542933 2.048-5.5808 4.590933-7.611733 4.590933-5.5808 9.1648-11.144533 13.755733-16.213333l-7.133866-24.849067c-0.512-2.525867 1.536-5.0688 4.078933-6.075733 2.048 0.512 4.590933 1.006933 6.109867 1.518933l14.267733 4.5568c2.048 1.024 4.590933 1.536 6.109867 2.030933 5.614933-4.0448 11.2128-7.611733 16.810666-11.656533 2.048-2.048 4.590933-3.549867 7.645867-4.573867 0.512 1.024 0.512 1.024 1.536 1.024z m-45.346133-135.850666c3.566933 2.525867 2.542933 5.563733 2.048 8.6016l-1.536 22.306133 17.322666 14.711467c2.542933 2.525867 5.085867 4.0448 4.061867 7.594666-1.024 3.037867-5.597867 3.549867-7.6288 4.061867-6.621867 2.030933-13.755733 3.549867-20.8896 5.5808l-7.645867 21.282133c-1.024 3.549867-2.56 6.075733-5.597866 6.587734-2.56 0.512-4.608-3.549867-5.614934-5.0688l-11.707733-18.756267-23.944533-1.006933c-2.56 0-6.621867-1.024-6.621867-4.573867 0.512-2.525867 2.030933-5.563733 4.573867-7.594667 4.590933-5.5808 9.181867-11.1616 13.755733-16.213333l-7.1168-24.849067c-0.512-2.525867 1.518933-5.0688 4.061867-6.075733 2.048 0 4.590933 1.024 6.126933 1.518933l14.250667 4.5568c2.048 1.024 4.590933 1.518933 6.126933 2.030934 5.597867-4.061867 11.195733-7.611733 16.7936-11.656534 2.048-2.048 4.608-3.549867 7.645867-4.573866 0 1.024 0.512 1.536 1.536 1.536z m-275.114667-158.173867c3.584 2.542933 2.56 5.5808 2.048 8.618667l-1.536 22.306133 17.322667 14.6944c2.56 2.542933 5.102933 4.061867 4.078933 7.611733-1.024 3.549867-5.597867 3.549867-7.645867 4.0448-6.621867 1.536-13.755733 3.549867-20.8896 5.5808l-7.6288 21.8112c-1.024 3.5328-2.56 6.075733-5.614933 6.587734-2.56 0.512-4.573867-3.549867-5.597867-5.0688l-11.7248-18.773334-23.944533-1.006933c-2.542933 0-6.621867-1.024-6.621867-4.5568 0.512-2.525867 2.048-5.5808 4.590934-7.594667 4.590933-5.5808 9.1648-11.1616 13.755733-16.2304l-7.133867-24.849066c-0.512-2.525867 1.536-5.0688 4.078934-6.075734 2.048 0.512 4.573867 1.024 6.109866 1.536l14.267734 4.539734c2.048 1.024 4.573867 1.536 6.109866 2.048 5.597867-4.061867 11.2128-7.611733 16.810667-11.6736 2.048-2.030933 4.590933-3.549867 7.645867-4.5568 0.512 1.006933 1.024 1.006933 1.536 1.006933z m157.934933 49.664c3.566933 2.56 2.56 5.597867 2.048 8.635733l-1.536 22.306134 17.322667 14.6944c2.56 2.542933 5.085867 4.061867 4.078933 7.611733-1.024 3.037867-5.614933 3.549867-7.645866 4.0448-6.621867 2.048-13.755733 3.549867-20.8896 5.5808l-7.645867 21.2992c-1.024 3.549867-2.542933 6.075733-5.597867 6.587733-2.56 0.512-4.590933-3.549867-5.597866-5.0688l-11.7248-18.773333-23.944534-1.006933c-2.56 0-6.621867-1.024-6.621866-4.5568 0.512-2.542933 2.048-5.5808 4.590933-7.611734 4.573867-5.563733 9.1648-11.144533 13.755733-16.213333l-7.133866-24.832c-0.512-2.542933 1.536-5.085867 4.061866-6.0928 2.048 0 4.608 1.024 6.126934 1.536l14.250666 4.5568c2.048 1.006933 4.608 1.518933 6.126934 2.030933 5.597867-4.061867 11.195733-7.611733 16.810666-11.6736 2.048-2.030933 4.573867-3.5328 7.645867-4.5568 0.512 1.518933 1.024 1.518933 1.536 1.518934zM142.17216 462.062933c3.566933 2.048 6.109867-1.006933 8.6528-2.525866 6.126933-4.5568 12.2368-8.106667 18.858667-12.663467l21.4016 7.594667c3.566933 1.024 6.109867 2.542933 8.6528-0.512 2.56-2.525867 0.512-6.075733-0.512-8.618667-2.048-6.587733-4.078933-13.687467-5.597867-20.770133 4.590933-6.0928 10.1888-11.6736 15.274667-17.237334 2.56-2.542933 4.590933-5.5808 2.56-8.123733-1.024-2.525867-5.614933-2.525867-7.645867-2.525867l-22.4256-1.024c-4.573867-6.587733-8.6528-13.6704-12.731733-19.7632-1.536-2.525867-4.078933-5.0688-7.133867-4.0448-2.542933 2.013867-3.566933 4.5568-4.573867 7.594667l-7.133866 20.2752-24.968534 6.0928c-2.56 1.006933-3.566933 4.0448-3.072 6.075733 1.024 1.536 2.56 3.037867 4.608 4.5568 3.566933 3.054933 7.6288 6.6048 11.707734 10.1376a14.421333 14.421333 0 0 1 5.102933 4.573867l-1.536 20.2752a16.554667 16.554667 0 0 0-0.512 8.618667c0 1.024 0 1.518933 1.024 2.030933zM608.80896 730.248533c3.584 2.013867 6.109867-1.024 8.669867-2.542933l18.8416-12.680533 21.4016 7.611733c3.566933 1.024 6.109867 2.525867 8.6528-0.512 2.56-2.525867 0.512-6.075733-0.512-8.618667-2.030933-6.587733-3.549867-13.687467-5.597867-20.7872 4.590933-6.075733 10.1888-11.656533 15.291733-17.237333 2.542933-2.525867 4.573867-5.563733 2.542934-8.106667-1.024-2.525867-5.597867-2.525867-7.645867-2.525866-7.645867-0.512-15.274667-1.024-22.408533-1.024-4.590933-6.587733-8.157867-13.175467-12.7488-19.7632-1.518933-2.542933-4.061867-5.0688-7.1168-4.061867a11.9808 11.9808 0 0 0-4.590934 7.611733l-7.133866 20.2752c-8.1408 2.030933-16.810667 4.5568-24.968534 6.075734-2.542933 1.024-3.549867 4.061867-3.054933 6.0928 1.024 1.518933 2.56 3.037867 4.608 4.5568 4.061867 3.037867 7.6288 6.587733 11.690667 10.1376 2.048 1.024 3.584 2.542933 5.102933 4.573866l-1.536 20.2752a16.520533 16.520533 0 0 0-0.512 8.618667c0 1.024 1.024 1.518933 1.024 2.030933z m-141.1072 29.3888c3.566933 2.048 6.109867-1.024 8.6528-2.525866 6.109867-4.573867 12.219733-8.106667 18.8416-12.680534l21.418667 7.611734c3.549867 1.024 6.0928 2.525867 8.6528-0.512 2.542933-2.525867 0.512-6.075733-0.512-8.618667-2.048-6.587733-3.584-13.687467-5.597867-20.7872 4.573867-6.075733 10.1888-11.656533 15.274667-17.237333 2.56-2.525867 4.590933-5.563733 2.56-8.106667-1.024-2.525867-5.632-2.525867-7.645867-2.525867l-22.4256-1.024c-4.590933-6.587733-8.6528-13.687467-12.731733-19.7632-1.536-2.542933-4.078933-5.0688-7.133867-4.061866-2.56 2.030933-3.584 4.5568-4.590933 7.611733l-7.133867 20.2752-24.456533 6.075733c-2.542933 1.024-3.549867 4.061867-3.054934 6.0928 1.024 1.518933 2.56 3.037867 4.590934 4.5568 4.078933 3.037867 7.645867 6.587733 11.7248 10.1376a14.421333 14.421333 0 0 1 5.085866 4.5568l-1.536 20.292267a16.554667 16.554667 0 0 0-0.512 8.6016c-0.512 0.512-0.512 1.024 0.512 2.048z m-275.114667-158.1568c3.584 2.030933 6.109867-1.024 8.669867-2.542933 6.109867-4.5568 12.219733-8.106667 18.8416-12.663467l21.4016 7.594667c3.566933 1.024 6.109867 2.542933 8.6528-0.512 2.56-2.525867 0.512-6.075733-0.512-8.6016-2.030933-6.587733-3.566933-13.687467-5.597867-20.7872 4.590933-6.0928 10.1888-11.656533 14.779734-17.237333 2.542933-2.525867 4.573867-5.5808 2.542933-8.106667-1.024-2.542933-5.597867-2.542933-7.645867-2.542933l-22.408533-1.024c-4.590933-6.570667-8.669867-13.6704-12.731733-19.7632-1.536-2.525867-4.096-5.0688-7.133867-4.0448-2.56 2.030933-3.584 4.5568-4.590933 7.594666l-7.133867 20.2752c-8.157867 2.048-16.810667 4.573867-24.968533 6.0928-1.536 1.024-2.542933 4.061867-2.542934 6.075734 1.024 1.536 2.56 3.054933 4.590934 4.573866 3.566933 3.037867 7.645867 6.587733 11.707733 10.1376a14.421333 14.421333 0 0 1 5.102933 4.5568l-1.536 20.2752a16.554667 16.554667 0 0 0-0.512 8.618667c0 1.024 0.512 1.024 1.024 2.030933z m122.2656 111.018667c3.584 2.030933 6.126933-1.024 8.669867-2.542933 6.109867-4.5568 12.219733-8.618667 18.8416-12.663467l21.4016 7.594667c3.566933 1.024 6.109867 2.542933 8.6528-0.512 2.56-2.525867 0.512-6.075733-0.512-8.6016-2.030933-6.587733-3.549867-13.687467-5.597867-20.7872 4.590933-6.0928 10.1888-11.656533 15.291734-17.237334 2.542933-2.542933 4.573867-5.5808 2.542933-8.106666-1.024-2.542933-5.597867-2.542933-7.645867-2.542934l-22.408533-1.024c-4.590933-6.570667-8.157867-13.6704-12.731733-19.7632-1.536-2.525867-4.096-5.0688-7.133867-4.0448a12.014933 12.014933 0 0 0-4.590933 7.594667l-7.133867 20.2752-24.968533 6.0928a6.587733 6.587733 0 0 0-2.542934 6.587733c1.024 1.536 2.56 3.037867 4.590934 4.5568 4.078933 3.054933 7.645867 6.587733 11.707733 10.1376a14.421333 14.421333 0 0 1 5.102933 4.573867l-1.536 20.2752a16.554667 16.554667 0 0 0-0.512 8.618667c-0.512 0.512-0.512 1.518933 0.512 1.518933z m-22.408533-590.574933a323.652267 323.652267 0 0 0-78.967467 92.2624c-20.8896 36.488533-34.645333 75.025067-40.7552 114.568533l-5.597866-3.037867c6.109867-39.048533 19.8656-77.568 40.7552-114.0736a332.8512 332.8512 0 0 1 78.967466-92.757333l5.597867 3.037867zM715.782827 639.982933a323.566933 323.566933 0 0 0 78.967466-92.2624c20.8896-36.488533 34.645333-75.025067 40.7552-114.551466l5.597867 3.037866c-6.109867 39.031467-19.8656 77.550933-40.7552 114.056534a332.8512 332.8512 0 0 1-78.967467 92.7744c0 0.512-5.597867-3.054933-5.597866-3.054934zM373.95456 345.975467l-20.8896 30.4128-55.022933-37.000534 20.8896-30.429866 55.022933 37.0176z m-89.668267-4.061867l71.850667 48.162133 31.573333-46.6432-31.573333-21.282133 12.731733-19.268267 45.329067 30.4128 5.614933-8.106666-36.181333-24.337067c20.8896-10.1376 43.810133-16.213333 68.266667-17.237333l-0.512-10.6496c-24.951467 2.048-49.92 9.642667-74.376534 23.330133l-2.56-1.536 40.277334-59.306667-8.174934-5.563733-40.2432 59.306667-2.542933-1.536c4.078933-28.8768 1.536-54.7328-6.621867-78.045867l-9.6768 4.0448c8.6528 21.794133 11.707733 44.612267 9.6768 69.461333l-34.645333-23.330133-5.597867 8.106667 44.322134 29.405866-12.731734 19.268267-31.5904-21.2992-32.597333 46.6432z m-13.755733-3.037867a250.88 250.88 0 0 0 8.157867-42.581333l71.338666-104.942933-8.669866-5.563734-61.6448 90.7264c0-11.144533-1.024-23.313067-3.072-35.9936l-8.6528 7.099734c3.566933 30.9248 1.024 60.842667-7.645867 89.736533l10.1888 1.518933zM565.510827 405.282133l-7.645867 11.656534-52.462933-35.4816 7.6288-11.656534 52.48 35.4816z m-64.699734-17.237333l52.48 35.498667-8.669866 12.663466-52.48-35.498666 8.669866-12.663467z m-21.4016 13.687467l68.778667 46.1312 30.5664-44.612267-29.5424-19.7632 8.6528-13.175467 40.7552 27.357867 5.102933-7.082667-40.7552-27.374933 13.243734-19.285333-8.157867-5.563734-13.243733 19.268267-41.2672-27.886933-5.085867 7.099733 41.2672 27.886933-8.669867 13.175467-30.549333-20.7872-31.095467 44.612267z m33.109334 49.681066a107.776 107.776 0 0 1-6.621867 21.794134l-33.109333-22.306134c5.597867-4.5568 11.7248-9.6256 17.322666-14.6944l22.408534 15.2064z m-67.242667-8.618666l34.133333 23.313066a95.556267 95.556267 0 0 1-12.219733 9.130667l7.645867 7.099733c4.573867-3.037867 8.6528-6.587733 13.243733-10.6496l36.676267 24.849067 5.085866-7.099733-14.762666-10.1376c2.542933-7.099733 5.085867-14.199467 6.109866-21.8112l23.944534 16.213333 5.085866-7.082667-89.6512-60.8256-5.102933 7.099734 25.992533 17.237333a258.781867 258.781867 0 0 1-17.322666 14.1824l-14.267734-9.6256-4.590933 8.106667z m-52.974933-27.374934l42.274133 28.381867 4.590933-6.587733c5.597867-17.749333 10.7008-36.488533 15.274667-56.2688 18.346667-7.099733 31.5904-16.213333 40.260267-27.374934 4.078933-6.587733 5.597867-12.168533 5.085866-16.725333-1.536-6.075733-6.621867-12.168533-15.786666-18.756267l-8.669867 6.587734c2.048 1.024 3.584 2.048 5.102933 2.542933 5.085867 4.0448 8.1408 7.594667 9.1648 10.6496 0.512 2.525867-0.512 6.075733-3.054933 10.1376-7.133867 10.632533-20.3776 19.2512-39.2192 25.838933-5.102933 22.306133-10.1888 41.0624-15.291733 56.2688l-25.463467-17.237333 85.572267-126.208-8.1408-5.5808-91.6992 134.331733zM664.343893 491.4688l47.377067 31.914667-30.0544 44.117333-47.377067-31.931733 30.0544-44.100267z m-55.534933-37.512533l47.377067 31.914666-30.037334 44.117334-47.394133-31.931734 30.0544-44.100266z m-7.6288 112.5376l8.6528 5.563733 19.3536-28.381867 56.046933 37.512534 47.889067-70.9632-8.6528-5.5808-7.150933 10.1376-47.377067-31.931734 36.181333-53.248-8.669866-5.563733-36.181334 53.230933-47.36-31.931733 7.133867-10.154667-8.669867-5.563733-47.889066 70.9632 56.046933 37.512533-19.3536 28.398934z"  horiz-adv-x="1024" />

    
    <glyph glyph-name="shanchu" unicode="&#58932;" d="M762.218 761.135H263.15c-45.947 0-83.178-37.228-83.178-83.175v-27.725h665.422V677.96c0.001 45.947-37.229 83.175-83.177 83.175m-145.29 55.45l12.238-87.507H396.203l12.237 87.507h208.488m6.66 55.45H401.783c-22.88 0-44.162-18.52-47.357-41.209L338.207 714.81c-3.168-22.66 12.97-41.181 35.85-41.181h277.258c22.879 0 39.017 18.519 35.823 41.208l-16.22 116.017c-3.17 22.662-24.451 41.181-47.33 41.181m152.493-277.248H249.288c-30.488 0-53.205-24.855-50.443-55.233l45.435-499.479c2.734-30.379 29.973-55.233 60.46-55.233h415.89c30.487 0 57.726 24.856 60.46 55.233l45.434 499.48c2.761 30.377-19.956 55.232-50.443 55.232M401.78 95.74h-83.178l-27.726 388.147H401.78V95.74z m166.356 0H457.233V483.887h110.904V95.74z m138.629 0h-83.178V483.887H734.49L706.766 95.74z"  horiz-adv-x="1024" />

    
    <glyph glyph-name="jihuo1" unicode="&#58891;" d="M255.5904 702.8736L139.8784 818.5856c-1.8432 1.8432-4.096 2.6624-6.5536 2.6624H83.968c-5.12 0-9.216-4.096-9.216-9.216v-49.3568c0-2.4576 1.024-4.9152 2.6624-6.5536l115.5072-115.5072c3.6864-3.6864 9.4208-3.6864 13.1072 0l49.3568 49.3568c3.6864 3.4816 3.6864 9.4208 0.2048 12.9024zM333.824 883.712h43.8272c5.12 0 9.216-4.096 9.216-9.216v-106.2912c0-5.12-4.096-9.216-9.216-9.216H333.824c-5.12 0-9.216 4.096-9.216 9.216V874.496c0 5.12 4.096 9.216 9.216 9.216z m249.6512-312.32h106.2912c5.12 0 9.216-4.096 9.216-9.216v-43.8272c0-5.12-4.096-9.216-9.216-9.216h-106.2912c-5.12 0-9.216 4.096-9.216 9.216V562.176c0 5.12 4.096 9.216 9.216 9.216z m53.248 191.2832V812.032c0 5.12-4.096 9.216-9.216 9.216h-49.3568c-2.4576 0-4.9152-1.024-6.5536-2.6624l-115.5072-115.712c-3.6864-3.6864-3.6864-9.4208 0-13.1072l49.3568-49.3568c3.6864-3.6864 9.4208-3.6864 13.1072 0l115.5072 115.712c1.6384 1.6384 2.6624 4.096 2.6624 6.5536zM21.504 571.392h106.2912c5.12 0 9.216-4.096 9.216-9.216v-43.8272c0-5.12-4.096-9.216-9.216-9.216H21.504c-5.12 0-9.216 4.096-9.216 9.216V562.176c0 5.12 4.096 9.216 9.216 9.216zM333.824 321.7408h43.8272c5.12 0 9.216-4.096 9.216-9.216v-106.2912c0-5.12-4.096-9.216-9.216-9.216H333.824c-5.12 0-9.216 4.096-9.216 9.216v106.2912c0 5.12 4.096 9.216 9.216 9.216z m-259.072-3.8912v-49.3568c0-5.12 4.096-9.216 9.216-9.216h49.3568c2.4576 0 4.9152 1.024 6.5536 2.6624l115.5072 115.5072c3.6864 3.6864 3.6864 9.4208 0 13.1072l-49.3568 49.3568c-3.6864 3.6864-9.4208 3.6864-13.1072 0l-115.5072-115.5072c-1.6384-1.6384-2.6624-4.096-2.6624-6.5536z m923.0336-294.7072l-620.544 620.7488c-18.2272 18.2272-47.9232 18.2272-66.1504 0l-58.5728-58.5728c-18.2272-18.2272-18.2272-47.9232 0-66.1504l620.544-620.7488c18.2272-18.2272 47.9232-18.2272 66.1504 0l58.5728 58.5728c18.2272 18.2272 18.2272 47.9232 0 66.1504zM474.112 359.424l-174.2848 174.2848c-3.6864 3.6864-3.6864 9.4208 0 13.1072l49.3568 49.3568c3.6864 3.6864 9.4208 3.6864 13.1072 0l174.2848-174.2848c3.6864-3.6864 3.6864-9.4208 0-13.1072L487.2192 359.424c-3.6864-3.4816-9.6256-3.4816-13.1072 0z m6.5536-6.5536"  horiz-adv-x="1024" />

    
    <glyph glyph-name="beizhu" unicode="&#59235;" d="M66.045082 383.010406c0 246.384115 199.734363 446.118478 446.118477 446.118478S958.282037 629.394521 958.282037 383.010406 758.546498-63.108071 512.162383-63.108071 66.045082 136.626292 66.045082 383.010406zM603.35797 257.433205c-11.548005 0-56.883398-66.939364-81.598529-66.939364-6.600037 0-9.878286 5.517485-9.878286 11.024379 0 12.589373 9.058136 32.294172 13.995514 44.106932l59.336789 153.525868c29.681927 76.381099-8.245045 96.837801-43.682147 96.837801-47.784078 0-90.646075-22.831256-123.609781-52.747343-10.718441-10.239529-37.324508-49.986836-37.324508-65.040191 0-5.013863 5.024453-10.894944 10.909064-10.894944 15.059239 0 44.537599 76.723515 75.029086 76.723515 6.610627 0 14.030814-7.098952 8.245045-21.249788l-57.662364-138.579592c-5.786946-13.394227-33.808568-59.321493-33.808568-97.108439 0-29.914911 20.601434-61.939621 50.282184-61.939621 83.237654 0 179.644788 97.630888 179.644788 120.468027-0.009413 7.087185-5.759882 11.81276-9.878287 11.81276z m-16.50421 383.43519c-36.257253 0-67.572421-28.336974-67.572422-62.982166 0-32.278875 22.251149-53.555727 56.060894-53.555727 37.075051 0 68.384335 26.77198 68.384335 62.983342 0 32.304762-23.894981 53.55455-56.869277 53.554551h-0.00353z"  horiz-adv-x="1024" />

    
    <glyph glyph-name="qiabao" unicode="&#58946;" d="M874.666667 682.645333a85.333333 85.333333 0 0 0 85.333333-85.333333v-512a85.333333 85.333333 0 0 0-85.333333-85.333333H149.333333a85.333333 85.333333 0 0 0-85.333333 85.333333v512a85.333333 85.333333 0 0 0 85.333333 85.333333h73.322667l20.608 44.672a106.666667 106.666667 0 0 0 121.962667 59.008l428.309333-103.68H874.666667z m42.666666-192v106.666667a42.666667 42.666667 0 0 1-42.666666 42.666667H149.333333a42.666667 42.666667 0 0 1-42.666666-42.666667v-106.666667h810.666666z m0-405.333333v362.666667H106.666667v-362.666667a42.666667 42.666667 0 0 1 42.666666-42.666667h725.333334a42.666667 42.666667 0 0 1 42.666666 42.666667z m-341.333333 64a21.333333 21.333333 0 1 0 0 42.666667h192a21.333333 21.333333 0 1 0 0-42.666667h-192zM282.026667 709.461333l-12.352-26.816h342.528L355.2 744.853333a64 64 0 0 1-73.173333-35.392z"  horiz-adv-x="1024" />

    
    <glyph glyph-name="credentials_icon" unicode="&#58881;" d="M1271.28975803 779.50826667h-851.86773333c-67.18186668-0.06826669-121.62453335-54.51200003-121.69280004-121.68746667v-547.6352c0.06826669-67.18186668 54.51200003-121.62453335 121.68853335-121.69279999h851.87413336c67.18186668 0.06826669 121.6256 54.51200003 121.69279995 121.68746666v547.63519999c-0.06826669 67.18186668-54.51200003 121.62453335-121.68746666 121.69280001zM1332.13135801 110.18453332000001c-0.04373332-33.59039999-27.26186667-60.80853333-60.84800003-60.85333333h-851.86133332c-33.58613332 0.05013335-60.79786667 27.26613334-60.84053332 60.84800001v547.63199999c0.04266665 33.59039999 27.26186667 60.80853333 60.84799997 60.8522667h851.86133336c33.58613332-0.05013335 60.79786667-27.26613334 60.84159998-60.84800001zM1156.32015801 359.904c32.85760001 27.92853338 54.11733333 69.00053333 54.11733332 115.36213334 0 83.87520001-68.24426667 152.12053333-152.12053335 152.12053334s-152.10773332-68.24533334-152.10773332-152.12053334c0-46.36160001 21.29173339-87.4336 54.15039999-115.36213334-68.20160002-35.5413333-115.00053333-106.79786667-115.00053333-188.87573334 0-16.80320001 13.62346668-30.42560002 30.42560001-30.42559999 16.80320001 0 30.42560002 13.62346668 30.4256 30.42560001 0 83.87520001 68.24533334 152.11946665 152.11946668 152.11946666s152.12053333-68.24426667 152.12053325-152.11946666c0 0 0 0 0 0 0-16.80320001 13.62346668-30.42560002 30.42560007-30.42560001 16.80320001 0 30.42560002 13.62346668 30.42560001 30.42560001 0 0 0 0 0 0-0.00959997 82.07786666-46.77759999 153.33546665-114.98133333 188.87573332zM967.05082468 475.2672c0 50.40746667 40.86186668 91.2672 91.26826666 91.26719998s91.2672-40.86186668 91.26719999-91.26719998c0-50.40746667-40.86186668-91.2672-91.26719999-91.2672-50.38293334 0.05546668-91.21066666 40.88533332-91.2672 91.26293334zM814.92815799 566.54613333h-365.08160003c-16.80320001 0-30.42560002-13.62346668-30.4256-30.4256s13.62346668-30.42560002 30.4256-30.42560001h365.08160003c16.80320001 0 30.42560002 13.62346668 30.42560002 30.42560001s-13.62346668 30.42560002-30.42560002 30.4256zM784.50255798 414.42560002h-334.65600002c-16.80320001 0-30.42560002-13.62346668-30.42559994-30.42560002s13.62346668-30.42560002 30.42559994-30.42560002h334.65600002c16.80320001 0 30.42560002 13.62346668 30.42560001 30.42560002s-13.62346668 30.42560002-30.42559997 30.42560002zM693.23535803 262.30719999999997h-243.38773337c-16.80320001 0-30.42560002-13.62346668-30.4256-30.42559998s13.62346668-30.42560002 30.4256-30.42560002h243.38773337c16.80320001 0 30.42560002 13.62346668 30.42559998 30.42560002s-13.62346668 30.42560002-30.42559998 30.42559998z"  horiz-adv-x="1417" />

    
    <glyph glyph-name="yanzhengma2" unicode="&#59343;" d="M752 680.32H268.16c-34.24 0-62.08-27.84-62.08-62.08v-326.4c0-34.24 27.84-62.08 62.08-62.08h115.2a16 16 0 0 1 0 32h-115.2a30.112 30.112 0 0 0-30.08 30.08V618.24c0 16.576 13.504 30.08 30.08 30.08H752a30.08 30.08 0 0 0 30.08-30.08v-326.4c0-16.576-13.504-30.08-30.08-30.08h-264.192l-135.264-143.264a16 16 0 1 1 23.232-21.984l125.824 133.216H752c34.24 0 62.08 27.84 62.08 62.08V618.24c0 34.208-27.84 62.08-62.08 62.08zM368.48 499.36c-25.76 0-46.72-20.96-46.72-46.72s20.96-46.72 46.72-46.72 46.72 20.96 46.72 46.72-20.96 46.72-46.72 46.72z m0-61.44c-8.096 0-14.72 6.624-14.72 14.72s6.624 14.72 14.72 14.72a14.72 14.72 0 0 0 0-29.44zM556.8 452.64c0 25.76-20.96 46.72-46.72 46.72s-46.72-20.96-46.72-46.72 20.96-46.72 46.72-46.72 46.72 20.96 46.72 46.72z m-61.44 0a14.72 14.72 0 1 0 29.472-0.032 14.72 14.72 0 0 0-29.472 0.032zM698.4 452.64c0 25.76-20.96 46.72-46.72 46.72s-46.72-20.96-46.72-46.72 20.96-46.72 46.72-46.72 46.72 20.96 46.72 46.72z m-61.44 0a14.72 14.72 0 1 0 29.472-0.032 14.72 14.72 0 0 0-29.472 0.032z"  horiz-adv-x="1024" />

    


  </font>
</defs>
</svg>
