<?xml version="1.0" standalone="no"?>
<!DOCTYPE svg PUBLIC "-//W3C//DTD SVG 1.1//EN" "http://www.w3.org/Graphics/SVG/1.1/DTD/svg11.dtd" >
<svg xmlns="http://www.w3.org/2000/svg">
<metadata>
Created by FontForge 20120731 at Thu Jul 20 10:23:27 2017
 By admin
</metadata>
<defs>
<font id="iconfont" horiz-adv-x="1024" >
  <font-face 
    font-family="iconfont"
    font-weight="500"
    font-stretch="normal"
    units-per-em="1024"
    panose-1="2 0 6 3 0 0 0 0 0 0"
    ascent="896"
    descent="-128"
    x-height="792"
    bbox="-0.525 -212 1331.53 896"
    underline-thickness="0"
    underline-position="0"
    unicode-range="U+0078-E8B6"
  />
<missing-glyph 
 />
    <glyph glyph-name=".notdef" 
 />
    <glyph glyph-name=".notdef" 
 />
    <glyph glyph-name=".null" horiz-adv-x="0" 
 />
    <glyph glyph-name="nonmarkingreturn" horiz-adv-x="341" 
 />
    <glyph glyph-name="x" unicode="x" horiz-adv-x="1001" 
d="M281 543q-27 -1 -53 -1h-83q-18 0 -36.5 -6t-32.5 -18.5t-23 -32t-9 -45.5v-76h912v41q0 16 -0.5 30t-0.5 18q0 13 -5 29t-17 29.5t-31.5 22.5t-49.5 9h-133v-97h-438v97zM955 310v-52q0 -23 0.5 -52t0.5 -58t-10.5 -47.5t-26 -30t-33 -16t-31.5 -4.5q-14 -1 -29.5 -0.5
t-29.5 0.5h-32l-45 128h-439l-44 -128h-29h-34q-20 0 -45 1q-25 0 -41 9.5t-25.5 23t-13.5 29.5t-4 30v167h911zM163 247q-12 0 -21 -8.5t-9 -21.5t9 -21.5t21 -8.5q13 0 22 8.5t9 21.5t-9 21.5t-22 8.5zM316 123q-8 -26 -14 -48q-5 -19 -10.5 -37t-7.5 -25t-3 -15t1 -14.5
t9.5 -10.5t21.5 -4h37h67h81h80h64h36q23 0 34 12t2 38q-5 13 -9.5 30.5t-9.5 34.5q-5 19 -11 39h-368zM336 498v228q0 11 2.5 23t10 21.5t20.5 15.5t34 6h188q31 0 51.5 -14.5t20.5 -52.5v-227h-327z" />
    <glyph glyph-name="jiahao1" unicode="&#xe608;" horiz-adv-x="1001" 
d="M1017 436h-401v380h-198v-380h-402v-238h402v-381h198v381h401v238z" />
    <glyph glyph-name="weixin" unicode="&#xe610;" horiz-adv-x="1000" 
d="M352 435q12 0 19.5 7.5t7.5 20.5t-7.5 20.5t-19.5 7.5q-14 0 -24 -8t-10 -20t10 -20t24 -8zM507 491q-13 0 -23 -8t-10 -20t10 -20t23 -8t20.5 7.5t7.5 20.5t-7.5 20.5t-20.5 7.5zM702 282q13 0 20.5 7t7.5 16t-8 15.5t-20 6.5q-8 0 -15 -7t-7 -15.5t7 -15.5t15 -7z
M580 282q12 0 20 7t8 16t-8 15.5t-20 6.5q-8 0 -15 -7t-7 -15.5t7 -15.5t15 -7zM77 316.5q0 -89.5 34.5 -171t93.5 -140t140.5 -93.5t170.5 -35t170.5 35t140 93.5t93.5 140t35 171t-35 170.5t-93.5 140t-140 93.5t-170.5 34.5t-170.5 -34.5t-140.5 -93.5t-93.5 -140
t-34.5 -170.5zM627 430q-79 0 -134 -52.5t-55 -126.5q0 -23 7 -47q-11 -1 -21 -1q-22 0 -78 11l-78 -39l22 68q-89 63 -89 152q0 80 65.5 136t157.5 56q82 0 146 -45t79 -113q-12 1 -22 1zM831 254q0 -71 -78 -130l16 -56l-61 33q-44 -11 -67 -11q-79 0 -134 48t-55 116
t55 116t134 48q76 0 133 -48.5t57 -115.5z" />
    <glyph glyph-name="milogo" unicode="&#xe61d;" 
d="M1008 620h-137q-4 0 -7.5 -3t-3.5 -7v-620q0 -4 3.5 -7t7.5 -3h137q5 0 8 3t3 7v620q0 4 -3 7t-8 3zM539 620h-523q-4 0 -7 -3t-3 -7v-620q0 -4 3 -7t7 -3h138q4 0 7 3t3 7v487q0 4 3.5 7t7.5 3h296q29 0 51 -10.5t33.5 -26.5t17 -33t5.5 -34v-393q0 -4 3 -7t7 -3h138
q4 0 7 3t3 7v440q0 84 -51 134q-35 33 -69 44.5t-77 11.5zM443 373h-144q-4 0 -7.5 -3t-3.5 -7v-373q0 -4 3.5 -7t7.5 -3h144q5 0 8 3t3 7v373q0 4 -3 7t-8 3z" />
    <glyph glyph-name="jiahao" unicode="&#xe615;" 
d="M984 376h-394v394h-157v-394h-394v-157h394v-394h157v394h394v157z" />
    <glyph glyph-name="fanhui1" unicode="&#xe625;" 
d="M693 315l-298 -291q-6 -6 -6.5 -15t6 -15.5t15.5 -6.5t15 6l313 306q6 6 6 16q0 9 -6 16l-313 305q-6 7 -15 6.5t-15.5 -6.5t-6 -15t6.5 -15z" />
    <glyph glyph-name="saoyisao" unicode="&#xe631;" 
d="M928 269h-833q-14 0 -23.5 9.5t-9.5 22.5t9.5 22.5t23.5 9.5h833q14 0 23 -9.5t9 -22.5t-9 -22.5t-23 -9.5v0zM832 -116h-192q-14 0 -23 9.5t-9 23t9 22.5t23 9h192q13 0 22.5 9.5t9.5 22.5v161q0 13 9.5 22.5t23 9.5t22.5 -9.5t9 -22.5v-161q0 -39 -28 -67.5t-68 -28.5
v0zM351 -116h-160q-40 0 -68 28.5t-28 67.5v161q0 13 9 22.5t22.5 9.5t23 -9.5t9.5 -22.5v-161q0 -13 9 -22.5t23 -9.5h160q13 0 22.5 -9t9.5 -22.5t-9.5 -23t-22.5 -9.5v0zM127 429q-14 0 -23 9.5t-9 22.5v161q0 40 28 68t68 28h160q13 0 22.5 -9.5t9.5 -22.5t-9.5 -22.5
t-22.5 -9.5h-160q-14 0 -23 -9.5t-9 -22.5v-161q0 -13 -9.5 -22.5t-22.5 -9.5v0zM896 429q-13 0 -22.5 9.5t-9.5 22.5v161q0 13 -9.5 22.5t-22.5 9.5h-192q-14 0 -23 9.5t-9 22.5t9 22.5t23 9.5h192q40 0 68 -28t28 -68v-161q0 -13 -9 -22.5t-23 -9.5v0zM896 429z" />
    <glyph glyph-name="shezhi" unicode="&#xe61a;" 
d="M512 115q-76 0 -130 54t-54 130.5t54 130.5t130 54t130 -54t54 -130.5t-54 -130.5t-130 -54zM512 423q-51 0 -87.5 -36t-36.5 -87.5t36.5 -87.5t87.5 -36t87.5 36t36.5 87.5t-36.5 87.5t-87.5 36zM582 686v-41q0 -22 12 -40.5t33 -27.5q13 -5 28 -5q30 0 52 21l26 26
l98 -98l-26 -26q-15 -16 -19.5 -38t4 -42.5t27 -33t40.5 -12.5h40v-139h-40q-22 0 -40.5 -12.5t-27 -33t-4 -42.5t19.5 -38l26 -26l-98 -99l-26 26q-22 22 -52 22q-15 0 -28 -6q-21 -8 -33 -26.5t-12 -41.5v-39h-140v39q0 23 -12 41.5t-33 26.5q-13 6 -28 6q-30 0 -52 -22
l-26 -26l-98 99l26 26q15 16 19.5 38t-4 42.5t-27 33t-40.5 12.5h-40v139h40q22 0 40.5 12.5t27 33t4 42.5t-19.5 38l-26 26l98 98l26 -26q22 -21 52 -21q15 0 28 5q21 9 33 27.5t12 40.5v41h140zM582 747h-140q-24 0 -42 -19.5t-18 -45.5v-37q0 -8 -8 -11q-3 -1 -5 -1
q-5 0 -9 3l-26 26q-18 18 -43 18t-43 -18l-98 -98q-18 -18 -18 -43.5t18 -42.5l26 -26q6 -6 2.5 -14t-11.5 -8h-37q-25 0 -44 -18t-19 -43v-139q0 -25 19 -43t44 -18h37q8 0 11.5 -8t-2.5 -14l-26 -26q-18 -18 -18 -43t18 -43l98 -99q18 -17 43 -17t43 17l26 26q4 4 9 4
q2 0 5 -1q8 -3 8 -12v-36q0 -26 18 -45t42 -19h140q24 0 42 19t18 45v36q0 9 8 12q3 1 5 1q5 0 9 -4l26 -26q18 -17 43 -17t43 17l98 99q18 18 18 43t-18 43l-26 26q-6 6 -2.5 14t11.5 8h37q25 0 44 18t19 43v139q0 25 -19 43t-44 18h-37q-8 0 -11.5 8t2.5 14l26 26
q18 17 18 42.5t-18 43.5l-98 98q-18 18 -43 18t-43 -18l-26 -26q-4 -3 -9 -3q-2 0 -5 1q-8 3 -8 11v37q0 26 -18 45.5t-42 19.5v0z" />
    <glyph glyph-name="gouwuche" unicode="&#xe653;" 
d="M482.5 83q-24.5 0 -42 -17.5t-17.5 -42.5t17.5 -42.5t42 -17.5t42 17.5t17.5 42.5t-17.5 42.5t-42 17.5zM769 83q-25 0 -42.5 -17.5t-17.5 -42.5t17.5 -42.5t42.5 -17.5t42.5 17.5t17.5 42.5t-17.5 42.5t-42.5 17.5zM839 193h-417l-143 425q-7 18 -29 18h-127
q-13 0 -22 -8t-9 -20.5t9 -20.5t22 -8h105l143 -424q7 -19 29 -19h439q13 0 21.5 8t8.5 20.5t-8.5 20.5t-21.5 8zM904 524l-516 45q-12 1 -18.5 -7t-1.5 -20l90 -270q4 -12 16 -21.5t24 -9.5h377q12 0 22 10t11 23l23 216q2 12 -6 22t-21 12z" />
    <glyph glyph-name="youjian" unicode="&#xe705;" 
d="M870 467h-717q-32 0 -54.5 -22.5t-22.5 -53.5v-461q0 -32 22.5 -54.5t54.5 -22.5h717q31 0 53.5 22.5t22.5 54.5v461q0 31 -22.5 53.5t-53.5 22.5zM128 -70v451l226 -226h-1l-225 -226v1zM165 416h693l-347 -347zM390 119l121 -122l123 122l215 -214h-674zM671 155h-2
l226 226v-451z" />
    <glyph glyph-name="erweima" unicode="&#xe614;" 
d="M256 640h73v-73h-73v73zM841 55h73v-73h-73v73zM841 201h-73v73v73h-73h-73h-73v-73v-292h73v292h73v-73v-73h73h73h73v73v146h-73v-146zM695 55h73v-73h-73v73zM110 421h365v365h-365v-365zM183 713h219v-219h-219v219zM256 201h73v-73h-73v73zM110 -18h365v365h-365
v-365zM183 274h219v-219h-219v219zM695 640h73v-73h-73v73zM549 786v-365h365v365h-365zM841 494h-219v219h219v-219z" />
    <glyph glyph-name="shouji" unicode="&#xe60d;" 
d="M694 803h-363q-39 0 -67.5 -28.5t-28.5 -67.5v-814q0 -39 28.5 -67.5t67.5 -28.5h363q39 0 67.5 28.5t28.5 67.5v814q0 39 -28.5 67.5t-67.5 28.5zM461 751h104q9 0 9 -9t-9 -9h-104q-9 0 -9 9t9 9zM512 -165q-14 0 -24 10t-10 24t10 24t24 10t24 -10t10 -24.5t-10 -24
t-24 -9.5zM718 -63h-413v762h413v-762z" />
    <glyph glyph-name="zuo" unicode="&#xe66e;" 
d="M281 278l417 -416q9 -10 22.5 -10t22.5 9.5t9 23t-9 22.5l-373 374l-11 10q-5 6 -4.5 10.5t2.5 7.5l3 3l11 11l370 370q9 9 9 22.5t-9.5 23t-22.5 9.5t-23 -10l-412 -412v-1h-1l-1 -1q-9 -10 -9 -23t9 -23z" />
    <glyph glyph-name="iconfontweibowukuang" unicode="&#xe661;" 
d="M727 341q-16 3 -20.5 9.5t-0.5 11.5l3 4q1 3 3 7t6 15.5t4.5 22.5t-4.5 25.5t-16 25.5q-14 14 -37 18.5t-46 1t-44 -9t-33 -11.5l-13 -5q-10 -3 -17 -4.5t-10.5 0t-5.5 3.5t-2 7.5t1 9t3 12.5t3 14q0 15 -2.5 27.5t-11 27t-23 22t-41 7t-62.5 -12.5q-35 -12 -71.5 -36
t-64 -49.5t-50 -49.5t-34.5 -40l-12 -15q-33 -44 -48.5 -87.5t-16.5 -65t0 -21.5q6 -48 30 -86.5t57 -62t78.5 -40t86.5 -24.5t88 -11q76 -6 157 11.5t151 61t99 103.5q17 36 17.5 67t-10.5 51t-29.5 35t-34 22t-27.5 9v0zM415 28q-110 -5 -188 42.5t-78 119.5t77.5 124
t188.5 57q112 5 188.5 -37t76.5 -113q0 -73 -78 -130.5t-187 -62.5v0zM385 307q-30 -3 -53.5 -13.5t-37 -23.5t-22.5 -30t-12.5 -30.5t-4.5 -28t-0.5 -19.5t0.5 -8v0v-5t2 -11.5t5.5 -16.5t12 -17t19.5 -15q67 -32 126 -19.5t94 58.5q14 17 18.5 42t-2 50.5t-22.5 47
t-48.5 33t-74.5 6.5v0zM348 116q-20 -2 -35 8t-15 27q0 18 14 32.5t34 16.5q23 2 37.5 -9t14.5 -29q0 -16 -14.5 -30t-35.5 -16v0zM435 189q-7 -5 -14.5 -4.5t-11.5 6.5t-2 14.5t9 13.5q8 6 15.5 5t11.5 -7q3 -7 1 -15t-9 -13v0zM798 400q9 0 16 6t8 14v3q4 32 -1 57
t-16.5 39t-26.5 23t-30.5 11.5t-28.5 3t-21 -0.5l-8 -1q-10 0 -17 -7t-7 -17t7 -17t17 -7q32 6 50.5 0.5t26 -19.5t9 -28t0.5 -25l-2 -11q0 -10 7 -17t17 -7v0zM781 679q-51 12 -121 -1l-1.5 -1l-1.5 -1h-1q-11 -3 -18.5 -12.5t-7.5 -21.5q0 -14 10.5 -24.5t25.5 -10.5
q18 3 31 8q6 0 18.5 1.5t33.5 -3.5t42 -13t43 -26.5t37 -43.5q28 -60 11 -115q-7 -17 -7 -34q0 -14 10 -22.5t25 -8.5t23 5.5t11 23.5v0q19 57 14.5 102.5t-20 79t-43.5 58t-56 39t-58 21.5v0zM781 679z" />
    <glyph glyph-name="jiudian" unicode="&#xe616;" 
d="M931 -124v520h-260v-520h260zM989 -182h-375v636h375v-636zM845 252v57h-58v-57h58zM874 223h-116v115h116v-115zM845 78v58h-58v-58h58zM874 49h-116v116h116v-116zM614 -124v809h-520v-809h520zM671 -182h-635v924h635v-924zM296 396v202h-115v-202h115zM325 367h-173
v260h173v-260zM527 396v202h-115v-202h115zM556 367h-173v260h173v-260zM296 49v203h-115v-203h115zM325 21h-173v259h173v-259zM527 49v203h-115v-203h115zM556 21h-173v259h173v-259z" />
    <glyph glyph-name="zhoubian" unicode="&#xe60b;" 
d="M768 556q0 26 -19 45t-45 19h-384q-26 0 -45 -19t-19 -45v-64h-64v64q0 53 37.5 90.5t90.5 37.5h384q53 0 90.5 -37.5t37.5 -90.5v-64h-64v64zM896 492h-768h-64v-64v-128q0 -53 37.5 -90.5t90.5 -37.5h640q53 0 90.5 37.5t37.5 90.5v128v64h-64zM896 300q0 -26 -19 -45
t-45 -19h-640q-26 0 -45 19t-19 45v128h768v-128zM832 172q27 0 45.5 -18.5t18.5 -44.5v-192q0 -27 -19 -46t-45 -19h-640q-26 0 -45 19t-19 46v192q0 26 18.5 44.5t45.5 18.5h640zM832 236h-640q-53 0 -90.5 -37.5t-37.5 -89.5v-192q0 -53 37.5 -91t90.5 -38h640
q53 0 90.5 38t37.5 91v192q0 52 -37.5 89.5t-90.5 37.5v0z" />
    <glyph glyph-name="gaojing" unicode="&#xe622;" 
d="M645 -7h-269h-9q-7 0 3 -16t31 -36q20 -19 48 -35q27 -16 59 -16h1h1.5h1h1.5q31 0 59 16q28 17 48 35q21 20 30 36q10 16 4 16h-9v0zM913 83v0q-19 27 -44 66q-24 38 -47 85q-22 47 -37 98q-16 52 -16 106q0 52 -14 95q-14 42 -38 75q-23 33 -55 56q-32 22 -68 34
q-38 11 -82 11h-0.5h-1.5v0v0h-0.5h-1.5q-44 0 -82 -11q-35 -12 -67 -34.5t-55 -55.5q-24 -33 -38 -75.5t-14 -94.5q0 -54 -16 -106q-16 -51 -37 -98q-23 -47 -47 -85q-25 -38 -44 -66v0q-8 -9 -7.5 -18t5 -15.5t10.5 -10.5v0q2 -1 8 -3q1 0 2.5 -0.5t2.5 -0.5h1h761h1
q1 0 2.5 0.5t2.5 0.5q6 2 7 3h1q6 4 10 10.5t4.5 15.5t-6.5 18v0zM913 83z" />
    <glyph glyph-name="zhengque" unicode="&#xe645;" 
d="M512 749q-91 0 -173.5 -35t-142.5 -95t-95.5 -143t-35.5 -174t35.5 -174t95.5 -143t142.5 -95.5t173.5 -35.5t174 35.5t143 95.5t95.5 143t35.5 174t-35.5 174t-95.5 143t-143 95t-174 35v0zM512 -90q-106 0 -196 52.5t-142.5 143t-52.5 196.5t52.5 196.5t142.5 142.5
t196.5 52t196.5 -52t142.5 -142.5t52.5 -196.5t-52.5 -196.5t-142.5 -143t-197 -52.5v0zM459 101l-210 203l52 54l154 -148l265 292l56 -50zM459 101z" />
    <glyph glyph-name="iconfont67" unicode="&#xe77b;" 
d="M304 -128q0 -13 9.5 -22.5t22.5 -9.5h16q13 0 22.5 9.5t9.5 22.5v832q0 13 -9.5 22.5t-22.5 9.5h-16q-13 0 -22.5 -9.5t-9.5 -22.5v-832zM640 -128q0 -13 9.5 -22.5t22.5 -9.5h16q13 0 22.5 9.5t9.5 22.5v832q0 13 -9.5 22.5t-22.5 9.5h-16q-13 0 -22.5 -9.5t-9.5 -22.5
v-832z" />
    <glyph glyph-name="xiazai" unicode="&#xe629;" 
d="M959 10v-30q0 -50 -35 -85t-84 -35h-658q-49 0 -84 35t-35 85v150q0 12 8.5 21t21 9t21.5 -9t9 -21v-150q0 -25 17.5 -42.5t41.5 -17.5h658q24 0 42 17.5t18 42.5v150q0 12 8.5 21t21 9t21 -9t8.5 -21v-120v0v0v0zM849 495l-308 -309v527q0 13 -9 21.5t-21 8.5t-21 -8.5
t-9 -21.5v-525l-308 309q-9 9 -21.5 9t-21 -9t-8.5 -21.5t9 -20.5l356 -357q0 -1 1 -2.5t2 -1.5v-1v0l0.5 -0.5l0.5 -0.5q8 -7 18 -7h4q10 0 18 7l0.5 0.5l0.5 0.5l359 360q9 9 9 21t-8.5 21t-21 9t-21.5 -9v0v0zM849 495z" />
    <glyph glyph-name="peiziiconfont08" unicode="&#xe60c;" 
d="M713 93q-17 5 -34 5q-35 0 -64.5 -17.5t-46.5 -46.5q-12 -20 -34 -22h-18q-105 0 -183 68t-94 170q-4 28 21 43q28 17 45 46.5t17 64.5q0 37 -20 68q-17 28 -46 44.5t-63 16.5q-52 0 -89 -35.5t-40 -87.5v-6q0 -10 1 -20q8 -112 57 -213t126.5 -173.5t182 -115
t218.5 -42.5h20h10q14 0 26 2q45 9 74 44.5t29 82.5q0 44 -27 78.5t-68 45.5zM666 191q-15 0 -25.5 10.5t-10.5 25.5q0 74 -52.5 126.5t-126.5 52.5q-15 0 -25.5 10.5t-10.5 25.5t10.5 25.5t25.5 10.5q104 0 177.5 -73.5t73.5 -177.5q0 -15 -10.5 -25.5t-25.5 -10.5z
M795 213q-15 0 -25.5 10.5t-10.5 25.5q0 118 -84 202.5t-202 84.5q-15 0 -25.5 10.5t-10.5 25t10.5 25t25.5 10.5q97 0 179.5 -48t130.5 -130.5t48 -179.5q0 -15 -10.5 -25.5t-25.5 -10.5zM924 234q-15 0 -25.5 10.5t-10.5 25.5q0 107 -52.5 198t-143.5 144t-198 53
q-15 0 -25.5 10.5t-10.5 25t10.5 25t25.5 10.5q95 0 181 -37t148.5 -99t99.5 -148.5t37 -181.5q0 -15 -10.5 -25.5t-25.5 -10.5z" />
    <glyph glyph-name="fenxiang" unicode="&#xe677;" 
d="M120 620h373q15 0 21.5 10.5t0 21.5t-21.5 11h-48t-96 0.5t-107.5 0.5h-93t-43.5 -1q-13 0 -20.5 -5t-7.5 -19v-112v-228.5v-229v-114.5q0 -16 6.5 -22.5t22.5 -6.5h728q26 0 26 28v279q0 16 -11 22t-22 0t-11 -22v-263h-696v650zM498 232q0 -13 9 -18.5t18.5 -3
t11.5 10.5q1 1 2 5q3 16 6 29.5t15 44t27 54.5t42.5 52.5t61.5 46t84.5 27.5t109.5 5q-93 -115 -109 -135q-7 -9 -1.5 -20t16 -13t19.5 6l130 162q16 13 -1 33q-117 136 -131 151q-7 8 -18 4.5t-15.5 -13t1.5 -18.5l97 -112q-67 3 -123.5 -11t-94 -37.5t-67 -55t-46 -62
t-27 -60t-14 -47t-3.5 -25.5zM847 328z" />
    <glyph glyph-name="kongdiao" unicode="&#xe61f;" 
d="M929 508h-834q-13 0 -22.5 -9t-9.5 -23v-251v-101q0 -14 9.5 -23t22.5 -9h834q13 0 22.5 9t9.5 23v352q0 14 -9.5 23t-22.5 9zM945 124q0 -7 -5 -11.5t-11 -4.5h-834q-6 0 -11 4.5t-5 11.5v112h866v-112zM945 252h-866v224q0 7 5 11.5t11 4.5h834q6 0 11 -4.5t5 -11.5
v-224z" />
    <glyph glyph-name="weibiaoti1" unicode="&#xe604;" 
d="M748.5 108q-32.5 0 -55.5 -23t-23 -55.5t23 -55.5t55.5 -23t55.5 23t23 55.5t-23 55.5t-55.5 23zM356 108q-33 0 -56.5 -23.5t-23.5 -56.5t23.5 -56.5t56.5 -23.5t56.5 23.5t23.5 56.5t-23.5 56.5t-56.5 23.5zM905 323l118 432q0 2 0.5 6.5t-1 15t-5.5 19t-14 15t-24 6.5
h-940q-16 0 -27.5 -11t-11.5 -27t11.5 -28.5t27.5 -12.5h82l117 -546l0.5 -6t2 -12t5 -13t11.5 -11t19 -4h590q17 0 28.5 11.5t11.5 28t-11.5 29t-28.5 12.5h-554l-12 77h574q20 0 31 19zM283 384l-75 355h728l-95 -355h-558z" />
    <glyph glyph-name="shouyeshouye" unicode="&#xe60a;" 
d="M519 748l-455 -460h144v-436h234l-1 292h145v-291h231v434h143z" />
    <glyph glyph-name="jiadianshuiwei" unicode="&#xe8b6;" 
d="M229 -66v713h-57v-713q0 -11 8.5 -19.5t20 -8.5t20 8.5t8.5 19.5v713q0 18 -14 25.5t-28.5 0t-14.5 -25.5v-713q0 -11 8.5 -19.5t20 -8.5t20 8.5t8.5 19.5v0zM799 266q25 -41 25 -90q0 -73 -51.5 -125t-125 -52t-125 52t-51.5 125q0 49 25 90q6 10 3.5 21.5t-13 17.5
t-21.5 3.5t-18 -12.5q-33 -56 -33 -120q0 -97 68.5 -165.5t165 -68.5t165 68.5t68.5 165.5q0 64 -33 120q-6 10 -17.5 12.5t-22 -3.5t-13 -17.5t3.5 -21.5v0zM848 294q-3 7 -10 20q-14 25 -32 54q-58 96 -135 204q-7 10 -18.5 12t-21.5 -5t-11.5 -18.5t4.5 -20.5
q77 -108 133 -201q18 -29 31 -53q7 -12 10 -18q5 -11 16.5 -14.5t22 2t14 16.5t-2.5 22v0zM625 573q-82 -109 -138 -205q-18 -30 -31 -55q-7 -13 -10 -20q-5 -11 -1 -22t15 -16t22 -1t16 15q2 6 9 18q12 23 29 52q55 93 134 200q7 9 5.5 21t-11 19t-21 5t-18.5 -11v0z
M227 390h113q12 0 20.5 8.5t8.5 20t-8.5 20t-20.5 8.5h-113q-12 0 -20 -8.5t-8 -20t8 -20t20 -8.5v0zM227 71h113q12 0 20.5 8t8.5 20t-8.5 20.5t-20.5 8.5h-113q-12 0 -20 -8.5t-8 -20.5t8 -20t20 -8v0z" />
    <glyph glyph-name="bofang" unicode="&#xe62d;" 
d="M154 -212q-13 0 -25 6q-27 15 -27 45v922q0 30 27 44.5t52 -1.5l717 -461q24 -15 24 -43t-24 -43l-717 -461q-12 -8 -27 -8z" />
    <glyph glyph-name="qq" unicode="&#xe611;" 
d="M512 791q-100 0 -190.5 -39t-156.5 -104.5t-104.5 -156.5t-38.5 -190.5t38.5 -190.5t104.5 -156.5t156.5 -104.5t190.5 -39t190.5 38.5t156.5 104.5t104.5 156.5t38.5 190.5t-38.5 191t-104.5 156.5t-156.5 104.5t-190.5 39zM718 194q-11 -1 -21 15t-14 19
q-8 -38 -36 -60q4 -3 18.5 -10t21.5 -15t6 -20q-1 -24 -35 -33.5t-74 -6.5q-35 2 -71 27q-6 -2 -16.5 -9t-16.5 -9q-23 -10 -57.5 -10.5t-62.5 10t-30 29.5q-1 14 6 22t23 15.5t19 9.5q-31 22 -36 58q-6 -1 -15.5 -16.5t-19.5 -15.5q-14 0 -18.5 21.5t-2.5 45.5q1 12 4 22.5
t9.5 21.5t10.5 17.5t12.5 17t9.5 12.5q-1 40 11 55q0 71 49 120q23 23 54.5 37.5t63.5 14.5q68 1 121 -51q36 -35 45 -83q1 -4 1.5 -17t2.5 -20q0 -3 4 -9t5 -11t0.5 -16t0.5 -17q1 -4 3 -7.5t6 -8t5 -5.5q29 -38 33 -69q3 -24 -1.5 -47t-17.5 -24z" />
    <glyph glyph-name="7" unicode="&#xe609;" 
d="M699 748h-374q-45 0 -77.5 -32.5t-32.5 -77.5v-605q0 -46 32.5 -78t77.5 -32h9v-35q0 -15 10.5 -25.5t25.5 -10.5h28q15 0 25.5 10.5t10.5 25.5v35h156v-35q0 -15 10.5 -25.5t25.5 -10.5h28q15 0 25.5 10.5t10.5 25.5v35h9q46 0 78 32t32 78v605q0 45 -32.5 77.5
t-77.5 32.5zM742 33q0 -18 -12.5 -31t-30.5 -13h-374q-18 0 -30.5 13t-12.5 31v605q0 18 12.5 30.5t30.5 12.5h374q18 0 30.5 -12.5t12.5 -30.5v-605zM475 574h74q9 0 15 6t6 14.5t-6 14.5t-15 6h-74q-9 0 -15 -6t-6 -14.5t6 -14.5t15 -6zM512 243q-44 0 -75 -31t-31 -75
t31 -75t75 -31t75 31t31 75t-31 75t-75 31zM512 79q-24 0 -41 17t-17 41q0 18 10.5 33t26.5 21v-15q0 -8 6 -14.5t15 -6.5t15 6.5t6 14.5v15q16 -6 26.5 -21t10.5 -33q0 -24 -17 -41t-41 -17z" />
    <glyph glyph-name="xiaoxi" unicode="&#xe628;" horiz-adv-x="1025" 
d="M290 -212q-14 0 -24 10q-16 16 -8 37q32 77 39 115q-5 10 -5 19q0 14 10 24.5t24 10.5q21 0 33 -18q15 -23 -5 -88l-1 -6l5 3q98 56 109 86q8 22 32 22h6h3q3 1 4 1q120 0 222 49.5t161.5 134.5t59.5 185.5t-59.5 185.5t-161.5 134.5t-222 49.5t-222 -49.5t-161.5 -134.5
t-59.5 -185q0 -83 43.5 -158t123.5 -129q12 -8 14.5 -22t-5.5 -26q-10 -15 -28 -15q-11 0 -19 6q-95 64 -146.5 154t-51.5 190q0 89 40.5 170t109 139.5t163.5 93.5t199 35t199 -35t163.5 -93.5t109 -139.5t40.5 -170q0 -117 -67.5 -217.5t-183.5 -160t-252 -61.5h-2v-1
q-21 -29 -69 -62t-81.5 -50t-64.5 -31q-6 -3 -14 -3zM363 255q-15 0 -25.5 10t-10.5 23.5t10.5 23t25.5 9.5h229q14 0 24.5 -9.5t10.5 -23t-10.5 -23.5t-24.5 -10h-229zM362 396q-14 0 -24.5 9.5t-10.5 23t10.5 23.5t24.5 10h300q14 0 24.5 -10t10.5 -23.5t-10.5 -23
t-24.5 -9.5h-300z" />
    <glyph glyph-name="youhuiquan" unicode="&#xe654;" 
d="M407 510h-69v-175h69v175zM547 510h-35v-175h35v175zM303 510h-35v-175h35v175zM617 510h-35v-175h35v175zM477 510h-35v-175h35v175zM669 579h-453q-8 0 -13 -5t-5 -12v-628q0 -7 5 -12t12.5 -5t12.5 5l73 59l59 -59q5 -5 12.5 -5t12.5 5l57 57l58 -57q5 -5 12 -5t12 5
l59 59l74 -59q5 -5 12 -5t12 5t5 12v628q0 7 -5 12t-12 5zM652 -30l-58 46q-5 5 -12 5t-13 -5l-57 -57l-57 57q-6 5 -13 5t-12 -5l-58 -57l-57 57q-5 5 -12 5t-13 -5l-57 -46v575h419v-575zM808 684h-453q-7 0 -12 -5t-5 -12v-53h34v35h419v-574l-57 46q-5 5 -13 5v-42l2 1
l73 -59q5 -5 12.5 -5t12.5 5.5t5 12.5v628q0 7 -5 12t-13 5zM442 266h-174v-35h174v35zM617 196h-349v-35h349v35zM512 126h-244v-35h244v35z" />
    <glyph glyph-name="dianzan" unicode="&#xe679;" horiz-adv-x="1025" 
d="M973 599q-34 5 -63 4t-102.5 -3.5t-127.5 -0.5q3 3 1.5 50.5t-2.5 58.5q-14 97 -90 157q-39 31 -76 31q-43 0 -84 -24t-42 -61v-25.5v-31.5t-2 -32t-5.5 -35t-10.5 -32.5t-17 -32.5t-25 -27.5t-34 -24.5q-5 -2 -11 -4t-7 -2q-2 14 -16.5 24.5t-38.5 10.5h-126
q-37 0 -60.5 -37t-23.5 -80v-509q0 -40 27.5 -68t66.5 -28h95h104v0v0v0h126h179h171q25 0 37.5 1t28.5 5t26.5 13t18.5 24q14 25 30.5 63t43 109.5t43.5 167.5t17 193q0 3 0.5 23t0 29.5t-3 28t-7.5 29t-15.5 21.5t-25.5 15zM220 -7q0 -14 -7 -22.5t-20 -8.5h-70
q-13 0 -21 9.5t-8 22.5v458q0 22 1 35q0 12 9 19.5t24 7.5h65q16 0 21.5 -10.5t5.5 -31.5v-510v31zM931 429q0 -50 -5 -98t-12.5 -87t-17 -75t-19.5 -63.5t-20.5 -51.5t-19.5 -40.5t-16 -28t-11 -17.5l-4 -6v0h-210l-162 -1l-131 1v510v0q52 21 86.5 55t51 76.5t23 80.5
t7.5 85q0 12 14 27t28 15q29 0 56 -35t27 -92q0 -14 1.5 -88t-1.5 -82h183q88 1 104.5 0t28.5 -7q2 -1 3 -1q16 -8 16 -34q0 -4 0.5 -13.5t0.5 -17t-1 -12.5v0zM931 429z" />
    <glyph glyph-name="wode" unicode="&#xe63d;" 
d="M512 501zM362 501q0 62 44 106t106 44t106 -44t44 -106t-44 -106t-106 -44t-106 44t-44 106zM635 358q-21 -30 -53.5 -47t-69.5 -17t-69.5 17t-53.5 47q-67 -34 -107.5 -98.5t-39.5 -142.5h270h271q0 78 -40.5 142.5t-107.5 98.5z" />
    <glyph glyph-name="jifen1" unicode="&#xe6d6;" 
d="M898 409q0 51 -53 92q53 41 53 92q0 39 -31.5 72.5t-90.5 57.5q-110 45 -263 45t-263 -45q-59 -24 -90.5 -57.5t-31.5 -72.5q0 -51 53 -92q-53 -41 -53 -92q0 -50 52 -91q-52 -40 -52 -90q0 -39 31.5 -72.5t90.5 -58.5q110 -45 263 -45t263 45q59 25 90.5 58.5t31.5 72.5
q0 50 -52 90q52 41 52 91zM273 670q99 40 240.5 40t240.5 -40q40 -17 63 -37.5t23 -39.5t-23 -39.5t-63 -37.5q-99 -40 -240.5 -40t-240.5 40q-41 17 -64 37.5t-23 39.5t23 39.5t64 37.5zM250 463q110 -45 263 -45t263 45q7 2 14 6v-1q50 -29 50 -59q0 -19 -23 -39.5
t-63 -36.5q-99 -41 -240.5 -41t-240.5 41q-41 16 -64 36.5t-23 39.5q0 30 51 59q7 -3 13 -5zM840 228q0 -20 -23 -40t-63 -37q-99 -41 -240.5 -41t-240.5 41q-41 17 -64 37t-23 40q0 29 49 58q8 -4 15 -7q110 -45 263 -45t263 45q8 3 16 7q48 -29 48 -58z" />
    <glyph glyph-name="favorfill" unicode="&#xe603;" 
d="M999 494q0 -13 -15 -28l-212 -206l50 -291q1 -5 1 -12q0 -12 -6 -20.5t-18 -8.5q-11 0 -23 7l-262 137l-262 -137q-12 -7 -23 -7q-12 0 -18 8.5t-6 20.5q0 3 1 12l50 291l-212 206q-15 16 -15 28q0 22 33 27l292 42l131 265q12 24 29 24t29 -24l131 -265l292 -42
q33 -5 33 -27v0z" />
    <glyph glyph-name="qianbao" unicode="&#xe7aa;" 
d="M512.5 -121q-101.5 0 -194 38.5t-164.5 110t-110.5 164.5t-38.5 194.5t38.5 194t110.5 164.5t164.5 110.5t194.5 38.5t194.5 -38.5t164.5 -110.5t110 -164.5t38 -194t-38 -194.5t-110 -165t-165 -110t-194.5 -38zM513 836q-90 0 -172.5 -34t-146 -97.5t-97.5 -146
t-34 -172.5t34 -172t97.5 -146t146 -97.5t172.5 -33.5t172 34t145.5 97.5t97.5 145.5t34 172t-34 172.5t-97.5 146t-145.5 97.5t-172 34zM756 419.5q0 -19.5 -9.5 -28.5t-33.5 -9h-163v-106h133q24 0 33 -9t9 -28.5t-9.5 -28t-33.5 -8.5h-132v-176q0 -20 -9 -30.5t-31 -10.5
t-31 11t-9 30v176h-132q-26 0 -34.5 8.5t-8.5 28t9 28.5t33 9h133v106h-163q-25 0 -34 9t-9 28.5t9.5 28t32.5 8.5h81l-105 186q-11 18 -9.5 34t15 24t29 7t26.5 -21l128 -230h79l124 222q7 13 16 19.5t17 8.5t15 0.5t13 -4.5q14 -10 14.5 -24.5t-10.5 -34.5l-106 -187h81
q24 0 33 -8.5t9 -28z" />
    <glyph glyph-name="fukuan" unicode="&#xe60f;" 
d="M950 750h-877q-30 0 -51.5 -21.5t-21.5 -51.5v-585q0 -30 21.5 -51.5t51.5 -21.5h877q31 0 52 21.5t21 51.5v585q0 30 -21 51.5t-52 21.5zM272 155h-71v478h71v-478zM360 155h-47v478h47v-478zM533 155h-103v478h103v-478zM645 155h-69v478h69v-478zM807 155h-43v478h43
v-478z" />
    <glyph glyph-name="shape" unicode="&#xe605;" 
d="M128 726q0 35 25 60t60 25h640q36 0 61 -25t25 -60v-684q0 -35 -25 -60t-61 -25h-640q-35 0 -60 25t-25 60v684zM171 726v-684q0 -17 12.5 -29.5t29.5 -12.5h640q18 0 30.5 12.5t12.5 29.5v684q0 17 -12.5 29.5t-30.5 12.5h-640q-17 0 -29.5 -12.5t-12.5 -29.5zM256 640
h512v-43h-512v43zM256 427h469v-43h-469v43zM256 213h341v-42h-341v42z" />
    <glyph glyph-name="quanyi" unicode="&#xe61b;" horiz-adv-x="1025" 
d="M791 86q-40 -46 -110 -91t-120 -66l-50 -22q-7 3 -20.5 8.5t-51 24t-71 38.5t-72.5 49.5t-64 58.5q-60 68 -99.5 159t-54 168.5t-14.5 149.5v179q8 5 23 13t63 28.5t97.5 36t122 28.5t141.5 13q51 0 103 -6.5t94.5 -17t82.5 -23t70 -25.5t52 -23.5t34 -17l12 -6.5v-179
q0 -72 -14.5 -150t-54 -168.5t-99.5 -158.5zM899 697q-7 4 -20 11.5t-54.5 25.5t-84.5 31.5t-106 25t-122.5 11.5t-122.5 -11.5t-106 -25.5t-84.5 -31.5t-54.5 -25t-20 -11.5v0v-156q0 -101 35 -216t110 -202q71 -82 230 -151l12 -6q7 3 18.5 8t44 21.5t61.5 33.5t63 43
t56 51q75 87 110 201.5t35 216.5v156zM480 255l-142 285h67l75 -161l35 -78l34 78l75 161h66l-141 -285h-69z" />
    <glyph glyph-name="caidanxiala" unicode="&#xe61c;" 
d="M128 596h768q27 0 46 19t19 45.5t-19 45t-46 18.5h-768q-26 0 -45 -18.5t-19 -45t19 -45.5t45 -19zM896 447h-768q-26 0 -45 -19t-19 -45.5t19 -45t45 -18.5h768q27 0 46 18.5t19 45t-19 45.5t-46 19zM896 169h-768q-26 0 -45 -18.5t-19 -45t19 -45.5t45 -19h768
q27 0 46 19t19 45.5t-19 45t-46 18.5z" />
    <glyph glyph-name="552cc1e587668" unicode="&#xe606;" 
d="M1002 -96q-2 5 -3 7l-4 6q-3 4 -10 11q-10 12 -31 34q-26 27 -96 98q-69 70 -95 97q-20 21 -30 32q-5 6 -7 8q1 -1 3 -5q1 -6 0 -9t-7 -16q62 60 95.5 139.5t33.5 167.5q0 114 -55.5 211.5t-151 154t-208 56.5t-208.5 -56.5t-151.5 -154t-55.5 -212t55.5 -212t151.5 -154
t208 -56.5q8 0 16 1q5 0 15 1q17 2 23 2q13 0 47 10l8 2q13 3 26 7q7 3 11 4q10 3 15 12.5t2 19.5t-12.5 15t-19.5 2q-4 -2 -11 -4q-13 -4 -24 -7l-8 -2q-28 -8 -34 -8q-9 0 -28 -2q-9 -1 -13 -1q-7 -1 -13 -1q-99 0 -183 50t-132.5 135.5t-48.5 186t48.5 186t132.5 135.5
t183 50t183 -50t133 -135.5t49 -185.5q0 -78 -29.5 -147.5t-84.5 -122.5q-7 -13 -8 -16.5t1 -9.5q2 -4 3 -7q1 -2 4 -5q3 -5 9 -11q11 -12 31 -34q26 -27 95.5 -97.5t95.5 -97.5q20 -21 30 -32q5 -6 7 -8q-1 2 -2 6q-2 6 -1 9t9 16q-8 -7 -9 -17.5t6 -18.5t17 -9t18 6
q8 13 9 16.5t0 9.5z" />
    <glyph glyph-name="shouhuodizhi" unicode="&#xe675;" 
d="M511 -9q-55 71 -83 109t-71.5 99.5t-74.5 117.5t-56 114q-28 70 -18 140t50.5 129.5t101.5 93.5q59 33 125.5 39t124.5 -15.5t105.5 -61t75.5 -100t28 -128.5q-1 -58 -43 -145q-71 -145 -232 -351q-1 -1 -33 -41zM510 48q13 13 13 14q158 227 178 259q61 94 77 174
q11 61 -11 121t-65.5 102t-105.5 64t-125 12q-60 -9 -111 -44.5t-81.5 -87t-35.5 -115t28 -129.5q61 -126 155 -257q5 -6 84 -113zM400 85q-94 -24 -104 -27q-6 -2 -12 -7t-12.5 -12t-10.5 -10q4 -3 11 -10t12.5 -12t11.5 -6q66 -19 114 -24q148 -16 280 12q27 6 48 17
q8 4 15 11.5t7 12.5q-1 6 -8 14t-15 10q-14 5 -95 25q-1 0 -11 2q4 20 12.5 26.5t25.5 1.5q69 -21 97 -36q34 -18 34 -42.5t-33 -44.5q-51 -32 -143 -44q-176 -23 -316 21q-33 10 -67 35q-18 13 -18 30.5t17 32.5q47 39 129 49q3 0 8 -3.5t12 -11t11 -10.5zM684 525
q-1 -69 -51.5 -119t-120.5 -50q-72 0 -122.5 51t-50 122t51.5 121t121 50q72 0 122.5 -51.5t49.5 -123.5zM512 394q56 0 95.5 39t39.5 94q0 56 -40.5 95.5t-96.5 39.5q-55 -1 -94 -40t-39 -95q0 -55 39.5 -94t95.5 -39z" />
    <glyph glyph-name="tongxunlu" unicode="&#xe69c;" horiz-adv-x="1025" 
d="M154 18v0q-38 0 -63 19q-29 22 -30 58l-1 4q-1 28 4 43q14 47 62 68q47 20 138 60l5 2q6 2 18 7q13 5 18 7q8 4 9 5q1 0 1 14q-1 7 -6 15l-8 13q-26 42 -38 63q-20 35 -29 75q-7 30 -4 68q5 45 22 84q37 82 107 114q92 43 179 -14q46 -29 74 -84q33 -63 31 -134
q-1 -36 -22 -81q-12 -27 -40 -70q-3 -4 -8 -11q-11 -17 -16 -25q-8 -15 -5 -28q10 -8 32 -16.5t60 -22.5q66 -26 99 -38q55 -22 68 -78q6 -27 0 -54q-11 -49 -66 -61q-11 -2 -27 -2h-177h-258h-129zM437 705q-28 0 -56 -13q-53 -25 -82 -91q-14 -32 -18 -69q-2 -30 3 -53
q8 -33 23 -62q12 -21 37 -61l7 -12q11 -18 12 -36q0 -24 -7 -37t-27 -22q-7 -3 -21 -8q-11 -5 -15 -7l-5 -2q-90 -39 -131 -58q-29 -13 -37 -40q-2 -8 -1 -28v-4q0 -15 12 -25q13 -9 34 -9v-22v22h124h248h170q10 0 17 1q25 6 30 27q4 17 0 35q-7 32 -40 45q-32 13 -94 37
q-39 15 -58 22q-29 12 -43 24q-11 10 -14 23q-6 29 9 57q5 10 18 28q5 8 7 11q25 39 35 63q17 36 17 63q2 58 -24 111q-22 43 -57 66q-36 24 -73 24zM836 509h97q7 0 13 -1q17 -5 16 -24q0 -19 -19 -23q-5 -1 -12 -1h-192q-9 0 -15 2q-17 6 -16 25q1 18 19 21q5 1 12 1h97z
M856 347h-75t-19 4q-15 6 -11 26q3 16 21 18q5 1 10 1h151q8 0 14 -2q16 -4 15.5 -22.5t-16.5 -22.5q-6 -2 -14 -2h-76zM892 240h-61q-14 0 -22 7q-11 10 -6 26q4 13 21 16h9q72 1 99 0q9 0 16 -2q14 -5 14 -22t-14 -22q-7 -2 -16 -3h-40z" />
    <glyph glyph-name="xiasanjiao" unicode="&#xe602;" 
d="M813 512h-96l-205 -205l-205 205h-96l301 -294z" />
    <glyph glyph-name="xiasanjiao-copy" unicode="&#xe621;" 
d="M256 512l256 -321l257 321h-513z" />
    <glyph glyph-name="shequ" unicode="&#xe6e0;" horiz-adv-x="1028" 
d="M939 691h-511q-36 -1 -61.5 -26.5t-25.5 -61.5v-510q0 -36 26 -62t62 -26h323l127 -127q6 -6 15 -6t15.5 6.5t6.5 15.5v111h23q36 0 62 26t26 62v510q0 36 -26 62t-62 26zM939 49h-45q-9 0 -15 -6t-7 -16v-79l-101 101h-342q-18 0 -31 13t-13 31v510q0 18 13 31t31 13
h510q18 0 31 -13t13 -31v-510q0 -18 -13 -31t-31 -13zM761 802q0 36 -25.5 62t-61.5 26h-577q-36 0 -62 -26t-26 -62v-576q0 -37 26 -62.5t62 -25.5h23v-111q0 -9 6 -15.5t15.5 -6.5t15.5 6l22.5 22.5l59.5 59.5l51 51q7 7 7 16t-6.5 15.5t-16 6.5t-15.5 -7l-95 -95v80
q-1 9 -7 15q-6 7 -15 7h-45q-18 0 -31 13t-13 31v576q0 18 13 31t31 13h576q18 0 31 -13t13 -31v-45q0 -9 6.5 -15.5t16 -6.5t15.5 6.5t6 15.5v45z" />
    <glyph glyph-name="qiaquan" unicode="&#xe67f;" 
d="M516 277q-57 0 -95 43h-421v-256q0 -27 18.5 -45.5t45.5 -18.5h896q27 0 45.5 18.5t18.5 45.5v256h-413q-38 -43 -95 -43zM992 576h-960q-13 0 -22.5 -9.5t-9.5 -22.5v-160h453l10 -14q18 -27 53 -27t53 27l10 14h445v160q0 13 -9.5 22.5t-22.5 9.5zM960 832h-896
q-27 0 -45.5 -18.5t-18.5 -45.5v-134q17 6 32 6h960q15 0 32 -6v134q0 27 -18.5 45.5t-45.5 18.5z" />
    <glyph glyph-name="dizhi" unicode="&#xe62a;" 
d="M918 543q0 69 -36 133.5t-92.5 110t-128 73t-142.5 27.5v0v0v0v0v0v0q-70 0 -141.5 -27.5t-128 -73t-92.5 -110t-36 -133.5q3 -69 25.5 -142t53 -132t73.5 -120.5t77.5 -102.5t75.5 -83t57.5 -57t32.5 -29l3 -3v0v0v0v0q1 0 3 3q17 14 33.5 29t57.5 57t75.5 83
t77.5 102.5t73.5 120.5t53 132t25.5 142zM372 548q0 61 43 104t104 44q61 -1 104 -44t43 -104t-43 -104.5t-104 -43.5t-104 43.5t-43 104.5z" />
    <glyph glyph-name="meishi" unicode="&#xe617;" 
d="M428 640q0 46 -17.5 100t-50 93.5t-67.5 39.5t-67 -39.5t-49.5 -93.5t-17.5 -100q0 -67 39.5 -114.5t95 -47.5t95 47.5t39.5 114.5zM276 474l-4 -554q0 -17 9 -17h25q9 0 9 17l-5 554q-9 -2 -16.5 -2t-17.5 2zM847 -107h-25q-9 0 -9 25l6 935q0 11 2.5 18t6.5 7h14
q9 0 9 -25l6 -935q0 -25 -10 -25zM704 -107h-25q-10 0 -10 25l6 935q0 11 2.5 18t6.5 7h14q9 0 9 -25l6 -935q0 -25 -9 -25z" />
    <glyph glyph-name="comiisshequon" unicode="&#xe68e;" 
d="M823 431v-19q0 -104 -66.5 -182t-164.5 -89q41 -35 95 -35h30q23 0 38 -15t20 -32t13 -27t20 -3q5 3 11.5 12.5t16.5 24.5t17 25q9 11 20.5 23t18.5 17l7 6h-1q29 22 45 54.5t16 69.5v16q0 60 -39 104t-97 50zM533 743h-208q-108 0 -184.5 -80.5t-76.5 -193.5v-27
q0 -67 28 -124t77 -96l-1 1q44 -37 79 -83q13 -17 29.5 -43.5t28.5 -43.5t20 -22q13 -10 24.5 -3.5t16.5 21.5t15 35.5t20.5 39t31.5 31.5t48 13h53q108 0 184 80t76 194v27q0 113 -76 193.5t-185 80.5v0zM429 294q-71 0 -121.5 40.5t-50.5 97.5q0 8 5.5 13.5t13.5 5.5
t13.5 -5.5t5.5 -13.5q0 -42 39.5 -71.5t95 -29.5t95 29.5t39.5 71.5q0 8 5.5 13.5t13 5.5t13 -5.5t5.5 -13.5q0 -57 -50.5 -97.5t-121.5 -40.5v0z" />
    <glyph glyph-name="xiangzuo" unicode="&#xe6cc;" 
d="M395 380l378 378l-74 74l-450 -450l450 -450l72 72z" />
    <glyph glyph-name="xunhuan" unicode="&#xe701;" 
d="M841 634l-115 115q-7 7 -16.5 7t-16 -7t-6.5 -16.5t7 -15.5l74 -75h-358q-95 0 -162 -67.5t-67 -162.5q0 -9 6.5 -15.5t16 -6.5t16.5 6.5t7 15.5q0 76 53.5 130t129.5 54h364l-86 -86q-7 -7 -7 -16.5t6.5 -16t16 -6.5t16.5 6l120 120q6 7 7 16q3 12 -6 21zM250 115
l86 -87q6 -6 6 -15.5t-6.5 -16.5t-16 -7t-16.5 7l-120 120q-10 11 -5 25q2 7 7 12l114 114q7 7 16.5 7t16 -6.5t6.5 -16t-6 -16.5l-75 -75h337q75 0 129 54t54 130q0 9 6.5 16t16 7t16.5 -7t7 -16q0 -95 -67.5 -162.5t-161.5 -67.5h-344v1zM250 115z" />
    <glyph glyph-name="ktv" unicode="&#xe618;" 
d="M477 292q56 -31 105 -37l-191 -275q-15 -21 -42.5 -22.5t-45.5 11.5l-31 18q-21 12 -32.5 35.5t-1.5 46.5l140 307q28 -45 99 -84zM760 361q-53 -62 -116 -66l-3 1q-21 -5 -61 7t-84 38q-46 28 -76 56.5t-35 51.5l-3 1q-26 57 -3 131q62 -82 168 -144q109 -64 213 -76z
M805 427q-3 -7 -12 -20q-98 3 -220 74q-120 70 -172 153q8 17 12 24q34 61 87 92t110.5 28.5t112.5 -35.5q83 -49 107.5 -135.5t-25.5 -180.5z" />
    <glyph glyph-name="liren" unicode="&#xe624;" horiz-adv-x="1025" 
d="M601 1q24 0 37 14.5t-1 39.5q-4 5 -10.5 14.5t-10 14.5t-10 14t-9 13.5t-7.5 14t-6 13.5t-4.5 12.5t-2 12.5t1.5 12q2 12 19 37.5t37 53t38 64.5t26 72.5t-3.5 77.5t-46.5 79v1q25 39 61 25q15 -7 30 -23q20 -21 23.5 -48t-5 -54t-21 -57t-21.5 -60t-10.5 -58.5t16 -58
t54.5 -53.5q27 -18 61 -12t63.5 23.5t54.5 43.5q-43 -7 -74.5 0t-45.5 22.5t-19 35t-0.5 37t14.5 28.5q93 102 53 197q-26 63 -95 90q-75 30 -133 -9q-20 -14 -34 -34q-87 108 -221 108q-149 0 -229 -105q-7 -8 4.5 -19.5t22.5 -25t5 -26.5q-15 -28 -30 -50.5t-26 -36
t-23.5 -24.5t-19 -14.5t-16.5 -9t-11 -6.5q-28 -16 0 -35l54 -35q0 -4 -0.5 -11t-0.5 -27t1 -38.5t5 -41t9.5 -38.5t15.5 -27t24 -11q6 0 26.5 0.5t28.5 0t26 -1.5t26.5 -2.5t22 -5.5t21.5 -9.5t15.5 -14.5t12.5 -20q19 -48 35.5 -58.5t63.5 -10.5h79.5h58.5v0z" />
    <glyph glyph-name="xiaochikuaican" unicode="&#xe62b;" 
d="M261 394h170v0q0 -36 25 -62t60.5 -26t60.5 26t25 62v0h172q16 0 26.5 -12.5t7.5 -28.5l-66 -297q-2 -21 -21 -37t-48 -16h-311q-34 1 -50.5 18t-19.5 35l-65 297q-3 16 7.5 28.5t26.5 12.5v0zM286 448v0q-13 0 -22.5 8t-11.5 22l-60 195q-2 16 8.5 28.5t26.5 12.5v0
q13 0 22.5 -8.5t11.5 -21.5l59 -195q3 -16 -8 -29q-10 -12 -26 -12v0zM382 643v0v0v0zM399 448v0h1h-1zM399 448q-13 0 -22.5 8.5t-11.5 21.5l-17 124q-3 17 8 29q10 12 26 12q13 0 22.5 -8.5t11.5 -21.5l17 -125q3 -16 -7.5 -28t-26.5 -12v0zM517 447q-14 0 -24 10.5
t-10 24.5v197q0 15 10 25.5t24.5 10.5t24.5 -10.5t10 -25.5v-197q0 -14 -10 -24.5t-25 -10.5v0zM662 478q-2 -13 -11.5 -21.5t-22.5 -8.5h-1q-15 0 -25.5 12t-8.5 28l55 250q2 13 12 21.5t23 8.5v0q16 0 26.5 -12.5t7.5 -28.5zM829 635l-57 -161q-3 -12 -12.5 -19.5
t-21.5 -7.5h-2q-17 0 -27.5 14t-5.5 31l57 161q3 12 12.5 19t21.5 7h2q17 0 27.5 -14t5.5 -30v0z" />
    <glyph glyph-name="waimai" unicode="&#xe62c;" 
d="M213 224q0 -23 17 -39.5t41.5 -16.5t42 16.5t17.5 39.5t-17.5 39.5t-42 16.5t-41.5 -16.5t-17 -39.5zM708.5 168q24.5 0 41.5 16.5t17 39.5t-17 39.5t-41.5 16.5t-41.5 -16.5t-17 -39.5t17 -39.5t41.5 -16.5zM656 408h59q1 0 6 -1l2 0.5t3 0.5h98q23 0 50.5 -28t27.5 -52
v-13q0 -13 -11.5 -16t-37.5 -3q-3 0 -5 1q20 -34 20 -73q0 -63 -47 -107.5t-113 -44.5q-44 0 -81.5 22t-58.5 58h-156q-20 -36 -58 -58t-82 -22q-67 0 -113.5 44.5t-46.5 107.5q0 38 18 70.5t49 53.5q-1 6 -1 12l37 59q-24 11 -38 30.5t-14 38.5v20q0 25 18 42.5t44 17.5
h127q23 24 50 39t43 7q13 -7 16.5 -22.5t0 -30.5t-9.5 -30l-21 -49v-14q0 -20 -12.5 -36t-32.5 -21q-7 -30 -2 -54.5t23 -39t39 -19.5t46.5 3.5t45.5 30.5q4 6 7 13v-1q9 19 24 32.5t32.5 19.5t30 8.5t24.5 3.5zM856 456h-228q-26 0 -44 16.5t-18 40.5v94q0 24 18 40.5
t44 16.5h228q26 0 44 -16.5t18 -40.5v-94q0 -24 -18 -40.5t-44 -16.5z" />
    <glyph glyph-name="jifen" unicode="&#xe63f;" 
d="M264 670q-38 -22 -38 -48v-47q0 -26 38.5 -48t104 -35t143 -13t143.5 13t104.5 35t38.5 48v47q0 26 -38.5 48t-104.5 35t-143 13t-143.5 -13t-104.5 -35zM226 352v-63q0 -26 38.5 -48t104.5 -35t143 -13t143 13t104.5 35t38.5 48v63q-44 -31 -121 -47t-165 -16t-165 16
t-121 47zM226 209v-63q0 -26 38.5 -48t104.5 -35q65 -13 143 -13q77 0 143 13t104.5 35t38.5 48v63q-44 -31 -121 -47t-165 -16t-165 16t-121 47zM226 495v-63q0 -26 38.5 -48t104.5 -35t143 -13t143 13t104.5 35t38.5 48v63q-44 -31 -121 -47t-165 -16t-165 16t-121 47v0z
" />
    <glyph glyph-name="caidan-copy" unicode="&#xe601;" 
d="M349 512h326v-34h-326v34zM349 401h326v-34h-326v34zM349 290h326v-34h-326v34z" />
    <glyph glyph-name="houtui" unicode="&#xe74e;" 
d="M789 778q-9 -4 -223 -129.5t-302 -176.5v299q0 26 -18.5 44.5t-44 18.5t-44 -18.5t-18.5 -44.5v-372h-1q1 0 1 -1v-372q0 -26 18.5 -44t44 -18t44 18t18.5 44v300q8 -5 203.5 -119.5t278.5 -162.5q16 -9 29.5 -15.5t30.5 -12t30 -3t24.5 11t17.5 30.5t6 55v623
q0 27 -9.5 42t-25 16.5t-30 -2t-30.5 -11.5z" />
    <glyph glyph-name="qianjin" unicode="&#xe750;" 
d="M223 20l1 1h1v1h1l1 1h1l1 1v0h1l1 1h1v1h1l1 1h1l1 1v0l1 1h1l1 1h1v0l1 1h1l1 1h1l1 1v0l1 1h1l1 1h1v1h1l1 1h1l1 1h1v1h1l1 1h1l1 1h1v0l1 1h1l1 1h1l1 1h1v1h1l1 1h1l1 1h1l1 1v0l1 1h1l1 1h1l1 1h1v1h1l1 1h1l1 1h1l1 1h1v1h1l1 1l1 1h1l1 1h1l1 1v0l1 1h1l1 1h1
l1 1h1l1 1h1l1 1v0l1 1h1l1 1h1l1 1h1l1 1h1l1 1v0l1 1l1 1h1l1 1h1l1 1h1l1 1h1l1 1h1v1h1l1 1h1l1 1l1 1h1l1 1h1l1 1h1l1 1h1v1h1l1 1h1l1 1l1 1h1l1 1h1l1 1h1l1 1h1l1 1h1l1 1v1h1l1 1h1l1 1h1l1 1h1l1 1l1 1h1l1 1h1l1 1h1l1 1h1l1 1h1l1 1l1 1v0l1 1h1l1 1h1l1 1h1
l1 1l1 1h1l1 1h1l1 1h1l1 1l1 1h1l1 1h1l1 1h1l1 1h1l1 1l1 1h1l1 1h1l1 1v0l1 1l1 1h1l1 1h1l1 1h1l1 1l1 1h1l1 1h1l1 1h1l1 1h1l1 1l1 1h1l1 1h1l1 1h1l1 1l1 1h1l1 1h1l1 1h1l1 1l1 1h1l1 1h1l1 1h1l1 1l1 1h1l1 1h1l1 1l1 1h1l1 1h1l1 1h1l1 1l1 1h1l1 1h1l1 1h1l1 1
l1 1h1l1 1h1l1 1h1l1 1l1 1h1l1 1h1l1 1l1 1h1l1 1h1l1 1h1l1 1l1 1h1l1 1h1l1 1h1l1 1l1 1h1l1 1h1l1 1l1 1h1l1 1h1l1 1h1l1 1l1 1h1l1 1h1l1 1h1l1 1l1 1h1l1 1h1l1 1l1 1h1l1 1h1l1 1h1l1 1l1 1h1l1 1h1l1 1h1l1 1l1 1h1l1 1l1 1h1l1 1l1 1h1l2 1h1l1 1l1 1h1l1 1l1 1h1
l1 1l1 1h1l2 1h1l1 1l1 1h1l1 1l1 1h1l1 1l1 1h1l2 1h1l1 1l1 1h1l1 1l1 1h1l1 1l1 1h1l2 1h1l1 1l1 1h1l1 1l1 1h1l1 1h1l2 1l1 1h1l1 1l1 1h1l1 1l1 1h1l1 1h2l1 1l1 1h1l1 1l1 1h1l1 1l1 1h1l1 1h2l1 1l1 1h1l1 1l1 1h1l1 1l1 1h1l2 1h1l1 1l1 1h1l1 1l1 1h1l1 1l1 1h1
l2 1h1l1 1l1 1h1l1 1l1 1h1l1 1l1 1h1l2 1h1l1 1l1 1h1l1 1l1 1h1l1 1h1l1 1l1 1h2l1 1l1 1h1l1 1h1l1 1l1 1h1l1 1l1 1h1l2 1h1l1 1l1 1h1l1 1l1 1h1l1 1h1l1 1l1 1h1l2 1l1 1h1l1 1h1l1 1l1 1h1l1 1l1 1h1l1 1h1l1 1l1 1h2l1 1l1 1h1l1 1h1l1 1l1 1h1l1 1h1l1 1l1 1h1l1 1
h1l1 1l2 1h1l1 1l1 1h1l1 1h1l1 1l1 1h1l1 1h1l1 1l1 1h1l1 1h1l1 1l1 1h1l1 1h1l1 1l1 1h1l1 1h1l1 1l2 1h1l1 1h1l1 1h1l1 1l1 1h1l1 1h1l1 1l1 1h1l1 1h1l-1 -299q0 -26 18.5 -44.5t44 -18.5t44 18.5t18.5 43.5v373h1l-1 1l1 372q0 25 -18 43.5t-44 18.5t-44 -18t-18 -44
l-1 -300q-238 139 -482 283q-16 9 -29 15.5t-30.5 12t-30 3t-24.5 -11t-18 -30.5t-6 -55q-1 -106 -1.5 -359.5t-0.5 -262.5q1 -28 10.5 -43t25 -16.5t30 2t30.5 11.5v0z" />
    <glyph glyph-name="xiyiji" unicode="&#xe634;" 
d="M724 351q0 -44 -17 -83q-16 -39 -45 -68t-68 -46t-83.5 -17t-83.5 17t-68 46t-45.5 68t-16.5 83.5t16.5 83.5t45.5 68t68 46q39 16 83.5 16t83.5 -16.5t68 -45.5t45.5 -68t16.5 -84v0zM796 -71q0 -12 -10 -23q-10 -10 -27 -17q-16 -8 -37 -12q-22 -5 -44 -5h-343
q-20 0 -39 5q-20 4 -35 12q-16 7 -25 17q-10 11 -10 23h570v0zM806 896q49 0 72 -29q22 -28 22 -68v-735q0 -40 -28.5 -68.5t-72.5 -28.5h-577q-45 0 -72.5 28.5t-27.5 68.5v735q0 40 25 68t69 28zM199 762q0 -12 8.5 -23t27.5 -11h87q20 0 29 13t9 26v17q0 12 -10.5 22.5
t-28.5 10.5h-83q-20 0 -30 -11q-9 -11 -9 -23v-21v0zM510 65q60 0 112 23q51 22 91 61q39 39 61 91t22 111t-22 111t-61 91t-91 61t-112 22q-58 0 -110 -22t-90.5 -61t-61 -91t-22.5 -111t22 -111q23 -52 61.5 -91t90.5 -61q52 -23 110 -23v0zM510 65z" />
    <glyph glyph-name="chuweidadian" unicode="&#xe674;" 
d="M996 247v0q0 6 -12 18v0l-273 216v216q0 34 -25.5 59.5t-59.5 25.5h-228q-34 0 -59.5 -25.5t-25.5 -59.5v-216l-273 -216v0q-6 -6 -6 -12v-6v-5v-228q-4 -12 3 -20t20 -8h910q13 0 21 7.5t8 20.5v228v5zM370 697q0 13 7.5 20.5t20.5 7.5h228q13 0 20.5 -7.5t7.5 -20.5
v-199h-284v199zM353 441h318l216 -171h-750zM939 43h-854v170h854v-170z" />
    <glyph glyph-name="chufangdianqi" unicode="&#xe676;" 
d="M967 725h-171h-56h-683q-26 0 -41.5 -15.5t-15.5 -41.5v-568q0 -26 15.5 -41.5t41.5 -15.5h910q26 0 41.5 15.5t15.5 41.5v568q0 26 -15.5 41.5t-41.5 15.5zM57 668h683v-568h-683v568zM967 100h-171v568h171v-568zM882 583zM836 583q0 19 13.5 32.5t32.5 13.5t32 -13.5
t13 -32.5t-13 -32t-32 -13t-32.5 13t-13.5 32zM882 441zM836 441q0 19 13.5 32t32.5 13t32 -13t13 -32t-13 -32.5t-32 -13.5t-32.5 13.5t-13.5 32.5z" />
    <glyph glyph-name="fuwuzhongxinb" unicode="&#xe623;" 
d="M910 -52q-61 25 -119 32t-106.5 -3t-82 -23.5t-69.5 -33.5v163q115 6 217 66.5t156 154.5q67 104 86.5 235t-24.5 226q-7 14 -113 14q-96 0 -151 -32q-38 63 -73.5 92t-84.5 50q-14 7 -39 7q-22 0 -35 -6q-53 -20 -90 -51t-71 -91q-56 31 -150 31q-91 0 -107 -34
q-40 -94 -24.5 -217t79.5 -223q53 -93 165.5 -154t230.5 -68v-163q-33 19 -75.5 33.5t-98 24t-121 2.5t-126.5 -32q-4 -1 -7.5 -1.5t-5 -0.5t-2.5 -1t-0.5 -2.5t2.5 -5.5v0q5 -9 14.5 -12.5t18.5 0.5q54 21 108 27t95 0t80.5 -20.5t62 -27.5t42.5 -26q7 -6 16 -6t16 6
q20 13 42.5 26t62 27.5t80.5 20.5t95.5 0t107.5 -27q9 -4 18.5 -0.5t14.5 12.5v0q2 4 2.5 5.5t-0.5 2.5t-2.5 1t-5 0.5t-7.5 1.5h-22v0zM129 325q-61 95 -77 212.5t20 204.5q18 8 65 8q126 0 152 -28l22 -22l22 44q48 60 79.5 85t78.5 43q5 2 15 2t18 -2l2 -1
q50 -21 84.5 -51.5t74.5 -103.5l19 -35l26 31q13 17 55 27.5t93 10.5q47 0 66 -8q36 -87 19.5 -205t-77.5 -213q-53 -92 -158.5 -150.5t-219.5 -58.5v-8v0v8q-114 0 -220 58.5t-159 151.5v0zM129 325z" />
    <glyph glyph-name="zhiding1" unicode="&#xe620;" 
d="M612 -5h-208q-23 0 -40 17t-17 40v200h-1h-108q-31 0 -41 23.5t11 45.5l260 279q16 18 40 18t41 -18l260 -279q21 -22 11 -45.5t-41 -23.5h-108h-1v-200q0 -23 -17 -40t-41 -17zM274 309h72q24 0 41 -17t17 -40v-200v0h208h1v200q0 23 17 40t41 17h72l-235 252zM788 661
h-559q-12 0 -20.5 8.5t-8.5 20.5t8.5 20t20.5 8h559q12 0 20.5 -8t8.5 -20t-8.5 -20.5t-20.5 -8.5z" />
    <glyph glyph-name="tejia" unicode="&#xe798;" 
d="M891 571q2 8 2 16v146q0 35 -32 66.5t-67 31.5h-148q-24 0 -51 -8t-46 -22q-16 -9 -26 -19l-367 -362q-25 -25 -25 -60t25 -59l194 -179q25 -24 74 -24t74 24l370 367q34 34 23 82zM550 432l57 -57l-29 -30l-57 57l-43 -43l57 -57l-28 -28l-58 57l-57 -58l-58 58l57 57
l-58 59l28 29l59 -59l43 43l-59 59l29 29l59 -59l47 188l38 -37l-39 -164l162 40l37 -36zM818.5 659.5q-16.5 -16.5 -49 -16.5t-49.5 16.5t-17 49t17 49t49.5 16.5t49 -16.5t16.5 -49t-16.5 -49zM352 45q20 -22 44 -30.5t52 -1.5t53 33l300 298l-186 -354
q-16 -30 -52.5 -45.5t-65.5 -0.5l-235 116q-15 8 -24 15.5t-14.5 18.5t-4 26.5t10.5 36.5l122 -112v0z" />
    <glyph glyph-name="xiuxianyule" unicode="&#xe619;" 
d="M739 552l-256 -236v-218q79 -3 131 -18t52 -35q0 -10 -13 -16t-45 -8.5t-57.5 -3t-78.5 -0.5h-21h-21q-54 0 -79.5 0.5t-57.5 3t-45 8.5t-13 16q0 20 52 35t130 18v217l-255 237q-10 9 -10 21.5t10 21.5h577q9 -9 9 -21.5t-9 -21.5zM723 363h-18q-15 2 -24 13t-7.5 25
t12.5 23.5t25 7.5h12q50 0 85.5 35.5t35.5 85.5t-35.5 86t-85.5 36q-47 0 -82 -31q-10 -10 -24.5 -9.5t-24 11.5t-9 25t11.5 24q54 49 128 49q79 0 135 -56t56 -135t-56 -134.5t-135 -55.5z" />
    <glyph glyph-name="zhoubianyou" unicode="&#xe61e;" horiz-adv-x="1025" 
d="M512 896q-104 0 -198.5 -40.5t-163 -109t-109 -163.5t-40.5 -199t40.5 -198.5t109 -163t163 -109t198.5 -40.5t199 40.5t163.5 109t109 163t40.5 198.5t-40.5 199t-109 163.5t-163.5 109t-199 40.5zM369 628q31 0 53 -22t22 -53t-22 -53.5t-53 -22.5t-53.5 22.5
t-22.5 53.5t22.5 53t53.5 22zM791 212q-14 -24 -41 -24h-482q-13 0 -20 5t-13 17t-4 27.5t10 26.5l106 125q21 26 44.5 26.5t41.5 -20.5l41 -49q22 -19 39 -19q16 0 34 31l64 97q13 25 39 25q29 0 43 -24l97 -196q14 -24 1 -48z" />
    <glyph glyph-name="bingxiang" unicode="&#xe60e;" 
d="M806 896h-582q-30 0 -53.5 -22t-23.5 -55v-870q0 -30 22 -53.5t55 -23.5h582q30 0 50.5 22t20.5 55v870q0 33 -20.5 55t-50.5 22zM192 819q0 15 9 23.5t23 8.5h582q26 0 26 -32v-352h-640v352zM832 -51q0 -32 -26 -32h-582q-14 0 -23 8.5t-9 23.5v480h640v-480zM749 723
q-19 0 -19 -19v-83q0 -19 19 -19t19 19v83q0 19 -19 19zM749 109q19 0 19 19v83q0 19 -19 19t-19 -19v-83q-5 -9 1.5 -14t17.5 -5z" />
    <glyph glyph-name="jifenshangcheng" unicode="&#xe626;" 
d="M955 510h-1v1v1v0q0 2 -1 3l-83 181v0q-8 22 -29 36.5t-48 14.5h-563q-27 0 -47 -13.5t-28 -35.5v-1l-85 -183v-3v-1v0q-8 -21 -8 -44q0 -38 21 -71t57 -52l6 -3q29 -13 67 -13q34 0 78 18t65 41l6 6l6 -6q71 -55 145 -55q83 1 142 55l5 6l6 -6q21 -23 66 -41t79 -18
q42 1 72 16q37 19 58 52t21 72q0 22 -7 43zM863 390q-22 -11 -52 -11t-68.5 16.5t-52.5 38.5h-1v1q-3 6 -6 9q-10 11 -22 11q-13 0 -22 -11h-1q-3 -3 -6 -9v-1v0q-15 -22 -52.5 -39.5t-66.5 -17.5t-68.5 18t-53.5 40v0l-1 1q-1 3 -7 9v0q-10 11 -21 11q-12 0 -21 -10v0
q-5 -5 -8 -11v0v-1q-15 -21 -49.5 -37.5t-64.5 -16.5q-28 0 -49 10v0l-2 1q-50 25 -50 79q0 17 6 33l1 1v1l77 166q4 11 10 15.5t19 4.5h558q20 -1 28 -22l82 -167v0q0 -1 0.5 -1.5t0.5 -1.5q6 -16 6 -32q0 -30 -9 -47t-34 -30zM791 -7h-555q-26 0 -44 15.5t-18 40.5v209
q0 15 7.5 24.5t21 9.5t21.5 -9.5t8 -24.5v-209h560v209q0 15 8 24.5t21.5 9.5t22.5 -9.5t9 -24.5v-209q0 -25 -18 -40.5t-44 -15.5zM746 552h-470q-12 0 -20 8.5t-8 20t8 19.5t20 8h470q11 0 19.5 -8t8.5 -19.5t-8.5 -20t-19.5 -8.5z" />
    <glyph glyph-name="huochepiao" unicode="&#xe638;" 
d="M376 52h301q7 0 12 -5t5 -12v-17q0 -6 -5 -11t-12 -5h-301q-7 0 -12 5t-5 11v17q0 7 5 12t12 5zM710 375q-21 0 -35.5 -15t-14.5 -36t14.5 -36t35.5 -15t35.5 15t14.5 36t-14.5 36t-35.5 15zM760 596q0 15 -9.5 25t-23.5 10h-401q-14 0 -23.5 -10t-9.5 -25v-136
q0 -14 9.5 -24t23.5 -10h401q14 0 23.5 10t9.5 24v136zM342.5 273q20.5 0 35.5 15t15 36t-15 36t-35.5 15t-35.5 -15t-15 -36q1 -21 15.5 -36t35 -15zM845 -28q-12 -7 -24.5 -3.5t-18.5 15.5l-69 120q-8 -1 -17 -1h-378q-9 0 -17 1l-69 -120q-7 -12 -19.5 -15.5t-23.5 3.5
q-12 6 -15 19t3 25l64 113q-26 18 -39.5 47.5t-11.5 63.5l24 366q3 48 32 79t77 31h100q0 36 24.5 60.5t59 24.5t59 -24.5t24.5 -60.5h117q85 0 92 -110l24 -366q3 -34 -11 -63.5t-40 -47.5l64 -113q7 -12 3.5 -25t-14.5 -19z" />
    <glyph glyph-name="tongxunlu1" unicode="&#xe63e;" 
d="M14 -60h996v-58h-996v58zM897 236q-85 104 -211 151q35 26 60 62q49 72 49 158q0 116 -82 197.5t-197 81.5t-196.5 -81.5t-81.5 -197.5q0 -86 48 -156q24 -36 58 -62q-128 -46 -215 -151q-55 -67 -85 -149t-30 -169h62q0 157 97 276.5t249 149.5l-2 32l-3 30
q-59 24 -88.5 77t-29.5 122q0 90 64 153.5t153.5 63.5t153 -63.5t63.5 -153.5q0 -69 -31.5 -122t-91.5 -78l-1 -31l-1 -30q150 -32 245 -151.5t95 -274.5h62q0 86 -29 168t-84 148z" />
    <glyph glyph-name="arr-up" unicode="&#xe662;" horiz-adv-x="1000" 
d="M143 191l336 458l335 -458h-671z" />
    <glyph glyph-name="huawei" unicode="&#xe607;" horiz-adv-x="1332" 
d="M569 891h-11.5t-29.5 -4t-42.5 -11.5t-46 -25t-44.5 -41.5q-75 -97 15 -291q15 -31 65.5 -116t95 -155.5t47.5 -74.5q5 -4 9.5 -3t4.5 5q1 16 4.5 108.5t5.5 213t-6 167.5q-7 44 -22.5 98.5t-28 89t-16.5 40.5v0zM202 711q-8 -1 -31.5 -25.5t-48 -67t-27.5 -80.5
q-6 -64 23.5 -111.5t106.5 -98.5q48 -34 132 -83.5t149.5 -83t67.5 -27.5q4 8 -54.5 112t-120.5 202q-58 93 -123 178.5t-74 84.5v0zM234 -73q18 -8 39.5 -8.5t44 5.5t42.5 13.5t40 19t31.5 18.5t22.5 14l84 64l-417 -11q2 -3 5 -9t14 -22t23 -30t31.5 -29.5t39.5 -24.5v0z
M245 264q-29 14 -89.5 46.5t-101.5 54t-43 20.5q-5 -1 -9.5 -30t1 -76t27.5 -83q17 -28 42 -49.5t52.5 -34t48.5 -18.5t41 -9q23 -4 105 -4.5t154 1.5t71 5q-1 2 -59.5 38t-132 78.5t-107.5 60.5v0zM936 809q-19 24 -44 41.5t-47 25t-41 11.5t-30 4h-12q-4 -6 -16.5 -40.5
t-28 -89t-22.5 -98.5q-8 -47 -6 -168t5.5 -213t4.5 -108q0 -4 4.5 -5t9.5 3q4 4 48 74.5t94.5 155.5t65.5 116q90 194 15 291v0zM1320 385q-2 1 -43 -20.5t-101 -54t-90 -46.5q-34 -18 -107.5 -60.5t-132 -78.5t-59.5 -38q-1 -3 71.5 -5t154.5 -1.5t104 4.5q20 3 41 9
t48.5 18.5t53 34t41.5 49.5q22 36 27.5 83t1 76t-9.5 30v0zM877 -11q11 -7 22.5 -14t32 -18.5t40.5 -19t42 -13.5t43.5 -5.5t39.5 8.5q33 14 61 43.5t40 49.5t12 22l-417 11q55 -41 84 -64v0v0zM1237 538q-4 38 -28.5 80.5t-48 67t-30.5 25.5q-10 1 -74.5 -84.5
t-123.5 -178.5q-62 -98 -120 -202t-55 -112q2 -6 67.5 27.5t149.5 83t133 83.5q76 51 106 98.5t24 111.5v0z" />
    <glyph glyph-name="wodetaobao" unicode="&#xe6e1;" 
d="M764 81q-9 0 -16 6q-55 45 -171 56q-10 1 -17 8.5t-7 17.5v53q0 18 16 24q57 20 91.5 72.5t34.5 116.5q0 83 -54.5 142t-131.5 59t-131.5 -59t-54.5 -142q0 -65 35 -117.5t93 -72.5q17 -7 17 -25v-53q0 -10 -6.5 -17.5t-16.5 -8.5q-112 -9 -169 -54q-8 -7 -18 -5.5
t-17 10t-6 18.5t10 17q58 48 172 64v14q-66 28 -106 91t-40 139q0 104 70 178t168 74t167.5 -73.5t69.5 -178.5q0 -75 -38.5 -137.5t-103.5 -92.5v-14q116 -15 175 -64q9 -7 10 -17.5t-6 -18.5q-7 -10 -19 -10z" />
    <glyph glyph-name="left" unicode="&#xe6ec;" 
d="M745 -54q11 11 11 26.5t-11 25.5l-387 383l385 389q11 11 11 26.5t-11 26t-26.5 10.5t-26.5 -11l-409 -412q0 -1 -0.5 -1.5l-0.5 -0.5l-0.5 -0.5l-0.5 -0.5q-11 -11 -11 -26v0q0 -16 11 -27l413 -409q11 -10 26.5 -10t26.5 11v0z" />
    <glyph glyph-name="shequ1" unicode="&#xe6db;" 
d="M862 384q0 116 -68 210q-8 11 -21 13t-24 -5.5t-13 -20.5t6 -24q56 -78 56 -173t-56 -173q-8 -11 -6 -24t13 -20q9 -6 19 -6q16 0 26 13q68 94 68 210zM271.5 601.5q-10.5 7.5 -23.5 5.5t-21 -13q-68 -94 -68 -210t68 -210q10 -13 26 -13q10 0 19 6q10 7 12.5 20t-5.5 24
q-56 78 -56 173t56 173q8 11 5.5 24t-13 20.5zM850 756q-9 10 -22 11t-23 -8t-11 -22t8 -23q60 -69 92 -154t32 -176t-32 -176t-92 -154q-9 -10 -8 -23t11 -22q9 -8 21 -8q14 0 24 11q68 78 104 174t36 198t-36 198.5t-104 173.5zM98 384q0 91 32 176t92 154q9 10 8 23
t-11 22t-23 8t-22 -11q-68 -77 -104 -173.5t-36 -198.5t36 -198.5t104 -173.5q10 -11 24 -11q12 0 21 8q10 9 11 22t-8 23q-60 69 -92 154t-32 176zM513.5 607q-92.5 0 -158 -65.5t-65.5 -157.5q0 -47 19.5 -90.5t55.5 -75.5q9 -9 22.5 -8.5t22 10.5t8 23.5t-10.5 21.5
q-53 48 -53 119q0 66 46.5 113t113 47t113 -47t46.5 -113t-46.5 -113t-113.5 -47h-11q-22 0 -30 -21q-11 -32 -36 -58q-9 -9 -9 -22.5t9.5 -22.5t22.5 -9q14 0 23 10q26 27 42 60q89 4 151 68.5t62 154.5q0 92 -65.5 157.5t-158 65.5z" />
    <glyph glyph-name="zhaoxiangji" unicode="&#xe6d4;" 
d="M495 482q-73 0 -125 -51.5t-52 -124.5t51.5 -124.5t125.5 -51.5q73 0 124.5 51.5t51.5 124.5t-51.5 124.5t-124.5 51.5zM495 482zM917 615h-184q-6 16 -12.5 32t-18.5 38t-28 36t-33 14h-292q-16 0 -32 -14t-28 -36t-19.5 -38.5t-13.5 -31.5h-183q-26 0 -44.5 -19.5
t-18.5 -46.5v-513q0 -27 18.5 -46.5t44.5 -19.5h844q26 0 44 19.5t18 46.5v512q0 28 -18.5 47.5t-43.5 19.5zM495 87q-92 0 -156.5 64t-64.5 155.5t64.5 156t156 64.5t156 -64.5t64.5 -155.5t-64.5 -155.5t-155.5 -64.5zM809.5 482q-15.5 0 -26 11t-10.5 26.5t10.5 26
t26 10.5t26.5 -10.5t11 -26t-11 -26.5t-26.5 -11zM810 482zM225 671.5q0 -10.5 -7 -17.5t-17 -7h-110q-10 1 -17 8t-7 17t7 17t17 7h110q10 0 17 -7t7 -17.5zM225 672z" />
    <glyph glyph-name="shengyin-copy" unicode="&#xe62e;" 
d="M776 520q-16 25 -44 53q-7 7 -18.5 6.5t-18.5 -9.5q-7 -7 -6.5 -18.5t9.5 -18.5l9 -9q16 -16 25 -35q91 -137 -37 -269q-7 -7 -7 -19t7 -18.5t18.5 -6.5t18.5 7q53 57 73.5 116.5t12 114t-41.5 106.5zM884 641q-16 25 -53 69q-4 5 -8.5 9.5t-9.5 8.5t-7 6q-6 8 -18 7
t-19 -10q-7 -7 -6.5 -18.5t9.5 -18.5q1 -1 5 -4t8.5 -7.5t8.5 -10.5q31 -37 47 -62q169 -256 -69 -502q-7 -7 -7 -18.5t7 -18.5t19 -7t19 7q92 96 128 197t20.5 192.5t-74.5 180.5zM484 796l-211 -180h-105q-42 0 -73.5 -30.5t-31.5 -74.5v-263q0 -45 30.5 -75.5t74.5 -30.5
h93l223 -176q40 -31 71 -15.5t31 64.5v732q0 51 -32.5 66.5t-69.5 -17.5zM534 18q0 -16 -3.5 -17.5t-15.5 8.5l-229 180q-6 6 -16 6h-102q-21 0 -37 16t-16 37v263q0 21 16 37t37 16h115q9 0 15 6l217 186q12 9 14 8.5t2 -14.5v-732h3z" />
    <glyph glyph-name="sou" unicode="&#xe600;" 
d="M873 77v0v0v0q10 -12 10 -26q0 -15 -11 -27q-11 -11 -27 -11v0q-7 0 -13 2q-9 3 -16 11v-1l-204 206q-74 -52 -165 -52q-9 0 -19 1q-18 1 -35 6q-56 3 -117 51q-41 24 -77 87q-29 49 -35 109l-1 -1q-2 16 -2 32q0 4 0 3q0 25 5 50q10 67 52 122q10 20 40 44.5t66 40.5
l-10 -3q10 7 41 18q43 16 92 16v0q20 0 38 -3q49 -6 94 -29q73 -39 113 -109l-2 7q11 -12 26 -54q20 -56 18 -113q-4 -95 -66 -171l206 -206h-1v0zM691 455v13q0 46 -18 88q-19 53 -61 91q-8 7 0 -1q-5 5 -10 9q-47 40 -108 52q-15 3 0 1q-24 3 -45 3q-15 0 -30 -2
q-2 0 -6 -1h-5q-66 -11 -116 -53q-19 -12 -39.5 -41t-32.5 -64q-1 3 -3 -3q-10 -24 -12 -69q-3 -62 23 -115q31 -69 97 -106q0 -3 12 -9.5t34 -13t44 -9.5q1 -2 11.5 -2.5t28 0t33.5 3.5q46 8 84 31q7 2 27 18.5t37 37.5l-1 -4q12 11 33 53q2 3 3 7l-14 -26q4 7 8 15v0
q25 48 26 104v-7z" />
    <glyph glyph-name="zhengfangxinggouxuankuangweixuanzhong" unicode="&#xe612;" 
d="M164 732v-696h696v696h-696zM837 59h-650v650h650v-650z" />
    <glyph glyph-name="guanfan" unicode="&#xe613;" 
d="M295 243v86h433v-30h68v261h-570v-619h69v52h467v-53h68v303h-535zM106 543h70v101h672v-101h70v162h-376l42 25q-37 59 -67 98l-62 -35q29 -41 56 -88h-405v-162zM762 52h-467v131h467v-131zM728 388h-433v112h433v-112z" />
    <glyph glyph-name="Artboard" unicode="&#xe692;" 
d="M979 255l7 30q-19 4 -63.5 9t-80.5 3q2 12 2 35q0 71 -40 132q0 8 -1.5 31.5t-10 71.5t-20.5 85q-2 8 -11 5q-14 -3 -28 -8.5t-26.5 -11.5t-24 -12t-20.5 -11.5t-16 -10t-11 -7.5l-4 -3q-59 20 -126 20t-126 -20q-2 3 -19 13.5t-49 26.5t-61 24q-10 3 -12 -5
q-13 -37 -21 -85.5t-9.5 -70.5t-1.5 -32q-40 -62 -40 -132q0 -13 2 -35q-46 2 -144 -12l7 -30q96 15 145 12q4 -15 10 -27q-38 -5 -82.5 -15.5t-59.5 -15.5q3 -11 12 -30q39 12 83 20.5t62 9.5q2 -4 14 -23q-36 -9 -80.5 -24.5t-54.5 -21.5q7 -14 17 -29q42 19 83.5 31
t60.5 14q47 -49 116 -77t148 -28t148 28t116 77q19 -2 60 -14t84 -31q6 9 17 29q-10 6 -55 21.5t-81 24.5q9 13 14 23q18 -1 61.5 -9.5t82.5 -20.5q8 19 12 30q-80 22 -140 31q7 17 10 27q50 3 145 -12zM646 239q0 -31 -22.5 -53.5t-52.5 -22.5q-21 0 -39 10.5t-27 28.5
q-22 -39 -66 -39q-31 0 -53 22t-22 54q-47 0 -80 32.5t-33 79.5t33 79.5t80 32.5t80 -32.5t33 -79.5q0 -36 -20 -65t-53 -41q-13 -5 -13.5 -21t8.5 -25q17 -17 41 -17q18 0 33 11t20 28q-21 6 -21 22q0 10 9.5 16.5t23.5 6.5t23.5 -6.5t9.5 -16.5q0 -16 -21 -22
q6 -17 21 -28t33 -11q23 0 40 17q9 9 9 25t-14 21q-32 12 -52.5 41t-20.5 65q0 47 33 79.5t80.5 32.5t80 -32t32.5 -79t-33 -80t-80 -33zM364 417q-8 0 -13.5 -5.5t-5.5 -12.5v-95q0 -7 5.5 -13t13 -6t13.5 6t6 13v95q0 7 -6 12.5t-13 5.5v0zM646.5 417q-7.5 0 -13.5 -5.5
t-6 -12.5v-95q0 -7 6 -13t13.5 -6t13 6t5.5 13v95q0 7 -5.5 12.5t-13 5.5z" />
    <glyph glyph-name="wodeshoucang" unicode="&#xe627;" 
d="M689 742q-50 0 -96 -20.5t-80 -57.5q-34 36 -80 57t-96 21q-99 0 -169 -70t-70 -169q0 -60 22 -120t55 -107t77 -91.5t83.5 -75t78.5 -56t59 -36t28 -14.5q7 -3 12 -3t12 3q8 4 28 14.5t59 36t78.5 56t83.5 75t77 91.5t55 107t22 120q0 99 -70 169t-169 70z" />
    <glyph glyph-name="huiyuan" unicode="&#xe64f;" 
d="M877.5 594q-21.5 0 -36.5 -15.5t-15 -36.5q0 -11 4 -21l-170 -70l-119 205q22 15 22 43q0 21 -15 36.5t-36.5 15.5t-37 -15.5t-15.5 -36.5q0 -27 22 -43l-132 -205l-155 69q5 11 5 22q0 21 -15.5 36.5t-37 15.5t-36.5 -15.5t-15 -36.5q0 -22 14.5 -37t35.5 -15l81 -348
q2 -10 10 -16.5t19 -6.5h513q10 0 18 6.5t10 16.5l81 348h1q21 0 36.5 15t15.5 36.5t-15.5 37t-37 15.5zM745 177h-467l-63 270l133 -60q10 -4 20.5 -1t15.5 12l126 195l113 -194q5 -9 15.5 -12.5t20.5 0.5l149 62zM762 76h-502q-12 0 -20.5 -8.5t-8.5 -20.5t8.5 -20.5
t20.5 -8.5h502q12 0 20.5 8.5t8.5 20.5t-8.5 20.5t-20.5 8.5z" />
    <glyph glyph-name="chuyidong" unicode="&#xe62f;" 
d="M512 454l-258 258q-14 15 -34.5 15t-35.5 -15t-15 -35.5t15 -34.5l258 -258l-258 -258q-15 -14 -15 -34.5t14.5 -35.5t35.5 -15t35 15l258 258l258 -258q14 -15 34.5 -15t35.5 14.5t15 35.5t-15 35l-258 258l258 258q15 14 15 34.5t-14.5 35.5t-35.5 15t-35 -15
l-258 -258v0z" />
  </font>
</defs>
</svg>
