<?xml version="1.0" standalone="no"?>
<!DOCTYPE svg PUBLIC "-//W3C//DTD SVG 1.1//EN" "http://www.w3.org/Graphics/SVG/1.1/DTD/svg11.dtd" >
<!--
2013-9-30: Created.
-->
<svg>
<metadata>
Created by iconfont
</metadata>
<defs>

<font id="iconfont" horiz-adv-x="1024" >
  <font-face
    font-family="iconfont"
    font-weight="500"
    font-stretch="normal"
    units-per-em="1024"
    ascent="896"
    descent="-128"
  />
    <missing-glyph />
    
    <glyph glyph-name="goods" unicode="&#59085;" d="M934.4 608c0 16-16 28.8-32 28.8h-137.6c-25.6 108.8-124.8 188.8-240 188.8h-19.2c-115.2 0-214.4-80-240-188.8h-137.6c-19.2 3.2-32-9.6-32-28.8l-28.8-553.6v-3.2c6.4-67.2 60.8-115.2 124.8-115.2h649.6c64 0 118.4 51.2 121.6 115.2v3.2l-28.8 553.6zM838.4 0h-646.4c-28.8 0-54.4 22.4-57.6 54.4l22.4 521.6h102.4v-134.4c-19.2-9.6-32-32-32-54.4 0-35.2 28.8-64 64-64s64 28.8 64 64c0 22.4-12.8 44.8-32 54.4v140.8c0 102.4 83.2 182.4 182.4 182.4h19.2c102.4 0 182.4-83.2 182.4-182.4v-144c-19.2-9.6-32-32-32-54.4 0-35.2 28.8-64 64-64s64 28.8 64 64c0 22.4-12.8 44.8-32 54.4v137.6h99.2l25.6-521.6c0-32-25.6-54.4-57.6-54.4zM611.2 640h-192c-19.2 0-32-12.8-32-32s12.8-32 32-32h192c19.2 0 32 12.8 32 32s-12.8 32-32 32z"  horiz-adv-x="1024" />

    
    <glyph glyph-name="tianjia" unicode="&#58880;" d="M934.950293-60.242803 813.230196-60.242803c-11.211802 0-20.28583 9.112542-20.28583 20.286022 0 11.212366 9.074028 20.286022 20.28583 20.286022l101.433243 0 0 101.429087c0 11.211343 9.074028 20.284999 20.286853 20.284999 11.173938 0 20.286853-9.073656 20.286853-20.284999L955.237146-39.956781C955.237146-51.130262 946.124231-60.242803 934.950293-60.242803zM934.950293 183.187415c-11.212825 0-20.286853 9.113565-20.286853 20.286022L914.663439 325.189569c0 11.211343 9.074028 20.284999 20.286853 20.284999 11.173938 0 20.286853-9.073656 20.286853-20.284999l0-121.716132C955.237146 192.30098 946.124231 183.187415 934.950293 183.187415zM934.950293 426.617633c-11.212825 0-20.286853 9.113565-20.286853 20.286022L914.663439 568.619788c0 11.212366 9.074028 20.284999 20.286853 20.284999 11.173938 0 20.286853-9.072633 20.286853-20.284999l0-121.715109C955.237146 435.731198 946.124231 426.617633 934.950293 426.617633zM934.950293 670.047852c-11.212825 0-20.286853 9.112542-20.286853 20.286022l0 101.429087-101.433243 0c-11.211802 0-20.28583 9.112542-20.28583 20.286022 0 11.212366 9.074028 20.286022 20.28583 20.286022l121.720096 0c11.173938 0 20.286853-9.073656 20.286853-20.286022l0-121.714086C955.237146 679.161417 946.124231 670.047852 934.950293 670.047852zM691.5101-60.242803 569.78898-60.242803c-11.211802 0-20.284807 9.112542-20.284807 20.286022 0 11.212366 9.073004 20.286022 20.284807 20.286022l121.72112 0c11.172915 0 20.286853-9.073656 20.286853-20.286022C711.797977-51.130262 702.683015-60.242803 691.5101-60.242803zM691.5101 791.762961 569.78898 791.762961c-11.211802 0-20.284807 9.112542-20.284807 20.286022 0 11.212366 9.073004 20.286022 20.284807 20.286022l121.72112 0c11.172915 0 20.286853-9.073656 20.286853-20.286022C711.797977 800.875502 702.683015 791.762961 691.5101 791.762961zM668.68739 426.617633c22.386764 0 40.573707-18.146289 40.573707-40.571021 0-22.385846-18.186943-40.571021-40.573707-40.571021L546.967294 345.475592l0-121.716132c0-22.385846-18.186943-40.571021-40.573707-40.571021-22.425651 0-40.572683 18.185174-40.572683 40.571021L465.820904 345.475592 344.100808 345.475592c-22.426674 0-40.572683 18.185174-40.572683 40.571021 0 22.424732 18.147032 40.571021 40.572683 40.571021l121.720096 0L465.820904 548.332742c0 22.424732 18.147032 40.571021 40.572683 40.571021 22.386764 0 40.573707-18.146289 40.573707-40.571021l0-121.715109L668.68739 426.617633zM448.069907 791.762961 326.349811 791.762961c-11.212825 0-20.28583 9.112542-20.28583 20.286022 0 11.212366 9.073004 20.286022 20.28583 20.286022l121.720096 0c11.172915 0 20.286853-9.073656 20.286853-20.286022C468.356761 800.875502 459.243846 791.762961 448.069907 791.762961zM204.630738-60.242803 82.910642-60.242803c-11.213849 0-20.286853 9.112542-20.286853 20.286022L62.623789 81.759351c0 11.211343 9.073004 20.284999 20.286853 20.284999 11.192358 0 20.28583-9.073656 20.28583-20.284999l0-101.429087 101.434266 0c11.193382 0 20.28583-9.073656 20.28583-20.286022C224.916568-51.130262 215.82412-60.242803 204.630738-60.242803zM204.630738 791.762961l-101.434266 0 0-101.429087c0-11.17348-9.093471-20.286022-20.28583-20.286022-11.213849 0-20.286853 9.112542-20.286853 20.286022L62.623789 812.048983c0 11.212366 9.073004 20.286022 20.286853 20.286022l121.720096 0c11.193382 0 20.28583-9.073656 20.28583-20.286022C224.916568 800.875502 215.82412 791.762961 204.630738 791.762961zM82.910642 588.904787c11.192358 0 20.28583-9.072633 20.28583-20.284999l0-121.715109c0-11.172457-9.093471-20.286022-20.28583-20.286022-11.213849 0-20.286853 9.113565-20.286853 20.286022L62.623789 568.619788C62.623789 579.832154 71.696793 588.904787 82.910642 588.904787zM82.910642 345.475592c11.192358 0 20.28583-9.073656 20.28583-20.284999l0-121.716132c0-11.172457-9.093471-20.286022-20.28583-20.286022-11.213849 0-20.286853 9.113565-20.286853 20.286022L62.623789 325.189569C62.623789 336.400912 71.696793 345.475592 82.910642 345.475592zM326.349811-19.669736l121.720096 0c11.172915 0 20.286853-9.073656 20.286853-20.286022 0-11.17348-9.112915-20.286022-20.286853-20.286022L326.349811-60.24178c-11.212825 0-20.28583 9.112542-20.28583 20.286022C306.063981-28.744415 315.136986-19.669736 326.349811-19.669736z"  horiz-adv-x="1024" />

    
    <glyph glyph-name="more" unicode="&#59709;" d="M731.646 390.344l-396.625 403.531-36.064-36.687 396.625-403.531-360.563-366.843 36.064-36.687 396.625 403.531z"  horiz-adv-x="1024" />

    
    <glyph glyph-name="triangle-right" unicode="&#58924;" d="M817.088 411.040l-512 323.744c-9.856 6.24-22.336 6.624-32.512 0.992-10.24-5.632-16.576-16.384-16.576-28.032v-647.328c0-11.648 6.336-22.4 16.576-28.032 4.8-2.656 10.112-3.968 15.424-3.968 5.952 0 11.904 1.664 17.088 4.928l512 323.616c9.28 5.856 14.912 16.064 14.912 27.040s-5.632 21.184-14.912 27.040z"  horiz-adv-x="1024" />

    
    <glyph glyph-name="triangle-left" unicode="&#58925;" d="M270.912 411.040l512 323.744c9.856 6.24 22.336 6.624 32.512 0.992 10.24-5.632 16.576-16.384 16.576-28.032v-647.328c0-11.648-6.336-22.4-16.576-28.032-4.8-2.656-10.112-3.968-15.424-3.968-5.952 0-11.904 1.664-17.088 4.928l-512 323.616c-9.28 5.856-14.912 16.064-14.912 27.040s5.632 21.184 14.912 27.040z"  horiz-adv-x="1024" />

    
    <glyph glyph-name="shangpu" unicode="&#58918;" d="M895.668 337.111C825.084 337.111 767.8 393 767.8 462.081c0-69.074-57.294-124.969-127.866-124.969-70.573 0-127.891 55.889-127.891 124.969 0-69.074-57.276-124.969-127.867-124.969-70.589 0-127.866 55.889-127.866 124.969 0-69.074-57.277-124.969-127.888-124.969C57.847 337.111 0.554 393 0.554 462.081l87.631 228.792 844.395 0 90.867-228.792C1023.558 393 966.257 337.111 895.668 337.111L895.668 337.111 895.668 337.111 895.668 337.111 895.668 337.111zM932.339 692.092l3.638-1.198-3.311 0L932.339 692.092 932.339 692.092 932.339 692.092zM877.333 757.389 146.67 757.389c-24.118 0-43.826 17.825-43.826 39.896 0 21.999 19.615 39.825 43.826 39.825l730.663 0c24.318 0 44.022-17.853 44.022-39.825C921.356 775.187 901.652 757.389 877.333 757.389L877.333 757.389 877.333 757.389 877.333 757.389 877.333 757.389zM161.331 259.518l0-262.801 701.522 0L862.853 259.518c0 0 9.979 0.34 14.476 0l58.648 0 0-275.931c0-23.157-29.828-52.696-56.229-52.696L144.524-69.109c-26.585 0-56.236 29.539-56.236 52.696L88.288 259.518l73.023 0L161.331 259.518 161.331 259.518z"  horiz-adv-x="1024" />

    
    <glyph glyph-name="kefu" unicode="&#58940;" d="M516.667511 88.136693c5.004179 0 10.095748 0.308016 15.221701 0.916884 49.157857 5.899573 90.900417 40.259787 106.306927 87.609664 1.163296 3.541463-0.515747 7.336502-3.906784 8.892339-3.352356 1.561567-7.409566 0.212029-9.306369-2.965546-0.179079-0.302285-19.710133-31.848813-95.745574-42.117909-11.382251-1.527184-22.457919-2.328025-32.956236-2.328025-53.270939 0.034383-77.00963 20.112702-77.22739 20.297512-2.680452 2.383897-6.772045 2.445501-9.519831 0.123206-2.775006-2.322294-3.413959-6.358015-1.521454-9.446767C431.202495 111.522956 472.816118 88.136693 516.667511 88.136693L516.667511 88.136693zM516.667511 88.136693M925.504492 559.366173c-0.670471 0-1.280772-0.123206-1.918292-0.123206C879.03425 752.120901 708.803342 896 504.703612 896c-209.712777 0-383.850469-151.824469-422.446972-352.685021C44.728879 536.561558 16.165088 503.576669 16.165088 463.6865l0-159.653796c0-44.746787 35.883101-81.032457 80.188637-81.032457 24.992242 0 47.051889 11.802012 61.726326 29.927655 35.457609-93.781437 107.642139-169.397117 198.995267-209.293016 0.21776 0.475633 1.946945 3.83945 4.028557 6.519902 1.438361 1.858122 3.050071 3.379576 4.432559 3.379576 1.432631 0 2.747786-0.520045 3.872401-1.313722-21.142764 15.741746-97.51344 96.656727-114.056026 209.572379-7.257707 49.699391 29.967769 98.487629 73.322038 106.557638 69.600064 12.959577 138.836239 27.722836 208.436303 40.437434 44.243933 8.070009 74.479604 32.340205 92.969135 72.750419 4.332275 9.446767 10.588573 28.546599 13.459565 56.091789 0.760727 4.095891 4.118813 7.240515 8.422436 7.240515 2.870992 0 5.310762-1.465581 6.928202-3.575846l1.919725 1.191949c27.432012-39.827133 81.833297-128.012715 89.645432-220.999042 8.971133-106.311225 3.966954-179.124679-77.406468-253.615744-0.095986-0.094554-0.219192-0.212029-0.336668-0.308016-1.130346-1.219169-1.802249-2.807956-1.802249-4.554333 0-2.289344 1.220601-4.24775 2.988468-5.439699 0.671904-0.275065 1.343808-0.643251 2.015711-0.918316 0.547265-0.123206 1.068742-0.302285 1.61744-0.302285 0.552995 0 1.04009 0.179079 1.527184 0.302285 1.158998 0.610301 2.254961 1.315155 3.385306 1.925456 82.293172 45.335598 145.423475 121.045832 174.596134 212.108136 11.809175-17.543995 30.298706-30.16977 51.776705-34.573676C874.366739 79.429164 734.623645-18.634406 561.493092-33.519439c-10.375111 25.73721-35.916051 44.014712-65.91104 44.014712-39.173853 0-70.938141-31.026483-70.938141-69.264828 0-38.239778 31.758557-69.230445 70.938141-69.230445 31.585209 0 58.037302 20.291781 67.220464 48.172207 200.406408 16.290443 361.057315 135.410819 394.595199 320.495243 29.626803 12.38366 50.432898 41.450304 50.432898 75.380729L1007.830614 477.593046C1007.830614 522.743835 970.969026 559.366173 925.504492 559.366173L925.504492 559.366173zM851.573585 512.961832C799.305488 654.551588 663.860285 755.698179 504.524533 755.698179c-158.669579 0-293.627687-100.289878-346.382879-240.96275-2.624579 3.211958-5.703303 5.959744-8.724721 8.741912C179.282985 694.900199 326.816725 825.23664 504.703612 825.23664c177.035904 0 324.10977-129.054237 354.955741-299.286578C856.610715 521.854171 853.801326 517.579201 851.573585 512.961832L851.573585 512.961832zM851.573585 512.961832M357.086779 43.634886c-0.005731 0-0.005731 0-0.011461 0C357.042368 43.563255 357.042368 43.551794 357.086779 43.634886L357.086779 43.634886zM357.086779 43.634886"  horiz-adv-x="1024" />

    
    <glyph glyph-name="order" unicode="&#58926;" d="M863.078419-128 160.921581-128c-35.267423 0-63.83244 28.565017-63.83244 63.704775L97.089141 736.738063c0 35.203591 28.596933 61.247226 63.83244 61.247226l223.413539 0 0-63.896272L192.837801 734.089016c-17.617753 0-31.91622-14.26655-31.91622-31.852387l0-734.679466c0-17.585837 14.298467-31.852387 31.91622-31.852387l638.324398 0c17.617753 0 31.91622 14.26655 31.91622 31.852387L863.078419 702.204713c0 17.617753-14.298467 31.884304-31.91622 31.884304l-191.49732 0L639.66488 797.985289l223.413539 0c35.235507 0 63.83244-26.043635 63.83244-61.247226l0-801.033288C926.910859-99.434983 898.313926-128 863.078419-128zM416.25134 511.026555l319.162199 0 0-64.151602L416.25134 446.874953 416.25134 511.026555zM416.25134 351.15821l319.162199 0.670241 0-64.534597L416.25134 287.293854 416.25134 351.15821zM735.413539 129.085151 416.25134 127.712754l0 63.83244 319.162199 0L735.413539 129.085151zM288.586461 510.739309l63.83244 0.989403 0-64.821843L288.586461 446.906869 288.586461 510.739309zM288.586461 352.530607l63.83244-1.372397 0-63.864356L288.586461 287.293854 288.586461 352.530607zM352.4189 127.712754l-63.83244 2.042638L288.586461 191.545194l63.83244 0L352.4189 127.712754zM703.49732 700.225907c17.64967 0 31.91622-14.26655 31.91622-31.852387s0-29.969331 0-29.969331L288.586461 638.404189c0 0 0 12.41541 0 29.969331s14.26655 31.852387 31.91622 31.852387l95.74866 0c0 0 0.382995 45.289116 0.382995 97.057225 0 53.778831 41.523002 98.716868 95.365665 98.716868s96.801895-47.236005 96.801895-99.03603C608.801895 741.23825 607.74866 700.225907 607.74866 700.225907L703.49732 700.225907zM512 800.442838c-17.64967 0-31.91622-16.787932-31.91622-34.373769 0-17.617753 14.298467-31.91622 31.91622-31.91622 17.64967 0 31.91622 14.298467 31.91622 31.91622C543.91622 783.62299 529.64967 800.442838 512 800.442838z"  horiz-adv-x="1024" />

    
    <glyph glyph-name="guanbi" unicode="&#58948;" d="M614.69312 384.00128l308.08448-308.09088c18.9056-18.8992 18.9056-49.55008 0-68.45824l-34.22976-34.22976c-18.9056-18.90688-49.56032-18.90688-68.45952 0L511.99872 281.3056l-308.0896-308.0832c-18.90048-18.90688-49.55008-18.90688-68.45568 0l-34.23488 34.22976c-18.90432 18.90816-18.90432 49.56032 0 68.45824l308.08576 308.09088L101.21856 692.0896c-18.90432 18.90048-18.90432 49.55008 0 68.45952l34.23488 34.22976c18.9056 18.9056 49.5552 18.9056 68.45568 0L511.99872 486.6944 820.08832 794.77888c18.90048 18.9056 49.5552 18.9056 68.45952 0l34.22976-34.22976c18.9056-18.90944 18.9056-49.56416 0-68.45952L614.69312 384.00128 614.69312 384.00128zM614.69312 384.00128"  horiz-adv-x="1024" />

    
    <glyph glyph-name="kehuguanli" unicode="&#58896;" d="M643.741463 470.063121c48.924269 39.563064 80.217996 100.063997 80.217996 167.883615 0 119.187543-96.620571 215.807091-215.807091 215.807091s-215.807091-96.620571-215.807091-215.807091c0-70.774927 34.069957-133.591601 86.702688-172.945911-125.351939-43.853787-218.120786-161.64554-218.120786-389.368008 0-37.59627 12.735046-42.537815 149.042501-42.537815 48.641837 0 113.039519 0.630357 198.182688 0.630357 102.618169 0 176.999227-1.166569 230.823086-1.166569 119.801527 0 137.656173 5.782703 137.656173 43.074028C876.631628 317.878047 789.400914 431.797609 643.741463 470.063121zM508.152369 789.018453c83.301218 0 151.071717-67.7705 151.071717-151.071717s-67.7705-151.071717-151.071717-151.071717-151.071717 67.7705-151.071717 151.071717S424.852174 789.018453 508.152369 789.018453zM738.975455 97.294163c-22.462594 0-48.529273 0.205685-78.764901 0.442068-42.158169 0.330528-92.343151 0.723477-152.058185 0.723477-48.613184 0-90.479711-0.204661-126.524648-0.381693-27.057239-0.132006-50.810223-0.248663-71.657017-0.248663-19.688411 0-58.048067 0-83.932598 1.614777 6.724145 210.395848 103.918791 321.387731 282.115286 321.387731 153.34755 0 295.571762-39.498596 303.365262-321.908594C787.664364 97.294163 753.10015 97.294163 738.975455 97.294163zM244.149603 420.271088l8.321526 0c16.645099 4.160763 24.966625 16.644075 24.966625 33.288151 0 16.645099-8.321526 29.128411-24.966625 33.289174-37.449937 16.644075-62.416562 54.094012-62.416562 95.705736 0 49.933249 29.128411 87.382163 74.898851 104.026238 8.322549 24.966625 20.805862 45.772486 33.289174 62.416562 0 4.160763 4.160763 8.322549 8.322549 12.483312-4.161786 0-4.161786 0-8.322549 0-99.865475 0-178.926112-79.059614-178.926112-178.926112 0-45.772486 16.644075-87.382163 45.771463-120.671337C73.545016 416.109302 11.128455 320.40459 11.128455 212.216565l0-54.094012c0-20.805862 16.644075-37.449937 37.449937-37.449937l62.416562 0c0 24.966625 4.160763 49.933249 8.322549 70.737064L81.867566 191.40968l0 20.805862C81.867566 312.08204 148.443867 395.304464 244.149603 420.271088L244.149603 420.271088 244.149603 420.271088M855.827813 466.041528c29.127388 33.289174 45.771463 74.898851 45.771463 120.671337 0 95.704712-79.059614 178.926112-178.926112 178.926112-4.160763 0-4.160763 0-8.322549 0 4.161786-8.321526 8.322549-12.483312 8.322549-16.644075 12.483312-20.805862 24.966625-41.6107 33.289174-62.416562 41.6107-12.483312 74.898851-54.094012 74.898851-99.865475 0-41.6107-24.966625-79.059614-62.416562-95.704712-12.483312-4.160763-24.966625-16.644075-24.966625-33.288151 0-16.645099 12.483312-29.128411 24.966625-33.289174l8.321526 0c95.704712-24.966625 162.282037-108.188025 162.282037-203.892737l0-20.805862L901.598252 199.73223c4.161786-24.966625 8.322549-45.772486 8.322549-70.739111l62.416562 0c20.805862 0 37.449937 16.645099 37.449937 37.449937l0 54.095036C1009.786277 320.40459 947.370739 416.109302 855.827813 466.041528L855.827813 466.041528 855.827813 466.041528M855.827813 466.041528 855.827813 466.041528z"  horiz-adv-x="1024" />

    
    <glyph glyph-name="guanbi1" unicode="&#58945;" d="M515.48672-109.35296c-272.34304 0-493.15328 220.9024-493.15328 493.36832S243.13856 877.35296 515.48672 877.35296C787.8656 877.35296 1008.64 656.4864 1008.64 384.01536S787.8656-109.35296 515.48672-109.35296L515.48672-109.35296zM777.01632 602.05056l-43.59168 43.61728-217.93792-218.0352L297.54368 645.66272l-43.61728-43.61728 217.94304-218.0352-217.94304-218.0352 43.61728-43.61216 217.94304 218.03008 217.93792-218.03008 43.59168 43.61216-217.94304 218.0352L777.01632 602.05056 777.01632 602.05056z"  horiz-adv-x="1024" />

    
    <glyph glyph-name="huiyuan" unicode="&#59141;" d="M512-128C229.2224-128 0 101.2224 0 384 0 666.7776 229.2224 896 512 896 794.7776 896 1024 666.7776 1024 384 1024 101.2224 794.7776-128 512-128ZM512 793.6C286.1568 793.6 102.4 609.8432 102.4 384 102.4 158.1568 286.1568-25.6 512-25.6 737.8432-25.6 921.6 158.1568 921.6 384 921.6 609.8432 737.8432 793.6 512 793.6ZM707.584 486.4C602.624 229.4272 512 25.6 512 25.6 512 25.6 421.3248 229.4272 316.416 486.4L204.8 486.4 204.8 588.8 460.8 588.8 460.8 486.4 426.8544 486.4C455.4752 416.6144 484.1472 347.904 512 282.4704 539.8528 347.904 568.5248 416.6144 597.1456 486.4L563.2 486.4 563.2 588.8 819.2 588.8 819.2 486.4 707.584 486.4Z"  horiz-adv-x="1024" />

    
    <glyph glyph-name="zengjia" unicode="&#58984;" d="M66.56 829.44v-890.88h890.88V829.44H66.56z m827.24352-827.24352H130.18624V765.80352h763.6224v-763.60704zM480.23552 415.74912H311.13728c-17.5616 0-32.01024-14.208-32.01024-31.74912 0-17.65888 14.33088-31.75936 32.01024-31.75936h169.09824v-169.09824c0-17.5616 14.22336-32.01024 31.75936-32.01024 17.664 0 31.75936 14.33088 31.75936 32.01024v169.09824h169.10848c17.5616 0 32 14.21824 32 31.75936 0 17.65888-14.32064 31.74912-32 31.74912h-169.10848V584.8576c0 17.56672-14.21312 32.02048-31.75936 32.02048-17.65376 0-31.75936-14.34112-31.75936-32.02048v-169.10848z"  horiz-adv-x="1024" />

    
    <glyph glyph-name="shanchu" unicode="&#58900;" d="M320.002822 320.008467h383.994356a63.991533 63.991533 0 0 1 0 127.983066H320.002822c-35.382756 0-63.991533-28.631356-63.991532-63.991533s28.608776-63.991533 63.991532-63.991533zM0 896v-1024h1024V896H0z m960.008467-960.008467H63.991533V832.008467h895.994355v-896.016934z"  horiz-adv-x="1024" />

    
    <glyph glyph-name="gaiicon-" unicode="&#59088;" d="M978.488889 736.711111c-5.688889 91.022222-79.644444 159.288889-170.666667 159.288889H227.555556C136.533333 896 62.577778 827.733333 56.888889 736.711111l-45.511111-682.666667c0-45.511111 17.066667-91.022222 45.511111-125.155555 34.133333-34.133333 79.644444-56.888889 125.155555-56.888889H853.333333c45.511111 0 91.022222 17.066667 125.155556 56.888889 34.133333 34.133333 51.2 79.644444 45.511111 125.155555l-45.511111 682.666667z m-85.333333-733.866667c-11.377778-11.377778-22.755556-17.066667-39.822223-17.066666H187.733333c-17.066667 0-28.444444 5.688889-39.822222 17.066666-11.377778 11.377778-17.066667 28.444444-17.066667 39.822223L170.666667 731.022222c0 28.444444 28.444444 51.2 56.888889 51.2h580.266666c28.444444 0 56.888889-22.755556 56.888889-51.2l45.511111-682.666666c0-17.066667-5.688889-34.133333-17.066666-45.511112zM802.133333 668.444444c0-28.444444-28.444444-56.888889-56.888889-56.888888H739.555556c-28.444444-96.711111-113.777778-170.666667-221.866667-170.666667-102.4 0-193.422222 73.955556-216.177778 170.666667h-11.377778c-28.444444 0-56.888889 28.444444-56.888889 56.888888s28.444444 56.888889 56.888889 56.888889h56.888889c28.444444 0 56.888889-28.444444 56.888889-56.888889 0-62.577778 51.2-113.777778 113.777778-113.777777s113.777778 51.2 113.777778 113.777777c0 28.444444 28.444444 56.888889 56.888889 56.888889h56.888888c34.133333 0 56.888889-28.444444 56.888889-56.888889z"  horiz-adv-x="1025" />

    
    <glyph glyph-name="shousuo" unicode="&#59028;" d="M315.076923 580.923077v-433.230769h433.230769V580.923077H315.076923z m0 39.384615h433.230769a39.384615 39.384615 0 0 0 39.384616-39.384615v-433.230769a39.384615 39.384615 0 0 0-39.384616-39.384616H315.076923a39.384615 39.384615 0 0 0-39.384615 39.384616V580.923077a39.384615 39.384615 0 0 0 39.384615 39.384615zM413.538462 384h236.307692a19.692308 19.692308 0 0 0 0-39.384615h-236.307692a19.692308 19.692308 0 0 0 0 39.384615z"  horiz-adv-x="1024" />

    
    <glyph glyph-name="zhankai" unicode="&#59029;" d="M315.076923 620.307692h433.230769a39.384615 39.384615 0 0 0 39.384616-39.384615v-433.230769a39.384615 39.384615 0 0 0-39.384616-39.384616H315.076923a39.384615 39.384615 0 0 0-39.384615 39.384616V580.923077a39.384615 39.384615 0 0 0 39.384615 39.384615z m0-39.384615v-433.230769h433.230769V580.923077H315.076923z m196.923077-196.923077v98.461538a19.692308 19.692308 0 1 0 39.384615 0V384h98.461539a19.692308 19.692308 0 1 0 0-39.384615H551.384615v-98.461539a19.692308 19.692308 0 1 0-39.384615 0V344.615385h-98.461538a19.692308 19.692308 0 1 0 0 39.384615H512z"  horiz-adv-x="1024" />

    
    <glyph glyph-name="xiala" unicode="&#58905;" d="M64 682.7h896L512 85.3 64 682.7z"  horiz-adv-x="1024" />

    
    <glyph glyph-name="gongsi" unicode="&#58881;" d="M932.6 17.7H889V584.9c0.1 6.3-3.5 12.1-9.1 15.1L629.7 731c-11.8 6.2-26.1-2.2-26.1-15.1v-698.3H573V815.1c0.1 11.9-12.1 20.1-23.8 16L167.5 694.2c-6.9-2.4-11.5-8.9-11.5-16v-660.5H92c-9.7 0-17.5-9.2-17.5-20.4v-40.7c0-11.2 7.8-20.4 17.5-20.4h840.6c9.7 0 17.5 9.1 17.5 20.4v40.7c0 11.2-7.8 20.4-17.5 20.4zM693.1 577.8c0 14.2 11.8 25.7 26.5 25.7H766c14.6 0 26.5-11.4 26.5-25.7v-17.1c0-14.2-11.8-25.7-26.5-25.7h-46.4c-14.6 0-26.5 11.4-26.5 25.7v17.1z m0-103.1c0 14.2 11.8 25.7 26.5 25.7H766c14.6 0 26.5-11.4 26.5-25.7v-17.1c0-14.2-11.8-25.7-26.5-25.7h-46.4c-14.6 0-26.5 11.4-26.5 25.7v17.1z m0-103.3c0 14.2 11.8 25.7 26.5 25.7H766c14.6 0 26.5-11.4 26.5-25.7v-17.1c0-14.2-11.8-25.7-26.5-25.7h-46.4c-14.6 0-26.5 11.4-26.5 25.7v17.1z m0-105.3c0 14.2 11.8 25.7 26.5 25.7H766c14.6 0 26.5-11.4 26.5-25.7V249c0-14.2-11.8-25.7-26.5-25.7h-46.4c-14.6 0-26.5 11.4-26.5 25.7v17.1z m0-100.1c0 14.2 11.8 25.7 26.5 25.7H766c14.6 0 26.5-11.4 26.5-25.7v-17.1c0-14.2-11.8-25.7-26.5-25.7h-46.4c-14.6 0-26.5 11.4-26.5 25.7V166zM394.4 678.5c0 14.2 11.8 25.7 26.5 25.7h46.4c14.7 0 26.5-11.4 26.5-25.7v-17.1c0-14.2-11.8-25.7-26.5-25.7h-46.4c-14.6 0-26.5 11.4-26.5 25.7v17.1z m0-100.7c0 14.2 11.8 25.7 26.5 25.7h46.4c14.7 0 26.5-11.4 26.5-25.7v-17.1c0-14.2-11.8-25.7-26.5-25.7h-46.4c-14.6 0-26.5 11.4-26.5 25.7v17.1z m0-103.1c0 14.2 11.8 25.7 26.5 25.7h46.4c14.7 0 26.5-11.4 26.5-25.7v-17.1c0-14.2-11.8-25.7-26.5-25.7h-46.4c-14.6 0-26.5 11.4-26.5 25.7v17.1z m0-103.3c0 14.2 11.8 25.7 26.5 25.7h46.4c14.7 0 26.5-11.4 26.5-25.7v-17.1c0-14.2-11.8-25.7-26.5-25.7h-46.4c-14.6 0-26.5 11.4-26.5 25.7v17.1z m0-105.3c0 14.2 11.8 25.7 26.5 25.7h46.4c14.7 0 26.5-11.4 26.5-25.7V249c0-14.2-11.8-25.7-26.5-25.7h-46.4c-14.6 0-26.5 11.4-26.5 25.7v17.1z m0-100.1c0 14.2 11.8 25.7 26.5 25.7h46.4c14.7 0 26.5-11.4 26.5-25.7v-17.1c0-14.2-11.8-25.7-26.5-25.7h-46.4c-14.6 0-26.5 11.4-26.5 25.7V166zM237.8 577.8c0 14.2 11.8 25.7 26.5 25.7h46.4c14.6 0 26.5-11.4 26.5-25.7v-17.1c0-14.2-11.8-25.7-26.5-25.7h-46.4c-14.6 0-26.5 11.4-26.5 25.7v17.1z m0-103.1c0 14.2 11.8 25.7 26.5 25.7h46.4c14.6 0 26.5-11.4 26.5-25.7v-17.1c0-14.2-11.8-25.7-26.5-25.7h-46.4c-14.6 0-26.5 11.4-26.5 25.7v17.1z m0-103.3c0 14.2 11.8 25.7 26.5 25.7h46.4c14.6 0 26.5-11.4 26.5-25.7v-17.1c0-14.2-11.8-25.7-26.5-25.7h-46.4c-14.6 0-26.5 11.4-26.5 25.7v17.1z m0-105.3c0 14.2 11.8 25.7 26.5 25.7h46.4c14.6 0 26.5-11.4 26.5-25.7V249c0-14.2-11.8-25.7-26.5-25.7h-46.4c-14.6 0-26.5 11.4-26.5 25.7v17.1z m0-100.1c0 14.2 11.8 25.7 26.5 25.7h46.4c14.6 0 26.5-11.4 26.5-25.7v-17.1c0-14.2-11.8-25.7-26.5-25.7h-46.4c-14.6 0-26.5 11.4-26.5 25.7V166z"  horiz-adv-x="1024" />

    
    <glyph glyph-name="qiantai" unicode="&#58889;" d="M927 288.2H704v268c0 28.6-28.8 52-64 52H384c-35.2 0-64-23.4-64-52v-268H97c-0.5 0-1-0.5-1-1v-94c0-0.5 0.5-1 1-1h830c0.5 0 1 0.5 1 1v94c0 0.6-0.5 1-1 1z m-543 256h256v-256H384v256zM817.1 160.2H206.9c-25.8 0-46.9-20.9-46.9-46.5v-162.9c0-25.6 21.1-46.5 46.9-46.5H817c25.8 0 46.9 20.9 46.9 46.5V113.7c0.1 25.6-21 46.5-46.8 46.5z m-17.1-192H215.5v128H800v-128zM480 672.2h64c35.2 0 64 28.8 64 64v64c0 35.2-28.8 64-64 64h-64c-35.2 0-64-28.8-64-64v-64c0-35.2 28.8-64 64-64z m0 128h64v-64h-64v64z"  horiz-adv-x="1024" />

    


  </font>
</defs>
</svg>
