<?xml version="1.0" standalone="no"?>
<!DOCTYPE svg PUBLIC "-//W3C//DTD SVG 1.1//EN" "http://www.w3.org/Graphics/SVG/1.1/DTD/svg11.dtd" >
<!--
2013-9-30: Created.
-->
<svg>
<metadata>
Created by iconfont
</metadata>
<defs>

<font id="iconfont" horiz-adv-x="1024" >
  <font-face
    font-family="iconfont"
    font-weight="500"
    font-stretch="normal"
    units-per-em="1024"
    ascent="896"
    descent="-128"
  />
    <missing-glyph />
    
    <glyph glyph-name="suo" unicode="&#59009;" d="M836.06163 410.86397l-31.722492 0 0 27.629267c0 0.342808-0.01228 0.683569-0.025583 1.023306 0.013303 0.339738 0.025583 0.680499 0.025583 1.023306 0 79.540567-30.975479 154.320715-87.217411 210.56367-56.243979 56.243979-131.023102 87.218434-210.564693 87.218434-79.540567 0-154.319691-30.974455-210.56367-87.218434-56.243979-56.243979-87.218434-131.023102-87.218434-210.56367 0-0.342808 0.01228-0.683569 0.025583-1.023306-0.013303-0.339738-0.025583-0.680499-0.025583-1.023306l0-27.629267-27.629267 0c-36.676317 0-66.514903-29.838585-66.514903-66.514903l0-409.322479c0-36.676317 29.838585-66.514903 66.514903-66.514903l654.915967 0c36.676317 0 66.514903 29.838585 66.514903 66.514903l0 409.322479C902.576533 381.025385 872.737948 410.86397 836.06163 410.86397zM259.915681 439.516544c0.013303 0.339738 0.025583 0.680499 0.025583 1.023306 0 65.874313 25.65224 127.804804 72.232115 174.384679 46.579875 46.579875 108.510366 72.232115 174.383656 72.232115 65.874313 0 127.804804-25.65224 174.384679-72.232115 46.579875-46.579875 72.232115-108.510366 72.232115-174.384679 0-0.342808 0.01228-0.683569 0.025583-1.023306-0.013303-0.339738-0.025583-0.680499-0.025583-1.023306l0-27.629267-493.233588 0 0 27.629267C259.941264 438.837068 259.928984 439.176806 259.915681 439.516544zM851.411223-64.973412c0-8.463766-6.885827-15.349593-15.349593-15.349593l-654.915967 0c-8.463766 0-15.349593 6.885827-15.349593 15.349593l0 409.322479c0 8.463766 6.885827 15.349593 15.349593 15.349593l654.915967 0c8.463766 0 15.349593-6.885827 15.349593-15.349593L851.411223-64.973412zM508.603647 288.067226c-59.246359 0-107.447151-48.200792-107.447151-107.447151 0-33.027208 15.373129-64.138786 40.932248-84.350107l0-38.446637c0-36.676317 29.838585-66.514903 66.514903-66.514903l4.093225 0c36.676317 0 66.514903 29.838585 66.514903 66.514903l0 41.814338c23.287379 20.274766 36.839023 49.629327 36.839023 80.982406C616.050798 239.866435 567.851029 288.067226 508.603647 288.067226zM539.538193 133.610412l-11.490705-7.583722 0-68.203358c0-8.463766-6.885827-15.349593-15.349593-15.349593l-4.093225 0c-8.463766 0-15.349593 6.885827-15.349593 15.349593l0 66.664306-12.768815 7.389294c-17.371646 10.05296-28.163433 28.730345-28.163433 48.743144 0 31.033807 25.248034 56.281841 56.281841 56.281841 31.033807 0 56.281841-25.248034 56.281841-56.281841C564.885488 161.659235 555.410696 144.085998 539.538193 133.610412z"  horiz-adv-x="1024" />

    
    <glyph glyph-name="type" unicode="&#58901;" d="M270.928 834c-208.928 0-208.928 0-208.928 0v-208.928c0 0 0-208.928 208.928-208.928s208.928 0 208.928 0v208.928c0 0 0 208.928-208.928 208.928zM415.572 480.428h-144.643c-135.698 0-144.297 120.848-144.643 144.643v144.643h144.643c135.698 0 144.297-120.848 144.643-144.643v-144.643zM753.072 834c0 0-208.928 0-208.928-208.928s0-208.928 0-208.928h208.928c0 0 208.928 0 208.928 208.928s0 208.928 0 208.928h-208.928zM897.714 625.072c0-135.698-120.848-144.297-144.643-144.643h-144.643v144.643c0 135.697 120.848 144.297 144.643 144.643h144.643v-144.643zM753.072 351.85799999999995c-208.928 0-208.928 0-208.928 0v-208.928c0 0 0-208.928 208.928-208.928s208.928 0 208.928 0v208.928c0 0 0 208.928-208.928 208.928zM897.714-1.7140000000000555h-144.643c-135.698 0-144.297 120.848-144.643 144.643v144.643h144.643c135.697 0 144.297-120.848 144.643-144.643v-144.643zM62 142.928c0-208.928 0-208.928 0-208.928h208.928c0 0 208.928 0 208.928 208.928s0 208.928 0 208.928h-208.928c0 0-208.928 0-208.928-208.928zM415.572 142.928c0-135.697-120.848-144.297-144.643-144.643h-144.643v144.643c0 135.698 120.848 144.297 144.643 144.643h144.643v-144.643z"  horiz-adv-x="1024" />

    
    <glyph glyph-name="CPIC" unicode="&#60038;" d="M928.389432 441.272401c-16.824177 213.349109-183.967942 316.495304-183.967942 316.495304C523.744485 908.731976 314.608328 777.867486 314.608328 777.867486l0-203.432249c108.803032 119.763664 237.650585 87.681992 237.650585 87.681992 173.85563-33.373085 206.41007-193.21863 206.41007-193.21863 41.210587-205.443046-131.862213-285.898449-131.862213-285.898449-192.983269-87.476307-310.962288 62.49331-310.962288 62.49331l0-306.107723 51.164287 0 0 79.796394c175.421288-58.32436 307.585377 8.81169 307.585377 8.81169C961.13523 162.66603199999997 928.389432 441.272401 928.389432 441.272401zM510.750543 519.617747c48.862871 0 90.24435-32.010041 104.33323-76.201519l85.169775 0c-15.769149 90.38045-94.608751 159.089321-189.503005 159.089321-106.249883 0-192.381565-86.131683-192.381565-192.381565s86.131683-192.381565 192.381565-192.381565c95.633081 0 174.953637 69.784366 189.853999 161.205519l-84.870969 0c-13.426801-45.282323-55.343469-78.317717-104.98303-78.317717-60.471256 0-109.493763 49.022507-109.493763 109.493763C401.25678 470.59524 450.279287 519.617747 510.750543 519.617747zM93.825922 471.044472l0-532.852934 160.626327 0L254.452249 745.131921C254.452249 745.131921 124.085086 652.169669 93.825922 471.044472z"  horiz-adv-x="1024" />

    
    <glyph glyph-name="dot" unicode="&#58949;" d="M511.705799 300.254803m-191.882192 0a187.512 187.512 0 1 0 383.764384 0 187.512 187.512 0 1 0-383.764384 0Z"  horiz-adv-x="1024" />

    
    <glyph glyph-name="radio" unicode="&#58919;" d="M512 830.016C266.08 830.016 65.984 629.9200000000001 65.984 384c0-245.952 200.064-446.016 446.016-446.016 245.952 0 446.016 200.064 446.016 446.016C958.016 629.9200000000001 757.952 830.016 512 830.016zM512 1.9840000000000373C301.344 1.9840000000000373 129.984 173.37599999999998 129.984 384 129.984 594.656 301.344 766.016 512 766.016c210.624 0 382.016-171.36 382.016-382.016C894.016 173.37599999999998 722.624 1.9840000000000373 512 1.9840000000000373zM512 544c-88.224 0-160-71.776-160-160s71.776-160 160-160 160 71.776 160 160S600.224 544 512 544z"  horiz-adv-x="1024" />

    
    <glyph glyph-name="zhengyan" unicode="&#59024;" d="M512.896 572c-101.696 0-184.192-84.224-184.192-188.16 0-104 82.496-188.16 184.192-188.16 101.568 0 184.128 84.16 184.128 188.16C697.088 487.776 614.528 572 512.896 572zM512.96 223.648c-86.144 0-156.032 71.36-156.032 159.36s69.824 159.424 156.032 159.424c86.144 0 155.904-71.424 155.904-159.424S599.04 223.648 512.96 223.648zM1004.032 377.888c0 0.448-0.064 0.832-0.192 1.216L1003.84 379.744c0 0.256-0.064 0.64-0.128 0.896 0 0.448-0.064 0.768-0.128 1.088 0 0.064 0 0.128 0 0.128-1.28 7.936-4.8 15.424-10.304 21.184-31.232 38.848-68.608 73.408-106.496 105.088C805.12 575.968 711.808 632.928 608.704 655.84c-59.52 13.248-119.488 13.888-179.328 2.624C374.912 648.288 322.432 627.04 273.28 600.8 196.352 559.776 126.144 503.008 64.896 439.52 53.632 427.808 42.304 415.776 32 403.04c-13.696-17.024-13.696-37.184 0-54.144 31.36-38.848 68.672-73.472 106.496-104.96 81.664-68.032 174.976-124.928 278.08-147.904 59.584-13.248 119.488-13.76 179.392-2.624 54.464 10.24 106.88 31.36 156.032 57.6 76.928 41.28 147.136 97.792 208.32 161.408 11.392 11.776 22.592 23.744 32.96 36.48 5.504 5.696 9.024 13.248 10.24 21.12 0 0.064 0 0.064 0 0.128 0.128 0.32 0.128 0.704 0.128 1.088 0.064 0.256 0.128 0.576 0.128 0.96 0 0.192 0 0.384 0.128 0.576 0.064 0.448 0.064 0.832 0.064 1.28 0 0.64 0.064 1.28 0.064 1.92C1004.032 376.608 1004.032 377.184 1004.032 377.888zM954.88 374.176c0-0.32 0-0.704-0.064-1.024 0-0.192-0.064-0.448-0.064-0.64 0-0.256-0.064-0.512-0.128-0.832 0-0.32 0-0.576-0.128-0.896-0.064-0.064-0.064-0.128-0.064-0.128-1.088-7.232-4.288-13.888-9.216-19.072-9.216-11.52-19.456-22.272-29.632-32.832-55.04-57.216-118.336-108.224-187.392-145.088-44.224-23.744-91.52-42.752-140.608-51.904-53.824-10.112-107.776-9.6-161.344 2.368C333.44 144.736 249.472 195.872 176 257.12c-34.112 28.416-67.648 59.52-95.872 94.464-12.352 15.36-12.352 33.408 0 48.768 9.216 11.392 19.392 22.272 29.568 32.832 55.04 57.152 118.272 108.16 187.456 145.216 44.16 23.616 91.456 42.688 140.48 51.84 53.888 10.112 107.84 9.536 161.408-2.304 92.8-20.608 176.768-71.872 250.24-133.12 34.176-28.352 67.712-59.52 95.872-94.464 4.864-5.12 8.128-11.84 9.216-18.944 0-0.064 0-0.128 0-0.128 0.192-0.32 0.192-0.704 0.192-1.024 0.064-0.256 0.128-0.576 0.128-0.832 0-0.128 0-0.32 0.064-0.512C954.88 378.464 954.88 378.08 954.88 377.696L954.88 374.176z"  horiz-adv-x="1024" />

    
    <glyph glyph-name="jiantou" unicode="&#58963;" d="M740.502578 315.70917 740.502578 315.70917 283.497435-128.000038 213.182395-59.773142 670.187539 383.978682 213.182395 827.730505 283.497435 896.000017 810.817618 383.978682 740.502578 315.70917Z"  horiz-adv-x="1024" />

    
    <glyph glyph-name="guanbi" unicode="&#58976;" d="M924.37449 559.564551c-22.583344 53.393048-54.907541 101.338013-96.073102 142.504598-41.165562 41.166585-89.10848 73.489758-142.503575 96.073102-55.29435 23.38664-114.01473 35.245735-174.484963 35.245735-60.513212 0-119.234615-11.858072-174.528965-35.245735-53.393048-22.583344-101.338013-54.907541-142.504598-96.073102-41.166585-41.166585-73.489758-89.110527-96.073102-142.503575-23.388686-55.295374-35.246759-114.01473-35.246759-174.555571 0-60.512189 11.858072-119.234615 35.246759-174.527942 22.583344-53.395094 54.906517-101.339036 96.073102-142.506644 41.166585-41.165562 89.11155-73.487711 142.504598-96.071056 55.295374-23.388686 114.01473-35.246759 174.528965-35.246759 60.470233 0 119.190613 11.858072 174.485987 35.246759 53.395094 22.582321 101.338013 54.905494 142.503575 96.073102 41.165562 41.165562 73.489758 89.109504 96.073102 142.504598 23.388686 55.293327 35.246759 114.015753 35.246759 174.527942C959.622272 445.549821 947.7642 504.269177 924.37449 559.564551zM511.32513-4.44294c-215.095893 0-389.465223 174.36933-389.465223 389.466246S296.229237 774.489552 511.32513 774.489552c215.095893 0 389.466246-174.36933 389.466246-389.466246S726.421023-4.44294 511.32513-4.44294zM696.291818 236.732935l-0.62831 0.627287 0 0L548.999171 384.024559 681.375084 516.401496l14.287401 14.287401 0.62831 0.62831c11.499915 11.499915 11.499915 30.146601 0 41.647539s-30.146601 11.499915-41.646516 0l-0.62831-0.62831-0.001023 0L507.351632 425.673122 365.345384 567.678346l0 0-5.287423 5.287423c-11.499915 11.499915-30.146601 11.499915-41.646516 0-11.499915-11.500938-11.499915-30.146601 0-41.647539l5.2864-5.287423 9.628288-9.628288 132.376936-132.376936L323.697845 242.019335l0.001023 0-5.287423-5.2864c-11.499915-11.501962-11.499915-30.147624 0-41.648562 11.499915-11.499915 30.146601-11.499915 41.647539 0.001023l5.2864 5.2864 9.629311 9.629311 132.375913 132.375913 132.376936-132.375913 14.287401-14.288424 0.627287-0.627287c11.499915-11.499915 30.147624-11.499915 41.647539 0S707.791733 225.231997 696.291818 236.732935z"  horiz-adv-x="1024" />

    
    <glyph glyph-name="yishiyong" unicode="&#58966;" d="M227.154533 368.607428c-23.375383 5.718235-31.907711 19.342534-25.575492 40.893362l24.286126 90.635253 30.212092-8.095375-4.774747-17.816784 91.410919-24.493857 9.963932 37.183877-127.044488 34.042327 7.265474 27.113521 157.25658-42.136679-24.493857-91.409896-121.623012 32.588209-10.17064-37.95852c-3.289929-10.197246 0.298805-16.412808 10.775414-18.662035l73.593112-19.718087c12.115945-4.363378 20.137643-1.245364 24.085558 9.320273 0.551562 2.058892 2.029216 5.541203 4.455475 10.43056 2.169409 6.061043 3.935636 10.56973 5.285377 13.529131 10.015098-6.004761 19.125593-11.222599 27.362184-15.634072-4.869914-11.979846-9.731642-22.857591-14.556531-32.631188-7.249101-14.663978-21.394263-18.891256-42.427298-12.709463L227.154533 368.607428zM407.912363 313.531042l22.210861 82.888825c-6.588045-5.993504-13.031804-11.452843-19.34151-16.404622 2.047636 13.83817 3.693112 27.239388 4.956895 40.185234 19.786649 20.150946 37.515429 45.019333 53.196573 74.586742l26.794249-14.651698c-7.354502-12.974499-16.064884-25.871227-26.13524-38.662555l-36.117592-134.790916L407.912363 313.531042zM566.150294 271.961274c-30.53648 12.06171-52.912094 23.597441-67.116607 34.590819-9.267061-3.602038-24.871457-6.062066-46.813189-7.383154l-10.816347 27.806299c14.635325-1.158383 26.310226-0.964978 35.027771 0.577145-4.675486 7.337105-9.339716 15.787568-13.9712 25.330922l19.797905 8.809643-16.268522 4.359284 17.643845 65.846684 46.480614-12.45466 3.321652 12.394285-49.579185 13.284561 6.434549 24.013927 49.579185-13.284561 4.773723 17.817808 28.661783-7.679913-4.773723-17.817808 51.128471-13.700023-6.434549-24.013927-51.903114 13.906731-3.321652-12.394285 47.255257-12.661368-19.303648-72.043826-26.338878 7.05672 1.660826 6.198166-22.464641 6.019087c-4.086062-11.086499-9.549493-20.144806-16.408715-27.15343 12.559037-8.904811 32.965809-17.421788 61.238736-25.542746-0.798179-0.900509-1.989307-2.242064-3.569292-4.025687C573.717643 282.673244 569.085136 276.714532 566.150294 271.961274zM500.724189 337.648322c4.343935 3.817955 7.990998 9.197476 10.970866 16.156982l-27.113521 7.265474C488.839511 352.171084 494.222101 344.372467 500.724189 337.648322zM503.953743 402.376533l-5.604648-20.916379 20.141736-5.395894 5.604648 20.915355L503.953743 402.376533zM572.897975 383.902786l-20.915355 5.604648-6.378268-20.708648 21.689998-5.812379L572.897975 383.902786zM629.214608 251.74279c-1.410116 0.935302-3.202948 2.518357-5.366218 4.758374-7.402597 7.523347-13.139252 12.939707-17.235546 16.241916 10.267854 9.417487 17.821901 19.017122 22.662139 28.79993 4.685719 9.253758 9.741875 23.959691 15.137769 44.101427l23.248494 86.762039 161.129794-43.174312-39.645952-147.959843c-3.812839-18.34788-14.94027-24.771173-33.395598-19.282159-6.332219 1.153266-15.446807 3.308349-27.321252 6.490831 0.666172 8.68173 1.133823 17.689894 1.428535 27.016307 7.086395-2.455935 13.214976-4.370541 18.384719-5.756097 8.116865-2.732228 12.817933-0.671289 14.111392 6.181793l4.359284 16.268522-38.734186 10.379395-12.662391-47.25628-28.662807 7.680936 12.662391 47.255257-37.95852 10.17064C656.128585 282.996608 645.414569 266.783345 629.214608 251.74279zM673.074535 337.963501c-1.245364-4.647857-2.354628-8.78713-3.320629-12.394285l36.409235-9.755178 6.226818 23.240307-36.409235 9.755178L673.074535 337.963501zM689.057555 397.612019l-6.226818-23.239284 36.409235-9.755178 6.226818 23.23826L689.057555 397.612019zM741.052766 331.372386l-6.226818-23.240307 38.734186-10.378371 6.226818 23.239284L741.052766 331.372386zM792.863782 369.797533l-38.734186 10.379395-6.226818-23.239284 38.734186-10.379395L792.863782 369.797533zM512 598.642568c70.719668 0 133.443221-34.206056 172.547845-86.968747l27.357068-7.329942c-40.839127 67.693752-115.083062 112.963795-199.904912 112.963795-40.980343 0-79.483262-10.578939-112.952538-29.134551l27.304879-7.316639C452.590935 592.287837 481.551524 598.642568 512 598.642568zM652.945079 610.783073l14.980179-12.141528 4.617158 18.197454 16.767895 9.79918-16.767895 9.79918-4.617158 18.197454-14.980179-12.143575-19.62599 1.450025 7.512091-17.304108-7.512091-17.302061L652.945079 610.783073zM393.037585 651.50759l-15.410991 10.724249-3.363607-18.987447-15.775288-11.762905 17.012466-8.15268 5.656837-17.994839 13.879102 13.951757 19.272949 0.64059-8.43409 16.774035 6.252401 18.391882L393.037585 651.50759zM537.309432 677.742091l-11.42112 14.901385-8.977465-17.066701-18.602683-6.411013 13.727653-12.936637-0.076748-18.86465 17.460674 9.072633 18.556635-5.246491-2.935865 18.543332 11.545964 15.618723L537.309432 677.742091zM746.131435 560.559205l-16.180518 11.200086-2.301416-18.724457-15.247262-11.101849 17.648962-8.703219 6.754844-18.063401 13.204743 13.34289 19.424398-0.059352-9.485025 16.951067 5.248537 18.026562L746.131435 560.559205zM956.288852 419.535331 145.002488 636.921383c-19.913539 5.334495-40.380686-6.483668-45.719274-26.397207L41.315988 394.181897c-5.334495-19.913539 6.482645-40.382733 26.39516-45.719274l811.286364-217.381959c19.913539-5.336542 40.382733 6.480598 45.719274 26.39516l57.966203 216.34228C988.020554 393.731642 976.202391 414.200836 956.288852 419.535331zM962.239378 369.633804l-53.136198-198.312648c-4.003174-14.935154-19.354813-23.799032-34.288944-19.797905L81.556481 364.075205c-14.935154 4.003174-23.796986 19.354813-19.797905 34.288944l53.140291 198.316741c4.000104 14.935154 19.352767 23.796986 34.288944 19.795858l793.255709-212.551954C957.378673 399.922644 966.242552 384.568958 962.239378 369.633804zM512 719.961658c155.48012 0 286.266839-105.624642 324.580446-249.025657l20.653389-5.53404c-36.787858 156.61906-177.391153 273.223778-345.232812 273.223778-101.768825 0-193.520505-42.872436-258.192434-111.537306l20.632923-5.528923C335.237157 682.358225 419.22706 719.961658 512 719.961658zM597.648682 187.14454c-26.239618-11.432377-55.200206-17.786085-85.648682-17.786085-70.718645 0-133.443221 34.206056-172.548868 86.970794l-27.358091 7.330966c40.839127-67.694775 115.083062-112.965841 199.906959-112.965841 40.980343 0 79.484286 10.578939 112.953561 29.134551L597.648682 187.14454zM397.395846 148.391934l-14.860453 12.114922-4.578272-18.156522-16.633842-9.774621 16.633842-9.776667 4.578272-18.155499 14.860453 12.112875 19.463284-1.444908-7.450692 17.263176 7.450692 17.263176L397.395846 148.391934zM511.941672 90.903615l11.328-14.868639 8.904811 17.027815 18.451234 6.39464-13.617136 12.906961 0.078795 18.819624-17.318434-9.05012-18.407232 5.235235 2.911306-18.500353-11.450796-15.582907L511.941672 90.903615zM276.004101 208.219531l15.21861-12.281721 3.594875 18.472723 15.868409 9.981329-16.84669 9.897418-5.412266 18.448164-14.005992-12.354376-19.215644 1.420349 8.18952-17.533328-6.463202-17.569144L276.004101 208.219531zM512 48.038342c-155.479097 0-286.267862 105.625666-324.580446 249.02668l-20.653389 5.53404c36.786835-156.61906 177.391153-273.225825 345.233835-273.225825 101.768825 0 193.521528 42.872436 258.193457 111.537306l-20.6319 5.5279C688.763866 85.641775 604.773963 48.038342 512 48.038342zM646.923946 116.524133l15.312754-10.715039 3.302209 18.929118 15.635095 11.704576-16.898879 8.15268-5.65172 17.951861-13.746072-13.892405-19.125593-0.611937 8.401344-16.736173-6.166443-18.328437L646.923946 116.524133z"  horiz-adv-x="1024" />

    
    <glyph glyph-name="emichenggong" unicode="&#58941;" d="M297.020951 390.16429C278.290963 408.880358 247.900107 408.880358 229.17418 390.16429 210.444191 371.444164 210.444191 341.113743 229.17418 322.397675L426.561015 125.298641C435.931428 115.924375 448.216719 111.237242 460.50201 111.237242 472.750731 111.237242 485.048211 115.924375 494.407789 125.282409L945.963343 576.219814C964.671661 594.941295 964.671661 625.282537 945.963343 643.976962 927.217101 662.698441 896.841143 662.698441 878.094899 643.976962L460.50201 226.888369 297.020951 390.16429 297.020951 390.16429ZM1020.136973 437.20336C1018.068657 457.239671 1000.095831 471.824572 980.047915 469.742752 959.978327 467.675814 945.386327 449.757843 947.465481 429.705299 949.025862 414.682125 949.804698 399.343767 949.804698 384.104158 949.804698 142.703936 753.153355-53.687631 511.43382-53.687631 269.70345-53.687631 73.058878 142.703936 73.058878 384.104158 73.058878 625.515202 269.70345 821.901358 511.43382 821.901358 597.666539 821.901358 681.111703 796.923604 752.730752 749.662689 769.571217 738.555604 792.227893 743.200803 803.349673 760.004143 814.455196 776.816951 809.830942 799.44911 792.994539 810.556195 709.407153 865.710161 612.026921 894.862373 511.43382 894.862373 229.428826 894.862373 0 665.731213 0 384.104158 0 102.477105 229.428826-126.648644 511.43382-126.648644 793.433397-126.648644 1022.862223 102.477105 1022.862223 384.104158 1022.862223 401.842219 1021.952 419.702025 1020.136973 437.20336L1020.136973 437.20336Z"  horiz-adv-x="1024" />

    
    <glyph glyph-name="iphone" unicode="&#58921;" d="M779.490176 768.009732 244.485557 768.009732l0-691.032381 535.004618 0L779.490176 768.009732 779.490176 768.009732 779.490176 768.009732zM567.714017 823.739928c0 6.13652-5.023271 11.14159-11.139568 11.14159L445.120125 834.881518c-6.141575 0-11.165857-5.00507-11.165857-11.14159l0-11.122379c0-6.13652 5.025293-11.139568 11.165857-11.139568l111.453313 0c6.116297 0 11.139568 5.004059 11.139568 11.139568L567.713006 823.739928 567.714017 823.739928 567.714017 823.739928zM511.989889-56.782398c24.525856 0 44.584561 20.038482 44.584561 44.588605 0 24.506645-20.058705 44.564338-44.584561 44.564338-24.529901 0-44.588605-20.058705-44.588605-44.564338C467.401283-36.743916 487.459988-56.782398 511.989889-56.782398L511.989889-56.782398 511.989889-56.782398zM779.490176-123.676428 244.485557-123.676428c-36.803951 0-66.870774 30.090079-66.870774 66.89403L177.614783 812.617549c0 36.78474 30.066823 66.870774 66.870774 66.870774l535.004618 0c36.803951 0 66.89403-30.085023 66.89403-66.870774l0-869.398935C846.384206-93.585338 816.294127-123.676428 779.490176-123.676428L779.490176-123.676428 779.490176-123.676428zM779.490176-123.676428"  horiz-adv-x="1024" />

    
    <glyph glyph-name="eye" unicode="&#58902;" d="M512.743944 51.489954c-282.732339 0-511.919159 264.698614-511.919159 331.817268 0 64.342424 229.185796 331.800895 511.919159 331.800895 282.715967 0 511.922229-264.681218 511.922229-331.800895C1024.666172 316.188568 795.45991 51.489954 512.743944 51.489954zM512.743944 665.542234c-246.387573 0-446.133873-256.367879-446.133873-282.233989 0-25.01472 199.7463-282.233989 446.133873-282.233989 246.38655 0 446.116477 258.812557 446.116477 282.233989C958.860421 408.322965 759.130494 665.542234 512.743944 665.542234zM512.743944 221.944114c-94.226035 0-170.619936 72.248488-170.619936 161.364131s76.393901 161.364131 170.619936 161.364131c94.226035 0 170.606633-72.248488 170.606633-161.364131S606.969978 221.944114 512.743944 221.944114zM512.743944 482.849332c-54.897308 0-99.390661-44.568055-99.390661-99.541087 0-54.974056 44.493354-99.540064 99.390661-99.540064 54.881958 0 99.374288 44.566008 99.374288 99.540064C612.118232 438.280254 567.625902 482.849332 512.743944 482.849332z"  horiz-adv-x="1041" />

    
    <glyph glyph-name="biyan" unicode="&#58965;" d="M989.546 392.913l-46.439 62.758c12.486 9.996 24.893 20.401 36.895 30.951 14.89 13.076 16.365 35.841 3.276 50.739-6.83 7.771-16.657 12.218-27.007 12.218-8.731 0-17.163-3.175-23.732-8.95-105.956-93.098-216.441-151.011-328.374-172.172-32.345-6.105-65.382-9.217-98.194-9.226-56.662 0-114.028 9.253-170.508 27.476-80.574 26.012-145.547 65.979-185.883 94.919-41.67 29.89-66.117 54.307-68.742 56.981-6.837 7.056-16.016 10.957-25.854 10.957-9.374 0-18.249-3.579-24.975-10.093-6.898-6.671-10.8-15.623-10.957-25.232-0.172-9.61 3.415-18.707 10.093-25.599 0.698-0.723 17.163-17.646 46.301-40.992l-40.464-52.252c-5.884-7.587-8.454-17.022-7.241-26.55 1.227-9.526 6.066-18.002 13.648-23.86 6.259-4.86 14.077-7.54 22.002-7.54 11.23 0 21.589 5.081 28.447 13.931l41.806 53.998c40.693-26.771 83.322-49.476 126.795-67.536l-26.779-57.788c-8.338-17.984-0.477-39.399 17.51-47.738 4.778-2.207 9.857-3.332 15.085-3.332 13.966 0 26.779 8.179 32.637 20.832l29.553 63.82c46.732-13.875 94.222-22.333 141.22-25.187v-65.887c0-19.814 16.124-35.949 35.949-35.949 19.814 0 35.94 16.135 35.94 35.949v65.85c25.041 1.492 50.192 4.594 74.818 9.209 27.226 5.081 54.742 12.199 81.855 21.169l31.165-64.771c5.958-12.372 18.682-20.355 32.409-20.355 5.426 0 10.672 1.207 15.584 3.569 17.838 8.596 25.372 30.132 16.795 47.986l-28.813 59.849c40.335 18.269 80.66 41.068 119.93 67.827l46.411-62.726c6.743-9.134 17.555-14.587 28.922-14.587 7.725 0 15.11 2.444 21.343 7.056 7.745 5.711 12.778 14.085 14.194 23.574 1.455 9.501-0.907 18.991-6.626 26.716z"  horiz-adv-x="1028" />

    
    <glyph glyph-name="login" unicode="&#58882;" d="M939.746835 98.835443C887.898734 209.012658 803.64557 293.265823 693.468354 345.113924L680.506329 351.594937c136.101266 84.253165 181.468354 265.721519 90.734177 401.822785-12.962025 19.443038-25.924051 38.886076-38.886076 51.848101C615.696203 915.443038 434.227848 915.443038 324.050633 805.265823c0 0 0 0 0 0-116.658228-116.658228-110.177215-298.126582 0-414.78481C337.012658 377.518987 349.974684 364.556962 362.936709 358.075949L330.531646 345.113924c-168.506329-71.291139-278.683544-239.797468-278.683544-427.746835l0-38.886076 920.303797 0 0 38.886076C972.151899-24.303797 959.189873 40.506329 939.746835 98.835443zM298.126582 597.873418c0 129.620253 103.696203 226.835443 226.835443 233.316456 129.620253 0 226.835443-103.696203 233.316456-226.835443 0-129.620253-103.696203-226.835443-226.835443-233.316456-58.329114 0-116.658228 25.924051-162.025316 64.810127C324.050633 481.21519 298.126582 539.544304 298.126582 597.873418L298.126582 597.873418zM116.658228-56.708861c0 38.886076 12.962025 77.772152 25.924051 116.658228 19.443038 51.848101 51.848101 90.734177 84.253165 129.620253C304.607595 267.341772 408.303797 312.708861 512 312.708861c110.177215 0 207.392405-45.367089 285.164557-116.658228 38.886076-38.886076 64.810127-77.772152 84.253165-129.620253 12.962025-38.886076 25.924051-77.772152 25.924051-116.658228L116.658228-56.708861 116.658228-56.708861z"  horiz-adv-x="1024" />

    
    <glyph glyph-name="fenlei" unicode="&#58884;" d="M811.441906 733.313757c26.822902 0 48.644907-21.820981 48.644907-48.64286l0-170.968883c0-26.823925-21.822005-48.646953-48.644907-48.646953L640.473023 465.055061c-26.822902 0-48.644907 21.823028-48.644907 48.646953L591.828117 684.670897c0 26.821879 21.822005 48.64286 48.644907 48.64286L811.441906 733.313757M384.02021 733.313757c26.822902 0 48.644907-21.820981 48.644907-48.64286l0-170.968883c0-26.823925-21.822005-48.646953-48.644907-48.646953L213.051327 465.055061c-26.822902 0-48.644907 21.823028-48.644907 48.646953L164.40642 684.670897c0 26.821879 21.822005 48.64286 48.644907 48.64286L384.02021 733.313757M811.441906 305.894108c26.822902 0 48.644907-21.823028 48.644907-48.646953l0-170.968883c0-26.821879-21.822005-48.64286-48.644907-48.64286L640.473023 37.635411c-26.822902 0-48.644907 21.820981-48.644907 48.64286L591.828117 257.247154c0 26.823925 21.822005 48.646953 48.644907 48.646953L811.441906 305.894108M384.02021 305.894108c26.822902 0 48.644907-21.823028 48.644907-48.646953l0-170.968883c0-26.821879-21.822005-48.64286-48.644907-48.64286L213.051327 37.635411c-26.822902 0-48.644907 21.820981-48.644907 48.64286L164.40642 257.247154c0 26.823925 21.822005 48.646953 48.644907 48.646953L384.02021 305.894108M811.441906 770.15278 640.473023 770.15278c-47.210231 0-85.48393-38.273698-85.48393-85.481883l0-170.968883c0-47.213301 38.273698-85.485977 85.48393-85.485977l170.968883 0c47.211255 0 85.48393 38.273698 85.48393 85.485977L896.925836 684.670897C896.925836 731.879082 858.652138 770.15278 811.441906 770.15278L811.441906 770.15278zM384.02021 770.15278 213.051327 770.15278c-47.213301 0-85.48393-38.273698-85.48393-85.481883l0-170.968883c0-47.213301 38.271652-85.485977 85.48393-85.485977L384.02021 428.216038c47.211255 0 85.48393 38.273698 85.48393 85.485977L469.50414 684.670897C469.50414 731.879082 431.230442 770.15278 384.02021 770.15278L384.02021 770.15278zM811.441906 342.733131 640.473023 342.733131c-47.210231 0-85.48393-38.273698-85.48393-85.485977l0-170.968883c0-47.213301 38.273698-85.481883 85.48393-85.481883l170.968883 0c47.211255 0 85.48393 38.269605 85.48393 85.481883L896.925836 257.247154C896.925836 304.459433 858.652138 342.733131 811.441906 342.733131L811.441906 342.733131zM384.02021 342.733131 213.051327 342.733131c-47.213301 0-85.48393-38.273698-85.48393-85.485977l0-170.968883c0-47.213301 38.271652-85.481883 85.48393-85.481883L384.02021 0.796388c47.211255 0 85.48393 38.269605 85.48393 85.481883L469.50414 257.247154C469.50414 304.459433 431.230442 342.733131 384.02021 342.733131L384.02021 342.733131z"  horiz-adv-x="1024" />

    
    <glyph glyph-name="time" unicode="&#59086;" d="M512-42.666667C277.333333-42.666667 85.333333 149.333333 85.333333 384 85.333333 618.666667 277.333333 810.666667 512 810.666667s426.666667-192 426.666667-426.666667C938.666667 149.333333 746.666667-42.666667 512-42.666667zM512 768C300.8 768 128 595.2 128 384c0-211.2 172.8-384 384-384 211.2 0 384 172.8 384 384C896 595.2 723.2 768 512 768zM661.333333 217.6c-10.666667-6.4-23.466667-2.133333-29.866667 8.533333l-138.666667 160c-2.133333 6.4-4.266667 10.666667-2.133333 17.066667 0 0 0 0 0 2.133333L490.666667 640c0 12.8 8.533333 21.333333 21.333333 21.333333s21.333333-8.533333 21.333333-21.333333l0-234.666667c0 0 0 0 0-2.133333l134.4-155.733333C674.133333 236.8 669.866667 224 661.333333 217.6z"  horiz-adv-x="1024" />

    
    <glyph glyph-name="fanhui" unicode="&#58895;" d="M733.407715-114.33549 268.814476 350.257748C251.733841 367.338382 251.733841 398.083523 268.814476 415.164157L733.407715 883.173525C750.48835 900.254159 781.233489 900.254159 798.314125 883.173525 815.39476 866.092891 815.39476 835.34775 798.314125 818.267116L364.466025 384.419016 794.897999-49.429087C811.978634-66.509716 811.978634-97.254861 794.897999-114.33549 788.065747-124.583874 774.401238-128 764.15286-128 753.904476-128 740.239973-124.583874 733.407715-114.33549Z"  horiz-adv-x="1024" />

    
    <glyph glyph-name="weibiaoti1" unicode="&#58952;" d="M928 376c0-51.2 41.6-94.4 94.4-94.4v-228.8h-672v27.2h-27.2v-27.2h-321.6v228.8c51.2 0 94.4 41.6 94.4 94.4s-41.6 94.4-94.4 94.4l0 227.2h321.6l-0-25.6h27.2v27.2h672v-228.8c-51.2 0-94.4-43.2-94.4-94.4zM350.4 617.6h-27.2v-80h27.2v80zM350.4 483.2h-27.2v-80h27.2v80zM350.4 348.8h-27.2v-80h27.2v80zM350.4 214.4h-27.2v-80h27.2v80zM737.6 569.6l-81.6-161.6-80 161.6h-76.8l102.4-187.2h-68.8v-35.2h88v-44.8h-88v-35.2h91.2v-80h67.2v80h89.6v35.2h-89.6v44.8h88v35.2h-68.8l102.4 187.2-75.2-0z"  horiz-adv-x="1024" />

    
    <glyph glyph-name="iphone1" unicode="&#58886;" d="M735.818555 863.981772 287.84887 863.981772c-27.717272 0-50.389644-22.672372-50.389644-50.389644l0-859.195513c0-27.707039 22.672372-50.379411 50.389644-50.379411l447.969685 0c27.707039 0 50.379411 22.672372 50.379411 50.379411L786.197966 813.592129C786.197966 841.3094 763.525594 863.981772 735.818555 863.981772zM420.577824 814.968475c0 4.075829 3.325745 7.40055 7.40055 7.40055l167.617555 0c4.075829 0 7.40055-3.325745 7.40055-7.40055l0-5.003967c0-4.075829-3.325745-7.40055-7.40055-7.40055l-167.617555 0c-4.075829 0-7.40055 3.325745-7.40055 7.40055L420.577824 814.968475zM562.55235-36.835697c0-7.786337-6.358825-14.145162-14.145162-14.145162l-73.16537 0c-7.776104 0-14.145162 6.358825-14.145162 14.145162l0 6.097882c0 7.786337 6.369058 14.155395 14.145162 14.155395l73.16537 0c7.786337 0 14.145162-6.369058 14.145162-14.155395L562.55235-36.835697zM752.059448 17.640008 271.858688 17.640008 271.858688 749.92304l480.20076 0L752.059448 17.640008z"  horiz-adv-x="1024" />

    
    <glyph glyph-name="gengduo" unicode="&#58948;" d="M510.756 263.242c-73.187 0-132.518 59.331-132.518 132.518s59.331 132.518 132.518 132.518 132.518-59.331 132.518-132.518-59.331-132.518-132.518-132.518zM510.756 569.052c-73.187 0-132.518 59.331-132.518 132.518s59.331 132.518 132.518 132.518 132.518-59.331 132.518-132.518-59.331-132.518-132.518-132.518zM510.756 202.080c73.187 0 132.518-59.331 132.518-132.518s-59.331-132.518-132.518-132.518-132.518 59.331-132.518 132.518 59.332 132.518 132.518 132.518z"  horiz-adv-x="1024" />

    
    <glyph glyph-name="yiguoqi" unicode="&#58946;" d="M513.1 622.9c76.1 0 143.6-36.8 185.7-93.7l29.5-7.9C684.4 594.2 604.4 643 513.1 643c-44.1 0-85.6-11.4-121.7-31.3l29.4-7.9C449.2 616.1 480.4 622.9 513.1 622.9zM664.8 636l16.1-13 5 19.6 18.1 10.6-18.1 10.6-5 19.6-16.1-13-21.1 1.6 8.1-18.6-8.1-18.6L664.8 636zM385 679.8l-16.6 11.5-3.7-20.5-17-12.7 18.3-8.8 6.1-19.4 15 15.1 20.8 0.6-9 18.1 6.8 19.8L385 679.8zM540.4 708l-12.3 16-9.7-18.4-20-6.9 14.7-13.9-0.1-20.3 18.8 9.8 20-5.6-3.1 19.9 12.4 16.8L540.4 708zM765.2 582 747.8 594l-2.5-20.1L729 561.9l18.9-9.4 7.3-19.5 14.2 14.3 20.9-0.1-10.2 18.3 5.6 19.4L765.2 582zM991.4 430.1 118 664.1c-21.4 5.7-43.5-7-49.2-28.4L6.4 402.8c-5.7-21.4 7-43.5 28.4-49.2l873.4-234c21.4-5.7 43.5 7 49.2 28.4l62.4 232.9C1025.6 402.3 1012.9 424.4 991.4 430.1zM997.8 376.3l-57.2-213.5c-4.3-16-20.9-25.6-36.9-21.3L49.8 370.4c-16 4.3-25.6 20.9-21.3 36.9l57.2 213.5c4.3 16 20.9 25.6 36.9 21.3l854-228.9C992.6 409 1002.1 392.5 997.8 376.3zM513.1 753.6c167.4 0 308.2-113.7 349.5-268.1l22.3-5.9c-39.7 168.5-191.1 294-371.7 294-109.6 0-208.3-46.2-278-120l22.2-5.9C322.8 713.1 413.2 753.6 513.1 753.6zM605.3 179.9c-28.2-12.3-59.4-19.2-92.2-19.2-76.1 0-143.6 36.8-185.7 93.7l-29.5 7.9c43.9-72.9 123.9-121.7 215.2-121.7 44.1 0 85.6 11.4 121.7 31.3L605.3 179.9zM389.8 138.2l-16 13-5-19.6-17.9-10.6 17.9-10.6 5-19.6 16 13 21-1.5-8.1 18.6 8.1 18.6L389.8 138.2zM513 76.3l12.2-16 9.6 18.3 19.9 6.9-14.6 14 0.1 20.2-18.6-9.8-19.8 5.6 3.1-19.9-12.4-16.8L513 76.3zM259.1 202.6l16.4-13.2 3.9 19.9 17.1 10.8-18.1 10.7-5.8 19.8-15.1-13.3-20.7 1.5 8.8-18.8-7-18.9L259.1 202.6zM513.1 30.1c-167.4 0-308.2 113.7-349.5 268.1l-22.3 5.9c39.7-168.5 191.1-294 371.7-294 109.6 0 208.3 46.2 278 120l-22.2 5.9C703.5 70.6 613 30.1 513.1 30.1zM658.4 103.9l16.5-11.5 3.6 20.3 16.8 12.6-18.2 8.8-6.1 19.4-14.7-15-20.6-0.6 9-18-6.6-19.8L658.4 103.9zM344.3 413.3c10.9-8.7 20.8-15.6 29.5-20.8-1.3-3.4-3.4-7.3-6-12.6-5.2-10-9.6-17.8-12.6-22.9-7.9-15.6-25.2-19.9-51.6-13l-91.1 23.9c-29.9 7.8-41.2 26.9-33.4 56.8l23.5 90.2 30.8-8.3-5.2-20.3 102.4-26.9 11.7 44.2-138.8 36 7.9 29.1 169.3-44.4-26.9-102.4-133.2 34.7-10-38.1c-3.9-14.3 1.3-22.9 14.7-26.5l78.5-20.3c14.3-3 22.9-0.4 26.5 8.3 1.7 3.9 4.3 10.9 8.3 20.3C341.3 406.3 343 410.7 344.3 413.3zM479.2 321.3c10.9-3.4 41.2-11.3 90.2-22.5 12.2-3 21.6-5.6 28.2-7.3-7.3-9.6-13-17.3-16.5-23.9-44.7 11.7-83.6 22.5-117.1 32.5-21.2 5.6-35.1 15.6-41.2 29.5-14.3-6.9-24.8-13-31.2-18.2l-3.9 35.1c3 1.7 7.3 3.9 13 6 5.6 3 10 4.7 13 6l15.2 57.3-19.5 5.2 7.3 28.2 48.6-12.6-22.5-85.4C448.4 336.1 461 326.1 479.2 321.3zM436.7 505.2 464 513c6.5-16.9 11.3-32.1 15.6-45.5-0.9-0.4-6-2.2-16.5-5.2-6-1.7-10.9-3-14.3-3.9-2.2 8.3-5.2 19.9-8.7 35.1C438.4 498.6 437.1 502.5 436.7 505.2zM478.4 422.7l27.8 11.7c4.3-7.8 11.7-24.3 22.9-49.4-8.7 19.9-8.3 18.2 1.3-5.2-2.2-0.9-4.7-1.7-8.3-3.4-3-1.3-10-3.9-21.2-8.7-1.7 3.4-3.9 9.2-6.9 16.9C491.4 390.7 486.7 403.7 478.4 422.7zM569.4 447.9l9.2 34.2 30.8-8.3-9.2-34.2 29.9-7.9-6.5-25.6-29.9 7.8-18.2-69.8c-6-23.5-19.9-32.9-41.7-28.6-12.2 2.6-26.1 5.6-41.7 10 0.4 1.3 0.4 2.6 0.4 4.7 1.3 6.5 1.3 15.6 0.4 27.3 3.9-0.9 9.6-3 16.5-5.2 8.3-2.2 13.9-3.9 16.5-5.2 10.4-2.6 17.3 1.7 20.3 13.5l16 61.6L479.7 444l6.5 25.6L569.4 447.9zM775 410.3l-6.5-24.8-11.3 3-23.5-89.4 11.3-3-6.5-25.6-31.7 8.3c6.5-9.2 12.2-19.1 16.9-29.1 14.3 10.9 26.1 35.1 36 72.9l25.2 96.2 78.5-20.3-45.1-172.1c-3.4-13-11.7-18.2-25.2-16-7.3 1.3-16.5 3.4-27.8 6 0 2.6 0 6 0 11.3 0.9 7.3 0.9 13 0.4 16.9 6.9-2.6 12.6-4.3 17.3-5.6 6.5-1.7 10.4 0.9 12.2 7.3l6.9 26.5-28.2 7.3c-8.7-25.6-20.8-45.5-37.2-59.9-0.9 0.9-2.2 2.2-3.9 3.9-2.6 3.9-6.9 9.2-13 15.6l-18.2-7.3c-6.5 15.6-13 28.2-19.1 38.1l22.1 9.2-46 12.2 14.7-19.1c-13.5-8.3-26.5-16.5-39.5-24.8-2.6 3.9-6 8.7-10.4 14.7-2.6 3.9-4.7 6.5-5.6 7.8 13 6 24.8 13.5 36 21.6l-29.1 7.8 6.5 25.6 16.9-4.3 23.5 89.4-14.3 3.9 6.5 24.8 14.3-3.9 4.7 17.8 25.6-6.5-4.7-17.8 31.7-8.3 4.7 17.8 26.5-6.9-4.7-17.8L775 410.3zM679.6 329.5l-3.9-15.2 31.7-8.3 3.9 15.2L679.6 329.5zM689.2 366.4l-3.9-14.3 31.7-8.3 3.9 14.3L689.2 366.4zM699.1 403.7l-3.9-14.3 31.7-8.3 3.9 14.3L699.1 403.7zM782.3 304.4l27.3-6.9 6.9 27.3-27.3 6.9C787.1 323.1 785 313.9 782.3 304.4zM823.5 349.5l7.9 29.1-27.3 6.9-7.9-29.1L823.5 349.5z"  horiz-adv-x="1024" />

    
    <glyph glyph-name="add" unicode="&#58953;" d="M511.995 869.793c-268.29 0-485.789-217.499-485.789-485.787 0-268.301 217.499-485.799 485.788-485.799 268.301 0 485.798 217.499 485.798 485.799 0.001 268.288-217.497 485.787-485.797 485.787v0zM803.107 328.744h-237.458v-237.458h-110.513v237.458h-237.459v110.513h237.459v237.458h110.513v-237.458h237.458v-110.513z"  horiz-adv-x="1024" />

    
    <glyph glyph-name="top" unicode="&#58985;" d="M511.999488 895.975441c-282.764062 0-511.974417-229.211379-511.974417-511.974417 0-282.764062 229.211379-511.975441 511.974417-511.975441 282.764062 0 511.975441 229.211379 511.975441 511.975441C1023.974929 666.765085 794.76355 895.975441 511.999488 895.975441zM840.372308 299.588495c-11.110035-11.110035-29.108968-11.110035-40.220027 0L533.054013 566.714392l0-488.531496c0-15.722076-12.721743-28.443819-28.442796-28.443819s-28.442796 12.721743-28.442796 28.443819L476.168422 565.463911 209.070154 298.338015c-5.555529-5.555529-12.83226-8.333806-20.110013-8.333806s-14.555507 2.778276-20.110013 8.333806c-11.110035 11.110035-11.110035 29.108968 0 40.220027l316.263014 316.318272c10.665921 10.665921 29.554106 10.665921 40.220027 0l315.040163-315.068815C851.483366 328.697463 851.483366 310.69853 840.372308 299.588495z"  horiz-adv-x="1024" />

    
    <glyph glyph-name="jilu" unicode="&#58993;" d="M107.90912-45.6192c0 254.69952 0 509.3888 0 764.08832 0.54272 1.46432 1.28 2.88768 1.59744 4.4032 6.88128 32.6656 26.34752 54.07744 58.65472 61.93152 12.73856 3.10272 26.50112 2.17088 39.82336 2.58048 12.20608 0.37888 24.43264 0.08192 37.4272 0.08192 0 9.78944-0.16384 18.56512 0.03072 27.33056 0.78848 36.9152 21.32992 61.70624 57.47712 69.62176C303.9232 884.6336 304.82432 885.2992 305.7664 885.76c5.36576 0 10.72128 0 16.08704 0 0.68608-0.39936 1.3312-0.99328 2.06848-1.16736 39.30112-9.40032 58.22464-33.41312 58.29632-74.0352 0.01024-7.424 0-14.83776 0-22.38464 92.17024 0 183.32672 0 274.98496 0 0 9.2672-0.14336 17.82784 0.02048 26.38848 0.7168 37.04832 21.248 61.92128 57.47712 69.84704C715.71456 884.6336 716.61568 885.2992 717.568 885.76c5.36576 0 10.72128 0 16.08704 0 1.7408-0.57344 3.45088-1.31072 5.23264-1.69984 23.62368-5.20192 40.94976-18.65728 49.53088-41.20576 3.7888-9.95328 4.3008-21.27872 5.45792-32.07168 0.79872-7.51616 0.1536-15.19616 0.1536-23.35744 21.16608 0 40.91904 0.28672 60.672-0.06144 33.37216-0.60416 62.80192-22.7328 72.84736-54.3744 1.51552-4.78208 2.6624-9.6768 3.97312-14.52032 0-254.69952 0-509.3888 0-764.08832-0.5632-1.44384-1.32096-2.84672-1.64864-4.34176-7.35232-33.30048-27.6992-53.9648-60.64128-62.32064-4.37248-1.10592-8.86784-1.6896-13.312-2.5088-224.13312 0-448.26624 0-672.38912 0-2.05824 0.49152-4.096 1.14688-6.18496 1.45408-32.4608 4.6592-54.00576 22.71232-65.24928 53.28896C110.36672-55.35744 109.29152-50.432 107.90912-45.6192zM146.67776 512.8704c0-3.70688 0-6.85056 0-10.00448 0-177.4592 0-354.92864 0-532.38784 0-30.07488 15.52384-45.74208 45.40416-45.74208 218.48064-0.02048 436.96128-0.02048 655.43168 0 29.47072 0 45.2096 15.72864 45.2096 45.11744 0.01024 178.00192 0.01024 356.00384 0.01024 533.99552 0 2.8672 0 5.74464 0 9.02144C643.7376 512.8704 395.66336 512.8704 146.67776 512.8704zM245.4016 748.48256c-3.6352 0.18432-6.2464 0.41984-8.8576 0.41984-15.27808 0.03072-30.55616 0.0512-45.83424 0.01024-27.50464-0.08192-43.97056-16.54784-44.00128-44.1344-0.0512-47.7184-0.02048-95.42656-0.02048-143.14496 0-2.85696 0-5.70368 0-8.7552 249.20064 0 497.23392 0 745.46176 0 0.23552 1.59744 0.53248 2.63168 0.53248 3.66592 0.03072 50.93376 0.3584 101.86752-0.12288 152.79104-0.21504 22.66112-17.57184 39.08608-40.35584 39.51616-16.88576 0.31744-33.78176-0.18432-50.65728 0.21504-6.1952 0.14336-7.69024-2.048-7.63904-7.87456 0.12288-16.34304 0.50176-32.74752-0.768-49.00864-2.6624-34.34496-32.34816-60.66176-67.31776-60.76416-35.38944-0.09216-65.06496 26.23488-67.77856 61.1328-1.21856 15.72864-0.59392 31.60064-0.8704 47.40096-0.0512 2.80576-0.38912 5.60128-0.60416 8.42752-1.96608 0.256-3.00032 0.50176-4.0448 0.50176-87.92064 0.03072-175.84128 0-263.76192 0.1536-5.61152 0.01024-6.62528-2.33472-6.62528-7.20896 0.02048-16.0768 0.50176-32.21504-0.67584-48.20992-2.37568-32.53248-28.61056-59.2384-59.58656-61.8496-35.95264-3.03104-66.10944 17.50016-74.01472 51.51744-2.33472 10.02496-2.03776 20.71552-2.38592 31.11936C245.11488 725.5552 245.4016 736.74752 245.4016 748.48256zM343.1936 758.49728c0.01024 0 0.03072 0 0.04096 0 0 20.0704 0.43008 40.15104-0.13312 60.20096-0.4608 16.06656-13.66016 28.19072-29.27616 28.20096-15.59552 0-29.10208-12.15488-29.2864-28.18048-0.4608-40.3968-0.3584-80.81408 0.1536-121.21088 0.07168-5.43744 2.80576-11.49952 5.9904-16.11776 6.94272-10.07616 19.8656-13.78304 31.39584-10.27072 12.26752 3.72736 20.6848 13.5168 20.992 26.37824C343.552 717.81376 343.1936 738.16064 343.1936 758.49728zM696.25856 758.54848c-0.07168 0-0.13312 0-0.2048 0 0-19.53792-0.29696-39.07584 0.09216-58.60352 0.34816-17.48992 12.66688-29.82912 29.02016-30.0032 16.82432-0.17408 29.73696 12.14464 29.9008 29.91104 0.3584 39.0656 0.27648 78.14144-0.09216 117.20704-0.0512 5.33504-1.90464 11.17184-4.5568 15.86176-6.23616 11.03872-19.38432 15.90272-31.87712 12.89216-12.36992-2.97984-21.80096-13.35296-22.12864-26.27584C695.86944 799.22176 696.25856 778.88512 696.25856 758.54848zM226.07872 200.15104c0 12.76928 0 24.76032 0 37.76512 2.88768 0.18432 5.70368 0.512 8.51968 0.512 150.8352 0.02048 301.66016-0.02048 452.49536 0.16384 6.98368 0.01024 9.63584-1.66912 9.05216-8.92928-0.62464-7.72096-0.41984-15.54432-0.0512-23.296 0.26624-5.44768-1.97632-7.28064-7.04512-6.74816-1.5872 0.16384-3.21536 0.02048-4.82304 0.02048-148.95104 0-297.91232 0-446.86336 0.02048C233.68704 199.66976 230.02112 199.97696 226.07872 200.15104zM226.18112 337.85856c0 12.51328 0 24.68864 0 37.31456 156.48768 0 312.56576 0 469.23776 0 0-12.26752 0-24.45312 0-37.31456C539.05408 337.85856 382.83264 337.85856 226.18112 337.85856zM499.5584 100.28032c0-12.61568 0-24.59648 0-37.23264-91.0336 0-181.94432 0-273.33632 0 0 12.288 0 24.46336 0 37.23264C317.22496 100.28032 407.95136 100.28032 499.5584 100.28032z"  horiz-adv-x="1024" />

    
    <glyph glyph-name="fenlei1" unicode="&#58916;" d="M874.712929 122.040776l0.074701 0 0 0.444115L874.712929 122.040776 874.712929 122.040776zM328.404542 740.48918 136.854924 740.48918c-28.812209 0-52.256154-23.448038-52.256154-52.229548l0-191.561897c0-28.812209 23.442922-52.229548 52.256154-52.229548l191.549617 0c28.798906 0 52.241828 23.417339 52.241828 52.229548L380.64637 688.259632C380.647393 717.042165 357.199355 740.48918 328.404542 740.48918M330.821591 688.259632l0-191.561897c0-1.324158-1.092891-2.442632-2.417049-2.442632L136.854924 494.255103c-1.324158 0-2.475378 1.118474-2.475378 2.442632L134.379547 688.259632c0 1.369184 1.124614 2.448772 2.475378 2.448772l191.549617 0C329.755306 690.708404 330.821591 689.628816 330.821591 688.259632M326.610686 311.008592 138.64878 311.008592c-28.272927 0-51.27685-23.034623-51.27685-51.260477l0-187.977255c0-28.28623 23.003923-51.264571 51.27685-51.264571l187.961906 0c28.259624 0 51.263547 22.978341 51.263547 51.264571L377.874233 259.748115C377.874233 287.97397 354.865193 311.008592 326.610686 311.008592M328.98271 259.748115l0-187.977255c0-1.326205-1.072425-2.39863-2.372024-2.39863L138.64878 69.37223c-1.299599 0-2.428306 1.072425-2.428306 2.39863L136.220475 259.748115c0 1.322112 1.103124 2.39863 2.428306 2.39863l187.961906 0C327.935867 262.146745 328.98271 261.070226 328.98271 259.748115M553.859363 687.936267c0.87288-0.580215 1.919722-0.964978 3.040243-0.964978l2.13564 0c0.520863-0.070608 1.079588-0.070608 1.64343 0L899.346979 686.971289c0.276293-0.033769 0.591471-0.070608 0.833995-0.070608 0.281409 0 0.564865 0.031722 0.807389 0.070608l1.74576 0c0.943488 0 1.822508 0.313132 2.553149 0.753153 14.447037 2.49789 25.111934 14.826684 25.111934 29.393447 0 14.355963-10.316973 26.510794-24.443715 29.253254-0.911766 0.684592-2.02717 1.122567-3.221368 1.122567L556.899606 747.493711c-1.083681 0-2.13564-0.509606-3.00852-1.225921-13.953803-2.835581-24.270776-14.973016-24.270776-29.1499C529.625426 702.904167 539.937283 690.766732 553.859363 687.936267M553.435715 463.784114c0.906649-0.824785 2.13564-1.366114 3.463891-1.366114l345.834516 0c1.083681 0 2.065032 0.471744 2.937912 1.121544 14.199397 2.635013 24.693402 14.859429 24.693402 29.323862 0 14.562671-10.631128 26.857694-24.975834 29.356608-0.802272 0.471744-1.713015 0.714268-2.656503 0.714268l-0.839111-0.135076c-0.699941 0.173962-1.7519 0.242524-2.76088 0.135076l-337.582575-0.135076c-0.73678 0.173962-1.7519 0.242524-2.764973 0.135076l-1.886977 0c-0.981351 0-1.854231-0.281409-2.661619-0.856507-14.160511-2.693342-24.578792-14.897292-24.578792-29.215392C529.659195 478.822622 539.66099 466.787518 553.435715 463.784114M553.4746 236.558973c0.904603-0.802272 2.130524-1.290389 3.425006-1.290389l345.834516 0c0.488117 0 0.949628 0.065492 1.436722 0.205685 15.945157 0.732687 28.782533 13.987572 28.782533 30.181393 0 16.615423-13.570063 30.18037-30.219255 30.18037-0.24457 0-0.525979-0.033769-0.839111-0.070608L560.640814 295.765423c-0.525979 0.070608-1.051959 0.070608-1.64343 0l-2.098801 0c-1.013073 0-1.923816-0.315178-2.726088-0.87288-14.096043-2.727111-24.514323-14.930037-24.514323-29.235858C529.659195 251.592364 539.725458 239.568517 553.4746 236.558973M904.691707 95.828788c-0.589424 0.24457-1.294482 0.385786-1.956561 0.385786L556.899606 96.214575c-1.154289 0-2.275833-0.553609-3.111874-1.360997-13.921058-2.90619-24.128537-14.999622-24.128537-29.16525 0-14.306844 10.41828-26.510794 24.514323-29.237905 0.802272-0.487094 1.713015-0.731664 2.726088-0.731664l0.87288 0.135076c0.352017-0.069585 0.87288-0.242524 3.15076-0.135076l339.713099 0.135076c0.559748-0.135076 1.611707-0.350994 2.098801-0.350994 16.648169 0 30.219255 13.56904 30.219255 30.185486C932.953378 81.702046 920.469042 94.781946 904.691707 95.828788"  horiz-adv-x="1024" />

    
    <glyph glyph-name="icondate" unicode="&#58889;" d="M849.095481 750.891088l-82.708723 0L766.386758 802.939511c0 16.690124-13.532201 30.222325-30.222325 30.222325s-30.222325-13.532201-30.222325-30.222325l0-52.048423L319.759651 750.891088 319.759651 802.939511c0 16.690124-13.532201 30.222325-30.222325 30.222325s-30.222325-13.532201-30.222325-30.222325l0-52.048423L174.928055 750.891088c-59.014068 0-107.024525-48.010457-107.024525-107.024525l0-598.608543c0-59.014068 48.010457-107.024525 107.024525-107.024525l674.167426 0c59.008952 0 107.019409 48.010457 107.019409 107.024525L956.11489 643.867586C956.11489 702.881654 908.104433 750.891088 849.095481 750.891088zM174.928055 690.445414l84.386946 0 0-48.694025c0-16.690124 13.532201-30.222325 30.222325-30.222325s30.222325 13.532201 30.222325 30.222325L319.759651 690.445414l386.181433 0 0-48.694025c0-16.690124 13.532201-30.222325 30.222325-30.222325s30.222325 13.532201 30.222325 30.222325L766.385734 690.445414l82.708723 0c25.682939 0 46.573735-20.895913 46.573735-46.578852l0-77.67201L128.349203 566.194552l0 77.67201C128.349203 669.549501 149.245116 690.445414 174.928055 690.445414zM849.095481-1.319809 174.928055-1.319809c-25.682939 0-46.578852 20.895913-46.578852 46.578852L128.349203 505.749902l767.320013 0 0-460.490859C895.669216 19.576103 874.777397-1.319809 849.095481-1.319809zM264.769222 349.598492l-70.520123 0c-16.690124 0-30.222325 13.532201-30.222325 30.222325 0 16.690124 13.532201 30.222325 30.222325 30.222325l70.520123 0c16.690124 0 30.222325-13.532201 30.222325-30.222325C294.992571 363.130693 281.459347 349.598492 264.769222 349.598492zM446.106244 349.598492l-70.520123 0c-16.690124 0-30.222325 13.532201-30.222325 30.222325 0 16.690124 13.532201 30.222325 30.222325 30.222325l70.520123 0c16.690124 0 30.222325-13.532201 30.222325-30.222325C476.328569 363.130693 462.796368 349.598492 446.106244 349.598492zM642.553405 349.598492l-70.520123 0c-16.690124 0-30.222325 13.532201-30.222325 30.222325 0 16.690124 13.532201 30.222325 30.222325 30.222325l70.520123 0c16.690124 0 30.222325-13.532201 30.222325-30.222325C672.776753 363.130693 659.244552 349.598492 642.553405 349.598492zM832.286654 349.598492l-70.520123 0c-16.690124 0-30.222325 13.532201-30.222325 30.222325 0 16.690124 13.532201 30.222325 30.222325 30.222325l70.520123 0c16.690124 0 30.222325-13.532201 30.222325-30.222325C862.510002 363.130693 848.977801 349.598492 832.286654 349.598492zM262.250866 223.670431 191.730743 223.670431c-16.690124 0-30.222325 13.532201-30.222325 30.222325 0 16.690124 13.532201 30.222325 30.222325 30.222325l70.520123 0c16.690124 0 30.222325-13.532201 30.222325-30.222325C292.473191 237.202633 278.94099 223.670431 262.250866 223.670431zM443.586864 223.670431l-70.520123 0c-16.690124 0-30.222325 13.532201-30.222325 30.222325 0 16.690124 13.532201 30.222325 30.222325 30.222325l70.520123 0c16.690124 0 30.222325-13.532201 30.222325-30.222325C473.810213 237.202633 460.278012 223.670431 443.586864 223.670431zM640.035048 223.670431 569.514925 223.670431c-16.690124 0-30.222325 13.532201-30.222325 30.222325 0 16.690124 13.532201 30.222325 30.222325 30.222325l70.520123 0c16.690124 0 30.222325-13.532201 30.222325-30.222325C670.257374 237.202633 656.725172 223.670431 640.035048 223.670431zM829.768297 223.670431l-70.520123 0c-16.690124 0-30.222325 13.532201-30.222325 30.222325 0 16.690124 13.532201 30.222325 30.222325 30.222325l70.520123 0c16.690124 0 30.222325-13.532201 30.222325-30.222325C859.991646 237.202633 846.458421 223.670431 829.768297 223.670431zM262.250866 97.745441 191.730743 97.745441c-16.690124 0-30.222325 13.532201-30.222325 30.222325 0 16.690124 13.532201 30.222325 30.222325 30.222325l70.520123 0c16.690124 0 30.222325-13.532201 30.222325-30.222325C292.473191 111.277642 278.94099 97.745441 262.250866 97.745441zM443.586864 97.745441l-70.520123 0c-16.690124 0-30.222325 13.532201-30.222325 30.222325 0 16.690124 13.532201 30.222325 30.222325 30.222325l70.520123 0c16.690124 0 30.222325-13.532201 30.222325-30.222325C473.810213 111.277642 460.278012 97.745441 443.586864 97.745441zM640.035048 97.745441 569.514925 97.745441c-16.690124 0-30.222325 13.532201-30.222325 30.222325 0 16.690124 13.532201 30.222325 30.222325 30.222325l70.520123 0c16.690124 0 30.222325-13.532201 30.222325-30.222325C670.257374 111.277642 656.725172 97.745441 640.035048 97.745441zM829.768297 97.745441l-70.520123 0c-16.690124 0-30.222325 13.532201-30.222325 30.222325 0 16.690124 13.532201 30.222325 30.222325 30.222325l70.520123 0c16.690124 0 30.222325-13.532201 30.222325-30.222325C859.991646 111.277642 846.458421 97.745441 829.768297 97.745441z"  horiz-adv-x="1024" />

    
    <glyph glyph-name="jiantou-copy" unicode="&#58899;" d="M777.593 542.677l-264.231-267.049-268.146 265.321c-11.775 11.776-30.909 11.734-42.734-0.091v-0.001c-11.826-11.825-11.867-30.958 2.931-42.728l283.028-283.028c4.273-3.818 9.32-8.206 12.046-8.933 11.112-4.471 24.765-2.232 35.988 6.711l286.982 286.982c8.848 11.874 8.894 31.096-2.933 42.923-11.826 11.824-31.046 11.778-42.93-0.105z"  horiz-adv-x="1024" />

    
    <glyph glyph-name="coupon1" unicode="&#58929;" d="M36.48 528.256c0 18.944 3.2 32.384 9.344 40.448 6.272 8.064 19.84 12.032 41.344 12.032h131.84v-524.544h-56.576c-15.232 0-30.08 0.128-44.8 0.512-14.848 0.256-24.96 0.512-30.464 0.512-18.56-0.768-31.616 2.432-39.296 9.472-7.552 6.912-11.392 20.352-11.392 39.936v151.04c0 7.68 1.28 13.568 3.584 17.152 2.304 3.84 7.296 6.528 14.976 7.936 2.816 0 6.4 1.024 11.392 3.2 4.736 2.176 9.6 5.632 14.336 10.112 4.736 4.48 8.96 10.368 12.416 17.792 3.456 7.296 5.248 16.128 5.248 26.752 0 16.128-4.224 28.544-12.8 37.76-8.576 9.088-17.792 14.464-27.52 15.616-7.424 1.408-13.056 3.712-16.384 6.912-3.456 3.328-5.248 8.576-5.248 16.384v110.976z m85.632 99.712V655.232c0 13.824 5.376 26.88 16 38.784s22.144 17.92 34.56 17.92h142.336v-83.968H122.112z m840.576-227.584c-5.376-1.536-9.472-4.352-11.904-9.088-2.176-4.352-3.584-9.472-3.584-14.976 0-5.76 1.408-11.136 3.584-16.256 2.432-5.376 6.528-9.088 11.904-11.136 5.504-2.176 9.856-6.4 12.928-12.544 3.2-6.4 4.864-12.928 5.12-19.968 0.384-6.912-0.64-13.696-2.56-19.84-2.048-6.272-5.12-10.88-9.216-13.696-13.696-8.448-20.608-17.792-20.608-28.288s6.784-21.12 20.608-31.36c2.816-2.176 5.248-6.016 7.68-11.52 2.304-5.76 3.584-11.264 3.584-17.024 0-5.632-1.28-10.368-4.096-14.592-2.816-4.224-7.552-6.4-14.464-6.4h-55.68c-3.968 0-6.272 0.384-6.528 1.152-0.384 0.768 0.128 1.792 1.408 3.456 1.408 1.792 3.072 3.712 5.12 6.016 2.048 2.048 3.712 4.48 5.248 7.296 3.456 9.728 3.456 18.176 0 25.088-3.584 7.04-9.216 12.928-17.664 17.792-5.504 2.816-9.6 7.168-11.776 13.312-2.432 5.888-3.456 12.032-3.072 18.304 0.256 6.4 1.408 11.904 3.584 16.768 2.048 4.992 5.248 8.576 9.216 10.624 5.632 2.048 9.728 6.016 12.416 11.52 2.816 5.504 4.224 11.52 4.224 17.792s-1.152 12.032-3.072 17.28c-2.048 5.248-5.12 8.96-9.472 11.008-5.376 2.944-9.728 6.912-12.8 12.672-3.072 5.376-4.608 11.648-4.608 18.688s1.28 13.824 4.096 20.48c2.816 6.656 7.168 12.032 13.312 16.256 4.352 2.816 7.68 6.656 10.368 11.52 2.944 4.992 4.224 10.112 4.736 15.744 0.384 5.632-0.896 11.008-3.2 16.256-2.432 5.248-6.784 9.6-12.928 13.056-6.784 3.456-11.904 8.576-14.976 15.232-3.072 6.656-4.608 13.568-4.608 20.48 0 7.04 1.664 13.696 4.608 19.968 3.072 6.144 7.296 11.136 12.8 14.72 11.648 6.144 18.176 14.848 19.072 25.6 1.024 10.88 0.256 20.864-2.56 29.824-2.176 7.04-6.272 13.312-12.288 18.944-6.272 5.632-14.208 8.448-23.808 8.448H377.984v82.816H958.72c4.736 0 8.704-1.792 12.16-5.248 3.584-3.456 5.888-7.68 6.912-12.672 1.024-4.864 0.768-9.984-1.024-15.232-1.664-5.12-4.864-9.728-9.856-13.184-4.224-3.456-7.808-7.936-10.88-13.568-3.2-5.632-4.608-11.264-5.248-17.28-0.256-6.016 0.768-11.904 2.688-17.92 1.92-5.888 5.76-10.368 11.264-13.056 7.68-4.224 13.312-9.984 17.024-17.152 3.84-7.296 5.76-14.592 5.76-21.888 0-7.424-1.92-14.208-5.76-20.48-3.712-6.4-8.96-11.008-15.872-13.696-7.552-2.944-13.184-6.912-16.512-12.032-3.584-5.248-5.248-11.136-5.76-17.28-0.384-6.272 0.896-12.416 3.968-18.304 3.2-6.016 8.192-11.136 15.104-15.36 6.912-4.096 12.032-9.6 15.104-16.768 3.072-6.912 4.352-13.824 4.096-20.992-0.384-6.912-2.048-13.44-5.12-19.456-3.328-5.76-7.808-9.216-14.08-9.856zM828.672 416c-8.192-2.048-14.592-6.144-19.072-12.032-4.48-6.016-6.784-12.032-7.168-18.56-0.256-6.272 1.536-12.544 5.12-18.944 3.968-6.144 9.472-10.752 17.152-13.568 6.784-2.944 12.032-7.04 15.36-12.544 3.584-5.76 5.376-11.648 5.76-17.92 0.384-6.272-0.896-12.288-3.584-17.792-2.688-5.632-6.912-9.856-12.416-12.544-17.152-8.576-26.112-18.688-26.752-30.464-0.896-11.904 5.76-21.248 19.456-28.416 6.272-2.816 11.264-7.04 14.976-13.056 3.84-6.016 5.888-12.16 6.272-18.944 0.384-6.528-0.896-12.544-3.712-17.664-2.688-5.504-7.168-8.96-13.312-11.136-8.32-2.048-14.592-5.888-19.2-11.52-4.352-5.504-6.656-11.52-7.04-17.664-0.512-6.528 1.28-12.672 5.12-18.944 3.712-6.4 9.856-11.648 17.92-15.872 5.632-2.816 9.472-7.168 11.904-13.056 2.432-6.016 3.328-11.776 2.688-17.28-0.896-5.632-2.688-10.752-5.888-15.104-3.072-4.608-7.296-6.912-12.928-6.912H279.936V580.736h545.536c5.504 0 9.856-2.176 13.056-6.912 3.072-4.48 4.608-9.472 5.12-15.232 0.384-5.632-0.896-11.136-3.712-16.768-2.688-5.504-7.168-9.472-13.312-11.52-6.272-2.176-11.264-5.632-15.104-10.496-3.84-4.864-6.016-10.368-6.784-16.256-0.64-6.016 0.896-11.648 4.224-17.28 3.584-5.632 9.344-9.856 17.664-12.544 6.144-2.816 11.264-6.912 14.976-12.672 3.712-5.632 6.016-11.264 6.272-17.152 0.384-6.144-1.024-11.648-4.096-17.024-3.072-4.992-8.192-8.704-15.104-10.88z m-248.576-70.4c-3.328 0-7.04 0.384-10.88 1.024-3.712 0.896-4.48 2.944-2.56 6.4 0.896 1.28 4.096 6.272 9.856 14.592 5.888 8.576 12.288 17.28 19.584 26.752 7.168 9.472 13.696 18.432 20.224 26.752 6.144 8.448 9.856 13.696 11.264 15.872 3.584 5.504 1.408 12.032-6.272 19.84-1.28 1.408-4.096 3.584-8.32 6.4-3.968 2.688-7.808 4.864-11.136 6.144-5.632 2.048-9.6 2.432-12.032 1.024-2.176-1.408-5.248-4.48-8.704-9.472-1.408-2.048-4.736-7.168-10.368-15.104-5.376-8.192-11.264-16.64-17.536-25.856-6.144-9.216-11.904-17.28-17.024-24.576-5.248-7.424-8.064-11.776-8.704-13.184-1.28-2.688-3.968-3.84-7.808-3.2-3.712 0.768-6.272 2.432-7.552 5.248-0.896 1.408-3.84 5.504-9.344 12.16-5.504 6.528-11.52 13.952-17.536 22.4-6.144 8.576-12.16 16.128-17.92 23.552-5.888 7.424-9.856 12.416-11.904 15.36-6.272 11.904-12.672 15.616-19.584 11.392-4.864-2.688-9.216-5.76-13.056-8.832-3.712-3.328-7.296-5.888-10.752-8.064-6.912-4.736-7.936-11.136-3.072-18.816 11.648-13.952 22.016-26.88 30.976-38.784 7.552-9.728 14.72-19.072 21.632-28.416 6.784-8.96 10.88-14.208 12.288-15.744 1.408-2.688 0-4.224-4.096-4.224h-12.288c-3.456 0-8.448-0.128-14.976-0.512-6.656-0.384-12.672-0.256-18.176 0.512-5.376 0-9.984-1.28-13.44-4.224-3.328-2.688-4.48-6.144-2.944-10.368 0.64-2.944 1.024-7.04 1.024-12.544v-12.8c0-3.456 0.896-5.376 3.072-5.76 2.048-0.256 4.48-0.384 7.168-0.384h59.904c8.064 0 12.288-1.792 12.288-5.248v-19.84c0-3.584-0.64-5.376-2.048-5.376H420.096c-4.096 0.768-6.784-0.384-8.192-3.072-1.28-2.944-2.304-6.016-3.072-9.472-0.768-3.584-0.768-6.912 0-9.856 0.768-3.328 0.896-6.016 0.896-7.936 0-9.216 4.48-13.696 13.44-13.696H485.12c3.584 0 5.504-0.512 6.144-1.536 0.64-1.024 1.024-3.456 1.024-6.912 0.768-3.456 0.896-9.728 0.512-18.816-0.256-9.216-0.512-15.104-0.512-18.048 0-7.68 4.48-11.52 13.44-11.52H538.88c5.504 0 8.32 1.664 8.32 5.376v41.856c0 7.04 3.2 10.624 9.216 10.624h9.344c4.736 0 10.24 0.128 16 0.64 6.016 0.256 11.52 0.512 16.896 0.512h13.44c9.6 0 14.592 3.456 14.592 10.368v23.168c0 6.4-3.456 9.472-10.24 9.472h-60.032c-6.784-1.536-10.368 0-10.368 4.224 0 1.92-0.128 4.608-0.512 7.808-0.384 3.2-0.384 6.016-0.384 8.832 0 2.688 1.024 4.864 3.584 6.144 2.56 1.536 5.12 2.176 7.808 2.176h60.928c6.784 0 10.24 2.304 10.24 7.296v25.216c0 2.816-1.152 5.504-3.584 8.32-2.432 2.944-5.376 4.224-8.704 4.224h-35.328v0.512z"  horiz-adv-x="1024" />

    
    <glyph glyph-name="gouwuche-01" unicode="&#58892;" d="M945.993 679.752c-0.396 0.107-0.794 0.175-1.19 0.257-1.056 0.262-2.278 0.43-3.534 0.467 2.74-0.3 2.638-0.287 2.535-0.271-1.065 0.202-2.29 0.318-3.542 0.318l-714.188-0-36.788 136.609c-2.754 10.223-12.952 16.428-23.186 14.397h-127.087c-11.046 0-20-8.955-20-20s8.954-20 20-20h115.743l180.229-669.247c-36.819-13.428-63.108-48.75-63.108-90.216 0-53.021 42.98-96 96-96 53.019 0 96 42.979 96 96 0 20.884-6.672 40.206-17.996 55.963h255.152c-11.323-15.756-17.995-35.079-17.995-55.963 0-53.021 42.979-96 96-96 53.020 0 96 42.979 96 96 0 49.541-37.526 90.312-85.703 95.448v0.515h-7.668c-0.874 0.022-1.75 0.036-2.629 0.036s-1.755-0.014-2.629-0.036h-401.549l-23.831 88.492h475.971c9.865 0 18.043 7.15 19.682 16.547l3.171 14.666c0.031 0.108 0.074 0.21 0.104 0.318l109.617 405.658c0.142 0.526 0.251 1.052 0.346 1.578l0.184-0.049c2.873 10.666-3.444 21.641-14.111 24.513zM777.569 88.030h2.936c30.247-0.78 54.532-25.526 54.532-55.963 0-30.929-25.072-56-56-56s-56 25.071-56 56c0 30.437 24.285 55.183 54.532 55.963zM367.135 88.048c0.122-0.002 0.241-0.019 0.364-0.019h1.845c30.247-0.779 54.532-25.525 54.532-55.962 0-30.929-25.072-56-56-56s-56 25.071-56 56c0 30.68 24.674 55.583 55.259 55.981zM811.341 258.487c-0.398-1.421-0.649-3.062-0.697-4.754l-470.387 2.79-103.41 384h677.73l-103.236-382.036z"  horiz-adv-x="1024" />

    
    <glyph glyph-name="sousuo" unicode="&#59100;" d="M958.94784 51.851162L755.377254 260.228096c-1.993523 2.046566-4.538573 2.931814-6.753075 4.64681 42.663424 60.091597 67.949261 133.349069 67.949261 212.693196 0 203.34121-164.892058 368.282829-368.297882 368.282829-203.402752 0-368.297882-164.941619-368.297881-368.282829 0-203.397427 164.89513-368.281805 368.297881-368.281804 84.109005 0 161.353318 28.438733 223.326311 75.91086 1.106227-1.325158 1.547264-2.931814 2.710835-4.147507l203.568538-208.431104c11.06647-11.344384 25.788416-17.042125 40.506163-17.042125 14.274662 0 28.607693 5.36617 39.616921 16.15698C980.363366-6.467072 980.804506 29.441843 958.94784 51.851162zM136.640512 477.568c0 171.800781 139.829248 311.623373 311.63607 311.623373 171.86519 0 311.63607-139.823514 311.636071-311.623373 0-171.859149-139.770982-311.624397-311.636071-311.624397C276.46976 165.943706 136.640512 305.708851 136.640512 477.568z"  horiz-adv-x="1024" />

    
    <glyph glyph-name="wode" unicode="&#58983;" d="M680.451244-127.983724l0 45.313133 75.505611 0 0-45.313133-75.505611 0ZM999.775362-56.237931c-13.932486 203.144111-152.85044 371.847637-340.629754 430.865388a19.531523 19.531523 0 0 0-4.88288 34.831215c91.944643 61.198771 143.589243 178.143762 106.397969 302.640943A256.123366 256.123366 0 0 1 588.490325 883.977013C407.302901 937.786358 241.952286 803.474588 241.952286 630.522955a265.107866 265.107866 0 0 1 121.518623-222.984882 19.531523 19.531523 0 0 0-4.427145-34.961426C173.689615 311.752231 37.196824 143.76486 24.175809-58.077149q-1.025405-15.804257-1.041681-31.868935c0-12.207202 12.028163-36.263527 24.072602-36.263526 198.749518 0.146486 371.196586 0.472012 547.712721 0.78126 0 0 26.644252-1.725284 26.644252 22.477528s-26.644252 21.972963-26.644252 21.972963c-135.53249-0.244144-253.909793-0.585946-403.537532-0.667327l-123.699643-0.113934q0.195315 10.498193 0.895195 20.817347c12.597832 194.826938 155.194223 360.519354 346.684525 402.919035l90.219358 19.987258a19.531523 19.531523 0 0 0 8.138135 0l89.812451-18.685157c193.687599-40.34887 338.546391-205.943629 351.990589-402.560956v-0.211592a19.531523 19.531523 0 0 0-19.352483-20.654585c-37.549352-0.26042-80.714017-0.472012-128.175617-0.634774 0 0-18.880472 0-18.880472-22.054344s18.880472-22.412422 18.880472-22.412423c65.560811 0.227868 122.950935 0.537117 169.045328 0.944024 11.393388 0.113934 23.926115 22.786776 23.926115 34.326651s-0.358078 22.575185-1.09051 33.740705zM594.854346 427.606712l-85.841041-37.126169-86.264225 35.807791a220.494614 220.494614 0 0 0-136.411409 204.267174c0 121.860425 99.15503 220.999178 220.999178 220.999178s221.064283-99.122477 221.064283-220.999178a220.966625 220.966625 0 0 0-133.546786-202.948796z"  horiz-adv-x="1024" />

    
    <glyph glyph-name="xuanzhong" unicode="&#58947;" d="M512 832C262.4 832 64 633.6 64 384s198.4-448 448-448 448 198.4 448 448S761.6 832 512 832z m0-832c-217.6 0-384 166.4-384 384s166.4 384 384 384 384-166.4 384-384-166.4-384-384-384z m192 556.8L435.2 281.6 320 396.8c-12.8 12.8-32 12.8-44.8 0s-12.8-32 0-44.8l134.4-140.8c12.8-12.8 32-12.8 44.8 0l294.4 294.4c12.8 12.8 12.8 38.4 0 51.2s-32 12.8-44.8 0z"  horiz-adv-x="1024" />

    
    <glyph glyph-name="tishi" unicode="&#58977;" d="M512-62.017C266.08-62.017 65.983 138.048 65.983 384 65.983 629.92 266.08 830.017 512 830.017c245.952 0 446.017-200.065 446.017-446.017S757.952-62.017 512-62.017z m0 828.034c-210.656 0-382.017-171.36-382.017-382.017 0-210.625 171.36-382.017 382.017-382.017 210.625 0 382.017 171.36 382.017 382.017S722.625 766.017 512 766.017zM464 592c0-26.51 21.49-48 48-48s48 21.49 48 48-21.49 48-48 48-48-21.49-48-48zM512 128c-17.665 0-32 14.303-32 32V448c0 17.665 14.335 32 32 32s32-14.335 32-32v-288c0-17.697-14.335-32-32-32z"  horiz-adv-x="1024" />

    
    <glyph glyph-name="safe" unicode="&#59312;" d="M899.008 740.64a62.784 62.784 0 0 1-47.008 16.544c-0.864-0.064-10.912-0.64-26.656-0.64-26.048 0-76.896 1.76-125.088 13.504-62.24 15.168-134.048 85.568-154.944 99.456A62.848 62.848 0 0 1 475.84 869.568c-2.56-1.696-77.728-81.536-151.264-99.488-48.16-11.744-100-13.504-126.016-13.504-15.776 0-25.792 0.608-26.752 0.64a62.912 62.912 0 0 1-46.912-16.608c-12.672-11.744-19.872-28.16-19.872-45.344v-155.296c0-574.176 378.432-648.128 394.496-650.976a63.52 63.52 0 0 1 22.08 0c16.096 2.88 397.28 76.8 397.28 650.976V695.264a61.76 61.76 0 0 1-19.936 45.376z m-42.624-200.672c0-528.8-345.792-589.856-345.792-589.856S167.584 11.136 167.584 539.968V695.296s11.84-0.832 31.008-0.832c32.8 0 88 2.4 140.896 15.328 86.624 21.088 171.104 108.128 171.104 108.128s88.224-87.04 174.784-108.128c52.96-12.928 107.2-15.328 140.032-15.328 19.104 0 30.976 0.832 30.976 0.832v-155.328z m-151.296 32.16l-242.336-240.608-120.192 119.328c-14.912 14.816-39.136 14.816-54.048 0s-14.912-38.848 0-53.664l140.224-139.232a38.304 38.304 0 0 1 34.048-18.976 38.08 38.08 0 0 1 34.048 18.976l262.368 260.48c14.944 14.816 14.944 38.848 0 53.664s-39.136 14.816-54.08 0z"  horiz-adv-x="1024" />

    
    <glyph glyph-name="finish" unicode="&#58969;" d="M879.7 702.2l-495-495-240.4 240.4-70.7-70.7 311.1-311.1 565.7 565.7z"  horiz-adv-x="1024" />

    
    <glyph glyph-name="fresh" unicode="&#59038;" d="M513.6 124.48c-130.24 0-239.392 88.864-272.128 209.504l121.92-23.904a28.544 28.544 0 0 1 32.512 24.128l4.128 28.448a28.928 28.928 0 0 1-24.192 32.768l-211.296 41.408a29.056 29.056 0 0 1-21.504-5.536c-5.728-4.384-7.936-10.912-11.008-18.592l-73.632-206.176a28.928 28.928 0 0 1 12.736-38.688l25.568-12.928a28.48 28.48 0 0 1 38.4 12.832l36.576 93.792c56.896-133.472 188.512-227.008 341.92-227.008 119.52 0 225.472 57.024 293.376 145.248l-88.32 33.728a280.864 280.864 0 0 0-205.088-89.056zM953.536 650.368l-25.344 12.928a28.16 28.16 0 0 1-38.08-12.832l-36.256-93.76c-56.384 133.44-186.848 226.944-338.912 226.944-118.464 0-223.488-57.024-290.784-145.216L311.68 604.704c51.04 54.752 123.136 89.056 203.264 89.056 129.088 0 237.312-88.832 269.728-209.504l-120.832 23.904a28.288 28.288 0 0 1-32.224-24.128l-4.096-28.448a28.896 28.896 0 0 1 24-32.768l209.44-41.408a27.52 27.52 0 0 1 19.136 4.352s6.752 3.36 13.088 19.808l72.992 206.144a29.056 29.056 0 0 1-12.672 38.688z"  horiz-adv-x="1024" />

    
    <glyph glyph-name="dingwei" unicode="&#58885;" d="M511.7 626.7c46.2 0 83.9-37.6 83.9-83.9s-37.6-83.9-83.9-83.9c-46.2 0-83.9 37.6-83.9 83.9s37.6 83.9 83.9 83.9m0 55.9c-77.2 0-139.8-62.6-139.8-139.8S434.5 403 511.7 403s139.8 62.6 139.8 139.8-62.6 139.8-139.8 139.8zM511.7-63.8c-251 0-447.7 98.4-447.7 224 0 47.9 27.9 93.1 80.8 130.6 17 12.1 36.6 23.3 58.3 33.4 14 6.6 30.6 0.5 37.2-13.5 6.5-14 0.5-30.6-13.5-37.2-18.6-8.7-35.3-18.2-49.6-28.3-26.1-18.5-57.2-48.3-57.2-84.9 0-79.5 160.9-168 391.8-168s391.8 88.6 391.8 168c0 36.8-31.3 66.6-57.5 85.1-14 9.9-30.3 19.2-48.5 27.8-14 6.6-20 23.2-13.4 37.2 6.6 14 23.2 20 37.2 13.4 21.1-9.9 40.3-20.9 57-32.7 53.1-37.5 81.2-82.8 81.2-130.8-0.2-125.7-196.9-224.1-447.9-224.1zM511.7 775.8c123.3 0 223.7-100.3 223.7-223.7 0-69.3-87-235.3-223.7-428C375.1 316.8 288 482.9 288 552.1c0 123.4 100.4 223.7 223.7 223.7m0 55.9c-154.4 0-279.6-125.2-279.6-279.6 0-126.4 187.4-396.4 255.4-490.2 6-8.3 15.1-12.4 24.2-12.4s18.2 4.1 24.2 12.4c68 93.8 255.4 363.8 255.4 490.2 0 154.4-125.2 279.6-279.6 279.6z"  horiz-adv-x="1024" />

    
    <glyph glyph-name="yiwen" unicode="&#58887;" d="M512 896C228.072727 896 0 667.927273 0 384s228.072727-512 512-512 512 228.072727 512 512S795.927273 896 512 896z m0-949.527273c-242.036364 0-437.527273 195.490909-437.527273 437.527273S269.963636 821.527273 512 821.527273s437.527273-195.490909 437.527273-437.527273-195.490909-437.527273-437.527273-437.527273zM525.963636 598.109091c-46.545455 0-83.781818-13.963636-107.054545-32.581818-23.272727-23.272727-37.236364-41.890909-46.545455-83.781818l-4.654545-13.963637 69.818182-9.309091 4.654545 9.309091c4.654545 23.272727 9.309091 27.927273 18.618182 41.890909 13.963636 18.618182 41.890909 27.927273 69.818182 27.927273 41.890909 0 74.472727-23.272727 74.472727-55.854545 0-13.963636-4.654545-23.272727-13.963636-37.236364-4.654545-4.654545-13.963636-13.963636-32.581818-27.927273-32.581818-23.272727-37.236364-27.927273-51.2-41.890909-13.963636-23.272727-23.272727-41.890909-23.272728-69.818182v-46.545454h65.163637v13.963636 18.618182 9.309091c0 18.618182 4.654545 32.581818 13.963636 41.890909 4.654545 9.309091 13.963636 13.963636 46.545455 37.236364 27.927273 23.272727 41.890909 32.581818 51.2 51.2 9.309091 18.618182 13.963636 37.236364 13.963636 55.854545-9.309091 65.163636-65.163636 111.709091-148.945455 111.709091zM484.072727 207.127273H558.545455v-65.163637h-74.472728z"  horiz-adv-x="1024" />

    
    <glyph glyph-name="gouwuchekong" unicode="&#58880;" d="M332.8 105.472q19.456 0 36.864-7.168t30.208-19.968 20.48-30.208 7.68-36.864-7.68-36.864-20.48-30.208-30.208-20.48-36.864-7.68q-20.48 0-37.888 7.68t-30.208 20.48-20.48 30.208-7.68 36.864 7.68 36.864 20.48 30.208 30.208 19.968 37.888 7.168zM758.784 103.424q19.456 0 37.376-7.168t30.72-19.968 20.48-30.208 7.68-36.864-7.68-36.864-20.48-30.208-30.72-20.48-37.376-7.68-36.864 7.68-30.208 20.48-20.48 30.208-7.68 36.864 7.68 36.864 20.48 30.208 30.208 19.968 36.864 7.168zM930.816 685.056q28.672 0 44.544-7.68t22.528-18.944 6.144-24.064-3.584-22.016-13.312-37.888-22.016-62.976-23.552-68.096-18.944-53.248q-13.312-40.96-33.28-56.832t-49.664-15.872h-537.6l14.336-92.16h517.12q49.152 0 49.152-41.984 0-20.48-9.728-35.84t-38.4-14.336h-536.576q-20.48 0-34.304 9.216t-23.040 24.064-14.848 32.256-8.704 32.768q-1.024 6.144-5.632 29.696t-11.264 58.88-14.848 78.848-16.384 87.552q-19.456 103.424-44.032 230.4h-76.8q-15.36 0-25.6 7.68t-16.896 18.432-9.216 23.040-2.56 22.528q0 20.48 13.824 33.792t37.376 12.288h103.424q20.48 0 32.768-6.144t19.456-15.36 10.24-18.944 5.12-16.896q2.048-8.192 4.096-23.040t4.096-30.208q3.072-18.432 6.144-38.912h700.416zM892.928 593.92l-641.024 2.048 35.84-185.344 535.552-1.024z"  horiz-adv-x="1028" />

    
    <glyph glyph-name="shouye" unicode="&#58911;" d="M849.92-43.52c2.56-23.04-15.36-43.52-40.96-43.52H640V256h-256v-340.48h-171.52c-23.04 0-43.52 17.92-43.52 43.52v384h-76.8L512 829.44l212.48-248.32V768h84.48v-286.72l120.32-140.8h-76.8v-43.52h171.52l-171.52 199.68V811.52h-171.52v-112.64L512 896l-512-596.48h128v-340.48c0-48.64 38.4-87.04 84.48-87.04h212.48V212.48h171.52V-128h212.48c46.08 0 84.48 38.4 84.48 84.48v84.48h-43.52v-84.48zM852.48 212.48h43.52V128h-43.52zM384 427.52v-84.48h256v84.48c0 71.68-56.32 128-128 128s-128-58.88-128-128z m212.48 0V384h-171.52v43.52c0 46.08 38.4 84.48 84.48 84.48 48.64 0 87.04-38.4 87.04-84.48z"  horiz-adv-x="1024" />

    
    <glyph glyph-name="youhuiquan" unicode="&#58957;" d="M860.821333 456.298667c20.778667 6.058667 36.245333 26.645333 36.245334 48.554666v147.754667c0 30.592-22.016 52.8-52.352 52.8H178.282667c-30.336 0-52.352-22.208-52.352-52.8v-144.597333c0-23.445333 13.248-42.730667 33.152-48.554667 31.210667-12.629333 50.56-42.112 50.56-77.226667 0-33.472-20.757333-65.066667-50.581334-77.205333-19.882667-5.824-33.130667-25.130667-33.130666-48.533333v-147.776c0-30.592 22.016-52.778667 52.352-52.778667h663.338666c15.893333 0 29.717333 5.973333 38.912 16.832 8.533333 10.069333 12.16 23.317333 10.304 37.482667V197.12a21.333333 21.333333 0 1 1-42.666666 0v-88.426667l0.298666-3.456c0.362667-2.24 0.192-4.096-0.448-4.885333-0.746667-0.874667-3.029333-1.770667-6.4-1.770667H178.282667c-4.8 0-9.685333 1.194667-9.685334 10.112v147.776c0 4.608 1.770667 7.445333 2.517334 7.594667l2.496 0.810667c47.061333 18.368 78.677333 65.514667 78.677333 117.333333 0 53.44-30.144 98.410667-78.677333 117.354667l-2.517334 0.832c-0.704 0.170667-2.474667 3.072-2.474666 7.594666V652.586667c0 8.917333 4.885333 10.133333 9.685333 10.133333h666.410667c4.8 0 9.685333-1.194667 9.685333-10.133333v-147.754667c0-3.008-2.901333-6.912-5.632-7.616l-2.496-0.810667c-49.28-19.221333-78.677333-61.930667-78.677333-114.218666 0-51.861333 29.44-97.834667 75.008-117.098667a21.333333 21.333333 0 0 1 16.64 39.296c-29.76 12.586667-48.96 43.114667-48.96 77.802667-0.021333 34.24 18.389333 61.184 50.538666 74.112zM634.624 546.261333a22.570667 22.570667 0 0 1-33.002667 0l-89.664-90.666666-89.642666 90.666666a22.549333 22.549333 0 0 1-32.981334 0 23.36 23.36 0 0 1 0-33.450666l89.6-90.624h-68.394666c-14.144 0-23.573333-9.557333-23.573334-23.893334s9.429333-23.893333 23.573334-23.893333h77.866666v-40.469333h-77.866666c-14.144 0-23.573333-9.536-23.573334-23.829334 0-14.378667 9.429333-23.914667 23.573334-23.914666h77.866666v-54.784c0-14.378667 9.408-23.914667 23.552-23.914667s23.573333 9.536 23.573334 23.914667v54.784h73.173333c14.122667 0 23.552 9.536 23.552 23.914666 0 14.293333-9.408 23.829333-23.552 23.829334h-73.173333V374.4h73.173333c14.122667 0 23.552 9.557333 23.552 23.893333s-9.408 23.893333-23.552 23.893334h-63.701333l89.621333 90.624a23.36 23.36 0 0 1 0 33.450666z"  horiz-adv-x="1024" />

    
    <glyph glyph-name="shibai" unicode="&#59561;" d="M675.328 778.282667A425.429333 425.429333 0 0 1 512 810.666667C276.352 810.666667 85.333333 619.648 85.333333 384s191.018667-426.666667 426.666667-426.666667 426.666667 191.018667 426.666667 426.666667c0 56.746667-11.093333 112-32.384 163.328a21.333333 21.333333 0 0 1-39.402667-16.341333A382.762667 382.762667 0 0 0 896 384c0-212.074667-171.925333-384-384-384S128 171.925333 128 384 299.925333 768 512 768c51.114667 0 100.8-9.984 146.986667-29.12a21.333333 21.333333 0 0 1 16.341333 39.402667zM512 414.165333l-105.685333 105.706667a21.269333 21.269333 0 0 1-30.08-0.106667 21.205333 21.205333 0 0 1-0.106667-30.08L481.834667 384l-105.706667-105.685333a21.269333 21.269333 0 0 1 0.106667-30.08 21.205333 21.205333 0 0 1 30.08-0.106667L512 353.834667l105.685333-105.706667a21.269333 21.269333 0 0 1 30.08 0.106667 21.205333 21.205333 0 0 1 0.106667 30.08L542.165333 384l105.706667 105.685333a21.269333 21.269333 0 0 1-0.106667 30.08 21.205333 21.205333 0 0 1-30.08 0.106667L512 414.165333z"  horiz-adv-x="1024" />

    
    <glyph glyph-name="shouye1" unicode="&#59068;" d="M920 824H716.8V891.2h270.4v-270.4h-67.2V824z m25.6-388.8L512 806.4 80 435.2l-48 48L512 896l480-412.8-46.4-48z m-772.8-496h203.2v272h270.4v-270.4h203.2V347.2h67.2V-128h-336V144h-136v-272H104V347.2h67.2v-408zM920 824H716.8V891.2h270.4v-270.4h-67.2V824z m25.6-388.8L512 806.4 80 435.2l-48 48L512 896l480-412.8-46.4-48z m-772.8-496h203.2v272h270.4v-270.4h203.2V347.2h67.2V-128h-336V144h-136v-272H104V347.2h67.2v-408z"  horiz-adv-x="1024" />

    
    <glyph glyph-name="bianji" unicode="&#58883;" d="M343.3 335.7c-0.6-0.8-1.2-1.6-1.4-2.5l-45.1-170.9c-2.6-10 0.1-20.7 7.2-28.2 5.3-5.4 12.3-8.3 19.8-8.3 2.5 0 4.9 0.3 7.4 1l164.1 46.3c0.3 0 0.4-0.2 0.6-0.2 1.9 0 3.8 0.7 5.1 2.2l438.8 453.6c13 13.5 20.2 31.9 20.2 51.9 0 22.7-9.3 45.3-25.6 62.1L893 785.4c-16.3 16.8-38.2 26.5-60.1 26.5-19.3 0-37.1-7.4-50.2-20.9L343.9 337.2c-0.4-0.4-0.3-1-0.6-1.5z m553.6 337.2l-43.6-45-70.6 74.2 43 44.4c6.8 7.1 20 6 27.8-2.1l41.5-42.9c4.3-4.5 6.8-10.4 6.8-16.3-0.2-4.7-1.9-9.1-4.9-12.3zM421.3 328.5L738 655.9l70.7-74.3-316.1-326.7-71.3 73.6m-57.7-132.7l22.9 86.8 61-63.1-83.9-23.7m561.1 297.4c-16.6 0-30.2-14-30.3-31.4v-422.9c0-22.2-17.4-40.2-38.9-40.2h-692c-21.5 0-38.9 18-38.9 40.2V729.2c0 22.2 17.5 40.2 38.9 40.2h445.7c16.7 0 30.3 14 30.3 31.3 0 17.2-13.6 31.3-30.3 31.3H158.9C106.6 832 64 788 64 733.9V34c0-54.1 42.6-98.1 94.9-98.1h701.2c52.3 0 94.9 44 94.9 98.1V462c-0.1 17.2-13.7 31.2-30.3 31.2z"  horiz-adv-x="1024" />

    
    <glyph glyph-name="gouwuchekong1" unicode="&#58881;" d="M354.1333333333333 113.22199999999998q19.456 0 36.864-7.167999999999999t30.208-19.968 20.48-30.208 7.679999999999999-36.864-7.679999999999999-36.864-20.48-30.208-30.208-20.48-36.864-7.679999999999999q-20.48 0-37.888 7.679999999999999t-30.208 20.48-20.48 30.208-7.679999999999999 36.864 7.679999999999999 36.864 20.48 30.208 30.208 19.968 37.888 7.167999999999999zM780.1173333333334 111.17399999999998q19.456 0 37.376-7.167999999999999t30.719999999999995-19.968 20.48-30.208 7.679999999999999-36.864-7.679999999999999-36.864-20.48-30.208-30.719999999999995-20.48-37.376-7.679999999999999-36.864 7.679999999999999-30.208 20.48-20.48 30.208-7.679999999999999 36.864 7.679999999999999 36.864 20.48 30.208 30.208 19.968 36.864 7.167999999999999zM952.1493333333332 692.806q28.671999999999997 0 44.544-7.679999999999999t22.528-18.944 6.144-24.064-3.5839999999999996-22.016-13.311999999999998-37.888-22.016-62.97599999999999-23.552-68.096-18.944-53.24799999999999q-13.311999999999998-40.96-33.28-56.832t-49.664-15.871999999999998l-35.84 0-65.536 0-86.016 0-96.256 0-253.95199999999997 0 14.335999999999999-92.16 517.12 0q49.152 0 49.152-41.984 0-20.48-9.728-35.84t-38.4-14.335999999999999l-49.152 0-94.208 0-118.78399999999999 0-119.80800000000002 0-99.328 0-55.29599999999999 0q-20.48 0-34.304 9.216t-23.04 24.064-14.847999999999999 32.256-8.704 32.768q-1.024 6.144-5.632 29.695999999999998t-11.264 58.88-14.847999999999999 78.848-16.384 87.552q-19.456 103.42399999999999-44.032 230.39999999999998l-76.8 0q-15.359999999999998 0-25.6 7.679999999999999t-16.896 18.432-9.216 23.04-2.56 22.528q0 20.48 13.823999999999998 33.792t37.376 12.288l103.42399999999999 0q20.48 0 32.768-6.144t19.456-15.359999999999998 10.24-18.944 5.12-16.896q2.048-8.192 4.096-23.04t4.096-30.208q3.072-18.432 6.144-38.912l700.416 0zM914.2613333333335 601.67l-641.024 2.048 35.84-185.344 535.552-1.024z"  horiz-adv-x="1028" />

    
    <glyph glyph-name="che" unicode="&#58971;" d="M787.2 640H704V704c0 36.266667-27.733333 64-64 64H64C27.733333 768 0 740.266667 0 704v-554.666667c0-36.266667 27.733333-64 64-64h66.133333c10.666667-49.066667 53.333333-85.333333 104.533334-85.333333s93.866667 36.266667 104.533333 85.333333h302.933333c10.666667-49.066667 53.333333-85.333333 104.533334-85.333333 51.2 0 93.866667 36.266667 104.533333 85.333333H960c36.266667 0 64 27.733333 64 64V454.4c0 12.8-6.4 25.6-17.066667 34.133333l-181.333333 138.666667c-10.666667 8.533333-25.6 12.8-38.4 12.8zM42.666667 704c0 12.8 8.533333 21.333333 21.333333 21.333333h576c12.8 0 21.333333-8.533333 21.333333-21.333333v-362.666667H42.666667V704z m192-661.333333c-36.266667 0-64 27.733333-64 64s27.733333 64 64 64 64-27.733333 64-64-27.733333-64-64-64z m512 0c-36.266667 0-64 27.733333-64 64s27.733333 64 64 64 64-27.733333 64-64-27.733333-64-64-64z m234.666666 106.666666c0-12.8-8.533333-21.333333-21.333333-21.333333h-108.8c-10.666667 49.066667-53.333333 85.333333-104.533333 85.333333-51.2 0-93.866667-36.266667-104.533334-85.333333H339.2c-10.666667 49.066667-53.333333 85.333333-104.533333 85.333333s-93.866667-36.266667-104.533334-85.333333H64c-12.8 0-21.333333 8.533333-21.333333 21.333333v149.333334h938.666666v-149.333334z m0 192H704V597.333333h64c14.933333 0 27.733333-4.266667 38.4-12.8l157.866667-121.6c10.666667-8.533333 17.066667-21.333333 17.066666-34.133333V341.333333z"  horiz-adv-x="1024" />

    
    <glyph glyph-name="guanbi1" unicode="&#59096;" d="M616.96 384l385.024 385.024c28.672 28.672 28.672 76.288 0 104.96s-76.288 28.672-104.96 0L512 488.96 126.976 874.496c-28.672 28.672-76.288 28.672-104.96 0s-28.672-76.288 0-104.96L407.04 384 21.504-1.024c-28.672-28.672-28.672-76.288 0-104.96s76.288-28.672 104.96 0L511.488 279.04l385.024-385.024c28.672-28.672 76.288-28.672 104.96 0s28.672 76.288 0 104.96L616.96 384z"  horiz-adv-x="1024" />

    
    <glyph glyph-name="tyam" unicode="&#59140;" d="M948.224 91.42857100000003H950.857143V676.571429H146.285714v-354.450286l129.170286 116.516571a36.571429 36.571429 0 0 0 49.225143-0.219428l149.577143-137.654857L567.588571 393.947429a36.571429 36.571429 0 0 0 50.541715 1.097142l327.972571-301.568 2.121143-2.048z m-107.885714 0L594.432 317.44000000000005 501.101714 224.182857a36.571429 36.571429 0 0 0-50.614857-1.024L299.666286 361.98400000000004 146.285714 223.597714V91.42857100000003h694.052572zM146.285714 749.714286h804.571429a73.142857 73.142857 0 0 0 73.142857-73.142857v-585.142858a73.142857 73.142857 0 0 0-73.142857-73.142857H146.285714a73.142857 73.142857 0 0 0-73.142857 73.142857V676.571429a73.142857 73.142857 0 0 0 73.142857 73.142857z m658.285715-402.285715a109.714286 109.714286 0 1 0 0 219.428572 109.714286 109.714286 0 0 0 0-219.428572z m0 73.142858a36.571429 36.571429 0 1 1 0 73.142857 36.571429 36.571429 0 0 1 0-73.142857z"  horiz-adv-x="1024" />

    
    <glyph glyph-name="shezhi" unicode="&#59274;" d="M396.8 16l41.6 48 6.4 6.4c38.4 35.2 99.2 32 134.4-6.4l41.6-48c22.4 6.4 44.8 16 64 25.6l-3.2 64v9.6c3.2 54.4 48 92.8 102.4 89.6l64-3.2c9.6 19.2 19.2 41.6 25.6 64l-48 41.6-6.4 6.4c-35.2 38.4-32 99.2 6.4 134.4l48 41.6c-6.4 22.4-16 44.8-25.6 64l-64-3.2h-9.6c-54.4 3.2-92.8 48-89.6 102.4l3.2 64c-19.2 9.6-41.6 19.2-64 25.6l-41.6-48-6.4-6.4c-38.4-35.2-99.2-32-134.4 6.4l-41.6 48c-16-6.4-38.4-16-64-28.8l3.2-64v-9.6c-3.2-54.4-48-92.8-102.4-89.6l-64 3.2c-9.6-19.2-19.2-41.6-25.6-64l48-41.6 6.4-6.4c35.2-38.4 32-99.2-6.4-134.4l-48-41.6c6.4-22.4 16-44.8 25.6-64l64 3.2h9.6c54.4-3.2 92.8-48 89.6-102.4l-3.2-64c22.4-6.4 41.6-12.8 64-22.4z m-128 12.8l3.2 83.2c0 19.2-12.8 32-28.8 35.2h-3.2l-83.2-3.2c-12.8 0-22.4 6.4-28.8 16-22.4 35.2-38.4 73.6-48 115.2-3.2 12.8 0 22.4 9.6 32l64 57.6c12.8 12.8 12.8 32 3.2 44.8l-3.2 3.2-64 57.6c-9.6 6.4-12.8 19.2-9.6 32 9.6 41.6 25.6 80 48 115.2 6.4 9.6 16 16 28.8 16l83.2-3.2c19.2 0 32 12.8 35.2 28.8v3.2l-3.2 83.2c0 12.8 6.4 25.6 19.2 28.8 48 25.6 86.4 38.4 115.2 48 12.8 3.2 22.4 0 32-9.6l57.6-64c12.8-12.8 32-12.8 44.8-3.2l3.2 3.2 57.6 64c6.4 9.6 19.2 12.8 32 9.6 41.6-9.6 80-25.6 115.2-48 9.6-6.4 16-16 16-28.8l-3.2-83.2c0-19.2 12.8-32 28.8-35.2h3.2l83.2 3.2c12.8 0 22.4-6.4 28.8-16 22.4-35.2 38.4-73.6 48-115.2 3.2-12.8 0-22.4-9.6-32l-64-57.6c-12.8-12.8-12.8-32-3.2-44.8l3.2-3.2 64-57.6c9.6-6.4 12.8-19.2 9.6-32-9.6-41.6-25.6-80-48-115.2-6.4-9.6-16-16-28.8-16l-83.2 3.2c-19.2 0-32-12.8-35.2-28.8v-3.2l3.2-83.2c0-12.8-6.4-22.4-16-28.8-35.2-22.4-73.6-38.4-115.2-48-12.8-3.2-22.4 0-32 9.6l-57.6 64c-12.8 12.8-32 12.8-44.8 3.2l-3.2-3.2-57.6-64c-6.4-9.6-19.2-12.8-32-9.6-41.6 9.6-80 25.6-115.2 48-12.8 3.2-19.2 16-19.2 28.8z m243.2 163.2c-105.6 0-192 86.4-192 192s86.4 192 192 192 192-86.4 192-192-86.4-192-192-192z m0 64c70.4 0 128 57.6 128 128s-57.6 128-128 128-128-57.6-128-128 57.6-128 128-128z"  horiz-adv-x="1024" />

    
    <glyph glyph-name="icon_Mycoupon" unicode="&#58922;" d="M1024 303.261538c-39.384615 0-98.461538 17.723077-98.461538 76.8 0 57.107692 59.076923 80.738462 98.461538 80.738462v275.692308V738.461538c0 43.323077-35.446154 76.8-78.769231 76.8H78.769231c-43.323077 0-78.769231-35.446154-78.769231-78.76923v-275.692308c59.076923 0 98.461538-21.661538 98.461538-80.738462s-59.076923-76.8-98.461538-76.8v-275.692307c0-43.323077 35.446154-78.769231 78.769231-78.769231h866.461538c43.323077 0 78.769231 35.446154 78.769231 78.769231v275.692307z m-78.769231-295.384615H315.076923v98.461539h-59.076923v-98.461539H78.769231c-9.846154 0-19.692308 7.876923-19.692308 19.692308V254.030769c61.046154 17.723077 98.461538 64.984615 98.461539 126.030769 0 68.923077-35.446154 116.184615-98.461539 133.907693V736.492308c0 11.815385 9.846154 19.692308 19.692308 19.692307h177.230769v-98.461538h59.076923v98.461538h630.153846c9.846154 0 19.692308-7.876923 19.692308-19.692307v-226.461539c-55.138462-19.692308-98.461538-64.984615-98.461539-129.969231 0-61.046154 37.415385-108.307692 98.461539-126.030769V29.538462c0-11.815385-7.876923-21.661538-19.692308-21.661539zM777.846154 480.492308h-98.461539l94.523077 92.553846c5.907692 11.815385 1.969231 25.6-7.876923 33.476923-7.876923 9.846154-21.661538 13.784615-33.476923 7.876923L630.153846 513.969231l-102.4 102.4c-11.815385 5.907692-25.6 1.969231-33.476923-7.876923-9.846154-7.876923-13.784615-21.661538-7.876923-33.476923l94.523077-92.553847h-98.461539c-15.753846 0-29.538462-13.784615-29.538461-29.538461s13.784615-29.538462 29.538461-29.538462H610.461538v-59.076923h-128c-15.753846 0-29.538462-13.784615-29.538461-29.538461s13.784615-29.538462 29.538461-29.538462H610.461538v-98.461538c0-11.815385 7.876923-19.692308 19.692308-19.692308s19.692308 7.876923 19.692308 19.692308v98.461538h128c15.753846 0 29.538462 13.784615 29.538461 29.538462s-13.784615 29.538462-29.538461 29.538461H649.846154v59.076923h128c15.753846 0 29.538462 13.784615 29.538461 29.538462s-13.784615 27.569231-29.538461 27.569231zM256 322.953846h59.076923v-118.153846h-59.076923zM256 559.261538h59.076923v-118.153846h-59.076923z"  horiz-adv-x="1024" />

    
    <glyph glyph-name="shanchu" unicode="&#58897;" d="M762.218 761.135H263.15c-45.947 0-83.178-37.228-83.178-83.175v-27.725h665.422V677.96c0.001 45.947-37.229 83.175-83.177 83.175m-145.29 55.45l12.238-87.507H396.203l12.237 87.507h208.488m6.66 55.45H401.783c-22.88 0-44.162-18.52-47.357-41.209L338.207 714.81c-3.168-22.66 12.97-41.181 35.85-41.181h277.258c22.879 0 39.017 18.519 35.823 41.208l-16.22 116.017c-3.17 22.662-24.451 41.181-47.33 41.181m152.493-277.248H249.288c-30.488 0-53.205-24.855-50.443-55.233l45.435-499.479c2.734-30.379 29.973-55.233 60.46-55.233h415.89c30.487 0 57.726 24.856 60.46 55.233l45.434 499.48c2.761 30.377-19.956 55.232-50.443 55.232M401.78 95.74h-83.178l-27.726 388.147H401.78V95.74z m166.356 0H457.233V483.887h110.904V95.74z m138.629 0h-83.178V483.887H734.49L706.766 95.74z"  horiz-adv-x="1024" />

    
    <glyph glyph-name="menu1" unicode="&#58890;" d="M702.5 160.20000000000005h-379V463.3L513 628.8l189.5-165.5v-303.1z m-364 15h348.9V456.5L513 608.9 338.5 456.5v-281.3zM783.1 88.39999999999998H242.9V515.9L513 746.2l270.1-230.4v-427.4z m-525.2 15h510.2V508.9L513 726.5 257.9 508.9v-405.5z"  horiz-adv-x="1024" />

    
    <glyph glyph-name="menu2" unicode="&#58891;" d="M671.9 70.10000000000002c-2.7 0-5.4 1-7.4 3.1L520.2 217.39999999999998l10.6 10.6 141.1-141.1 149.2 149.2-147.6 147.6 10.6 10.6 150.7-150.7c4.1-4.1 4.1-10.8 0-14.8L679.3 73.10000000000002c-2-2-4.7-3-7.4-3zM353.9 383.70000000000005L203.2 534.4c-2 2-3.1 4.6-3.1 7.4 0 2.8 1.1 5.4 3.1 7.4l155.6 155.6c2 2 4.6 3.1 7.4 3.1 2.8 0 5.4-1.1 7.4-3.1L524.4 554l-10.6-10.6-147.6 147.7L217 541.9l147.6-147.6-10.7-10.6zM433.4 132.89999999999998c-2.8 0-5.4 1.1-7.4 3.1L270.4 291.5c-2 2-3.1 4.6-3.1 7.4 0 2.8 1.1 5.4 3.1 7.4L651.1 687c2 2 4.6 3.1 7.4 3.1 2.8 0 5.4-1.1 7.4-3.1l155.6-155.6c2-2 3.1-4.6 3.1-7.4 0-2.8-1.1-5.4-3.1-7.4L440.8 136c-2-2-4.6-3.1-7.4-3.1z m3.1 13.7zM284.2 298.9l149.2-149.2 374.4 374.4-149.3 149.2-374.3-374.4zM251.9 110.29999999999995L262 298l11.6 11.6L444 139.10000000000002l-14.3-14.3-177.8-14.5z m24.4 175.3l-8.5-158.9 154.8 12.6-146.3 146.3zM329.8 549.9l-60.1-60.1c-2.9-2.9-7.7-2.9-10.6 0-2.9 2.9-2.9 7.7 0 10.6l60.1 60.1c2.9 2.9 7.7 2.9 10.6 0 2.9-2.9 2.9-7.6 0-10.6zM380.7 499.1L320.6 439c-2.9-2.9-7.7-2.9-10.6 0-2.9 2.9-2.9 7.7 0 10.6l60.1 60.1c2.9 2.9 7.7 2.9 10.6 0 2.9-2.9 2.9-7.7 0-10.6zM645.3 234.5l-60.1-60.1c-2.9-2.9-7.7-2.9-10.6 0-2.9 2.9-2.9 7.7 0 10.6l60.1 60.1c2.9 2.9 7.7 2.9 10.6 0 2.9-3 2.9-7.7 0-10.6zM696.7 185.79999999999995l-60.1-60.1c-2.9-2.9-7.7-2.9-10.6 0-2.9 2.9-2.9 7.7 0 10.6l60.1 60.1c2.9 2.9 7.7 2.9 10.6 0 2.9-2.9 2.9-7.7 0-10.6z"  horiz-adv-x="1024" />

    
    <glyph glyph-name="menu3" unicode="&#58893;" d="M512.5 54.200000000000045L162.8 409.6l153.4 298.7h392.5l153.4-298.7-349.6-355.4zM181.1 412.4l331.4-336.8 331.4 336.8-144.3 280.9H325.4L181.1 412.4zM673 470.1H367c-4.1 0-7.5 3.4-7.5 7.5s3.4 7.5 7.5 7.5h287.9l-54.4 54.4c-2.9 2.9-2.9 7.7 0 10.6 2.9 2.9 7.7 2.9 10.6 0l67.2-67.2c2.1-2.1 2.8-5.4 1.6-8.2-1.1-2.7-3.9-4.6-6.9-4.6zM434.2 328.6c-1.9 0-3.8 0.7-5.3 2.2L361.7 398c-2.1 2.1-2.8 5.4-1.6 8.2 1.2 2.8 3.9 4.6 6.9 4.6h306c4.1 0 7.5-3.4 7.5-7.5s-3.4-7.5-7.5-7.5H385.1l54.4-54.4c2.9-2.9 2.9-7.7 0-10.6-1.4-1.4-3.4-2.2-5.3-2.2z"  horiz-adv-x="1024" />

    
    <glyph glyph-name="menu4" unicode="&#58896;" d="M512 376.4c-96.8 0-175.5 78.7-175.5 175.5S415.2 727.4 512 727.4s175.5-78.7 175.5-175.5S608.8 376.4 512 376.4z m0 336c-88.5 0-160.5-72-160.5-160.5s72-160.5 160.5-160.5 160.5 72 160.5 160.5-72 160.5-160.5 160.5zM512 463.4c-34.5 0-62.5 28-62.5 62.5 0 4.1 3.4 7.5 7.5 7.5s7.5-3.4 7.5-7.5c0-26.2 21.3-47.5 47.5-47.5s47.5 21.3 47.5 47.5c0 4.1 3.4 7.5 7.5 7.5s7.5-3.4 7.5-7.5c0-34.5-28-62.5-62.5-62.5zM869.6 40.60000000000002H154.4c-2.2 0-4.3 1-5.7 2.7s-2 3.9-1.6 6.1c14.8 84.9 59.3 162.5 125.3 218.6 32.8 27.8 69.7 49.6 109.8 64.6 41.5 15.5 85.2 23.4 129.9 23.4s88.4-7.9 129.9-23.4c40.1-15 77-36.7 109.8-64.6 66-56.1 110.5-133.7 125.3-218.6 0.4-2.2-0.2-4.4-1.6-6.1-1.6-1.8-3.7-2.7-5.9-2.7z m-706.2 15h697.2C827.5 221.5 682.3 340.9 512 340.9S196.5 221.5 163.4 55.60000000000002z"  horiz-adv-x="1024" />

    


  </font>
</defs>
</svg>
