<?xml version="1.0" standalone="no"?>
<!DOCTYPE svg PUBLIC "-//W3C//DTD SVG 1.1//EN" "http://www.w3.org/Graphics/SVG/1.1/DTD/svg11.dtd" >
<!--
2013-9-30: Created.
-->
<svg>
<metadata>
Created by iconfont
</metadata>
<defs>

<font id="iconfont" horiz-adv-x="1024" >
  <font-face
    font-family="iconfont"
    font-weight="500"
    font-stretch="normal"
    units-per-em="1024"
    ascent="896"
    descent="-128"
  />
    <missing-glyph />
    
    <glyph glyph-name="x" unicode="x" horiz-adv-x="1001"
d="M281 543q-27 -1 -53 -1h-83q-18 0 -36.5 -6t-32.5 -18.5t-23 -32t-9 -45.5v-76h912v41q0 16 -0.5 30t-0.5 18q0 13 -5 29t-17 29.5t-31.5 22.5t-49.5 9h-133v-97h-438v97zM955 310v-52q0 -23 0.5 -52t0.5 -58t-10.5 -47.5t-26 -30t-33 -16t-31.5 -4.5q-14 -1 -29.5 -0.5
t-29.5 0.5h-32l-45 128h-439l-44 -128h-29h-34q-20 0 -45 1q-25 0 -41 9.5t-25.5 23t-13.5 29.5t-4 30v167h911zM163 247q-12 0 -21 -8.5t-9 -21.5t9 -21.5t21 -8.5q13 0 22 8.5t9 21.5t-9 21.5t-22 8.5zM316 123q-8 -26 -14 -48q-5 -19 -10.5 -37t-7.5 -25t-3 -15t1 -14.5
t9.5 -10.5t21.5 -4h37h67h81h80h64h36q23 0 34 12t2 38q-5 13 -9.5 30.5t-9.5 34.5q-5 19 -11 39h-368zM336 498v228q0 11 2.5 23t10 21.5t20.5 15.5t34 6h188q31 0 51.5 -14.5t20.5 -52.5v-227h-327z" />
    

    
    <glyph glyph-name="sanjiao2" unicode="&#58883;" d="M951.1626 76.587562 72.8374 76.587562 511.999488 691.413462Z"  horiz-adv-x="1024" />

    
    <glyph glyph-name="sanjiao1" unicode="&#58880;" d="M511.999488 76.586538 72.8374 691.413462 951.1626 691.413462Z"  horiz-adv-x="1024" />

    
    <glyph glyph-name="sanjiao4" unicode="&#58881;" d="M819.41295 823.164135 819.41295-55.161065 204.586027 384Z"  horiz-adv-x="1024" />

    
    <glyph glyph-name="sanjiao3" unicode="&#58882;" d="M204.58705-55.162088 204.58705 823.163111 819.41295 384.001023Z"  horiz-adv-x="1024" />

    
    <glyph glyph-name="kefu" unicode="&#58898;" d="M908.8 524.8l0-230.4c64 0 115.2 51.2 115.2 115.2C1024 473.6 972.8 524.8 908.8 524.8zM0 416c0-64 51.2-115.2 115.2-115.2L115.2 531.2C51.2 531.2 0 480 0 416zM915.2 249.6c-12.8 6.4-25.6 0-32-12.8-57.6-115.2-160-198.4-281.6-230.4-12.8 19.2-38.4 38.4-70.4 38.4-44.8 0-76.8-25.6-76.8-57.6 0-32 32-57.6 76.8-57.6 32 0 57.6 12.8 70.4 32 147.2 25.6 268.8 121.6 332.8 262.4C934.4 230.4 928 243.2 915.2 249.6zM684.8 780.8c70.4-32 134.4-83.2 172.8-153.6 6.4-12.8 19.2-32 25.6-44.8 6.4-12.8 19.2-19.2 32-12.8 12.8 6.4 19.2 19.2 12.8 32C921.6 620.8 908.8 640 896 652.8c-44.8 76.8-115.2 134.4-198.4 172.8C473.6 934.4 198.4 832 89.6 601.6 83.2 588.8 89.6 576 102.4 569.6c6.4 0 6.4 0 12.8 0 12.8 0 19.2 6.4 25.6 12.8C230.4 787.2 480 876.8 684.8 780.8zM300.8 390.4c38.4 32 57.6 64 57.6 96 0 25.6-6.4 38.4-19.2 51.2C313.6 556.8 294.4 563.2 268.8 563.2c-25.6 0-51.2-6.4-76.8-19.2l0-44.8c19.2 19.2 44.8 25.6 64 25.6 25.6 0 38.4-12.8 38.4-38.4 0-12.8 0-19.2-6.4-32C281.6 441.6 275.2 428.8 256 409.6L185.6 339.2l0-44.8 166.4 0L352 345.6 243.2 345.6l0 0L300.8 390.4zM492.8 300.8l51.2 0L544 352 576 352 576 396.8 544 396.8 544 556.8 486.4 556.8 377.6 390.4l0-32 115.2 0L492.8 300.8zM422.4 396.8l57.6 89.6c0 6.4 6.4 6.4 6.4 12.8 0 6.4 0 6.4 6.4 6.4l0 0c0-6.4 0-19.2 0-25.6l0-83.2L422.4 396.8zM742.4 460.8 742.4 556.8c0 44.8-19.2 64-51.2 64-19.2 0-38.4-6.4-51.2-25.6l0 0L640 697.6 588.8 697.6l0-230.4L640 467.2 640 550.4c0 12.8 0 19.2 6.4 25.6 6.4 6.4 12.8 12.8 19.2 12.8 19.2 0 25.6-12.8 25.6-38.4l0-89.6L742.4 460.8z"  horiz-adv-x="1024" />

    
    <glyph glyph-name="search" unicode="&#58917;" d="M922.666667 19.626667 702.677333 247.594667C805.290667 384.298667 796.245333 581.866667 675.008 707.498667 609.344 775.552 523.264 809.578667 437.205333 809.578667 351.146667 809.578667 265.066667 775.552 199.402667 707.498667 68.074667 571.392 68.074667 350.741333 199.402667 214.656 265.066667 146.602667 351.146667 112.576 437.205333 112.576 510.058667 112.576 582.762667 137.237333 643.221333 185.984L863.210667-41.984 922.666667 19.626667ZM258.858667 276.266667C160.512 378.176 160.512 543.978667 258.858667 645.888 306.496 695.253333 369.834667 722.453333 437.205333 722.453333 504.576 722.453333 567.914667 695.253333 615.552 645.888 713.898667 543.978667 713.898667 378.176 615.552 276.266667 567.914667 226.901333 504.576 199.701333 437.205333 199.701333 369.834667 199.701333 306.496 226.901333 258.858667 276.266667Z"  horiz-adv-x="1024" />

    
    <glyph glyph-name="filedownload" unicode="&#60244;" d="M214.016 128l596.010667 0 0-86.016-596.010667 0 0 86.016zM809.984 512l-297.984-297.984-297.984 297.984 169.984 0 0 256 256 0 0-256 169.984 0z"  horiz-adv-x="1024" />

    
    <glyph glyph-name="zhuan" unicode="&#58894;" d="M816.096-96c-114.944 0-208.128 93.312-208.128 208.384 0 115.072 93.184 208.384 208.128 208.384 114.944 0 208.128-93.28 208.128-208.384C1024.224-2.687999999999988 931.04-96 816.096-96zM925.248 146.49599999999998l0 0.288-86.944 66.176c-2.048 2.144-4.896 3.488-8.096 3.488-6.176 0-11.168-4.992-11.168-11.168l0-33.504c0 0-111.808 10.208-111.808-145.184 0 0 29.984 78.176 111.808 78.176l0-33.504c0-6.176 4.992-11.168 11.168-11.168l0-2.656 5.376 4.096c1.024 0.544 1.92 1.248 2.72 2.08l86.944 66.176 0 0.288c2.24 2.048 3.68 4.96 3.68 8.224C928.928 141.53599999999994 927.488 144.44799999999998 925.248 146.49599999999998zM0 672.448L0 782.976c0 27.104 21.504 49.056 48 49.056l864.16 0c26.528 0 48-21.984 48-49.056l-0.192-110.528L0 672.448zM960.128 342.84799999999996c-41.824 26.208-91.104 41.6-144.096 41.6-46.272 0-89.792-11.616-127.936-32l-144.416 0c-17.472 0-31.648-14.176-31.648-31.648l0-0.704c0-17.472 14.176-31.648 31.648-31.648l65.184 0c-40.352-47.456-64.832-108.832-64.832-176 0-5.536 0.512-10.944 0.832-16.416L48.032 96.03200000000004c-26.528 0-48 21.984-48 49.056l0 399.36 960 0L960.128 342.84799999999996zM244.128 387.904c-19.808 20.288-35.968 35.872-48.416 46.752 0.736 1.44 1.824 3.616 3.296 6.528 0.736 2.176 1.472 3.968 2.208 5.44l-29.728 2.176c-16.896-35.52-42.208-64.864-75.936-88.064 4.416-8 8.416-16.672 12.096-26.08 5.12 3.616 8.416 6.144 9.888 7.616 2.208 1.44 3.68 2.528 4.416 3.264l0-111.968c-0.736-26.08 12.48-38.752 39.616-38.048l46.208 0c23.488-0.704 37.408 7.264 41.824 23.904 0.736 1.44 1.472 3.968 2.208 7.616 2.912 10.144 4.768 18.112 5.504 23.904-8.8 2.176-15.424 4.352-19.808 6.528-3.68 0.704-6.24 1.44-7.712 2.176-1.472-10.88-2.592-17.376-3.296-19.552-0.736-2.912-1.088-5.088-1.088-6.528-2.208-9.44-9.536-14.144-22.016-14.144L168.192 219.42399999999998c-13.216 0-19.456 6.144-18.72 18.496l0 92.384 60.544 0c0-3.648-0.384-9.44-1.088-17.408 0-5.088 0-8.704 0-10.88-1.472-12.32-7.712-18.112-18.72-17.408-7.36 0-16.16 0.352-26.4 1.088 0-1.472 0.352-3.648 1.088-6.528 2.208-9.44 3.648-15.936 4.416-19.552l30.816 1.088c22.016 0.704 33.376 12.32 34.112 34.784 1.472 20.288 2.208 39.84 2.208 58.688l2.208-1.088 19.808 20.64C255.52 376.64 250.752 381.376 244.128 387.904zM292.576 418.336l-27.52 0 0-164.128 27.52 0L292.576 418.336zM352 447.68l-28.608 0 0-210.88c0.736-11.616-5.152-17.408-17.6-17.408-11.008 0-22.4 0-34.112 0 2.208-9.408 4.032-18.464 5.504-27.168 13.216 0 26.432 0 39.616 0 24.928 0.736 36.672 13.056 35.232 36.96L352.032 447.68zM896 448.8c0 17.472-14.176 31.648-31.648 31.648L543.648 480.448c-17.472 0-31.648-14.176-31.648-31.648l0-0.704c0-17.472 14.176-31.648 31.648-31.648l320.704 0c17.472 0 31.648 14.176 31.648 31.648L896 448.8zM182.496 412.896c6.592-6.528 15.776-15.936 27.52-28.256 11.744-12.32 20.544-22.112 26.4-29.344L132.992 355.29600000000005C152.8 372.672 169.312 391.872 182.496 412.896z"  horiz-adv-x="1025" />

    
    <glyph glyph-name="hot" unicode="&#58905;" d="M554.318 372.088c-22.604 0-40.401-8.389-53.394-25.167-12.993-16.777-19.484-38.509-19.484-65.188 0-26.333 6.349-47.859 19.05-64.577 12.697-16.723 30.117-25.079 52.256-25.079 22.603 0 40.196 8.009 52.78 24.03 12.583 16.019 18.875 37.545 18.875 64.577 0 28.193-6.117 50.479-18.353 66.849C593.816 363.9 576.572 372.088 554.318 372.088zM917.39 511.095c47.787 52.161 16.062 204.917 8.11 184.045-8-21-41-24-41-24s14 11 5 92-38 114-38 114-20-31-61-71-108-44-108-44 3 11 6 29.5-4 39.5-4 39.5-9-13-57-44c-25.084-16.2-38.421-21.474-45.442-22.819-23.303 3.732-47.202 5.68-71.558 5.68-247.976 0-449-201.024-449-449 0-247.977 201.024-449 449-449 247.977 0 449 201.023 449 449C959.5 388.947 944.405 453.368 917.39 511.095zM374.48 146.811l-57.675 0L316.805 258.488 201.46 258.488 201.46 146.81l-57.674 0L143.786 417.527l57.674 0 0-109.23 115.347 0 0 109.23 57.676 0L374.48 146.811zM648.082 181.502c-24.527-26.275-56.655-39.41-96.385-39.41-38.799 0-70.317 12.729-94.551 38.188-24.235 25.457-36.353 58.226-36.353 98.308 0 42.409 12.378 76.926 37.138 103.551 24.758 26.623 57.471 39.937 98.135 39.937 38.682 0 69.818-12.875 93.414-38.624 23.594-25.751 35.391-58.84 35.391-99.271C684.871 242 672.607 207.774 648.082 181.502zM901.934 370.34l-77.248 0 0-223.528-57.848 0L766.838 370.34l-77.073 0 0 47.188 212.169 0L901.934 370.34z"  horiz-adv-x="1024" />

    
    <glyph glyph-name="fenlei2" unicode="&#58893;" d="M938 762 298 762c-6 0-11.667 1.667-17 5s-9.5 7.833-12.5 13.5S264 792 264 798c0 10 3.333 18.667 10 26s14.667 11 24 11l640 0c6 0 11.667-1.667 17-5s9.5-7.833 12.5-13.5S972 804.667 972 798c0-4-0.5-7.833-1.5-11.5s-2.667-6.833-5-9.5-4.833-5.167-7.5-7.5-5.833-4.167-9.5-5.5S941.333 762 938 762zM938 377 298 377c-9.333 0-17.333 3.5-24 10.5S264 403 264 413s3.333 18.5 10 25.5 14.667 10.5 24 10.5l640 0c9.333 0 17.333-3.5 24-10.5s10-15.5 10-25.5-3.333-18.5-10-25.5S947.333 377 938 377zM938-9 298-9c-6 0-11.667 1.667-17 5s-9.5 7.667-12.5 13-4.5 11.333-4.5 18c0 10 3.333 18.5 10 25.5s14.667 10.5 24 10.5l640 0c9.333 0 17.333-3.5 24-10.5s10-15.5 10-25.5-3.333-18.5-10-25.5S947.333-9 938-9zM195 27c0-16-5.5-29.833-16.5-41.5S154.333-32 139-32c-10 0-19.333 2.667-28 8s-15.5 12.5-20.5 21.5S83 16.333 83 27c0 16 5.5 29.833 16.5 41.5S123.667 86 139 86c3.333 0 6.667-0.333 10-1s6.5-1.5 9.5-2.5 5.833-2.5 8.5-4.5 5.167-4 7.5-6 4.667-4.333 7-7 4.333-5.5 6-8.5 3-6 4-9 1.833-6.333 2.5-10S195 30.333 195 27zM195 413c0-10.667-2.5-20.5-7.5-29.5S175.667 367.333 167 362s-18-8-28-8c-8 0-15.333 1.5-22 4.5s-12.5 7.167-17.5 12.5-9 11.667-12 19S83 405 83 413c0 16 5.5 29.833 16.5 41.5S123.667 472 139 472s28.5-5.833 39.5-17.5S195 429 195 413zM195 798.5c0-16.333-5.5-30.167-16.5-41.5s-24.167-17-39.5-17-28.5 5.667-39.5 17S83 782.167 83 798.5 88.5 828.667 99.5 840s24.167 17 39.5 17 28.5-5.667 39.5-17S195 814.833 195 798.5z"  horiz-adv-x="1024" />

    
    <glyph glyph-name="hotchunse" unicode="&#59229;" d="M1344 704 256 704C185.6 704 128 646.4 128 576l0-448c0-70.4 57.6-128 128-128l1088 0c70.4 0 128 57.6 128 128L1472 576C1472 646.4 1414.4 704 1344 704zM576 160C576 142.08 561.92 128 544 128S512 142.08 512 160L512 320 320 320l0-160C320 142.08 305.92 128 288 128 270.08 128 256 142.08 256 160l0 384C256 561.92 270.08 576 288 576 305.92 576 320 561.92 320 544L320 384l192 0L512 544C512 561.92 526.08 576 544 576S576 561.92 576 544L576 160zM960 256c0-70.4-57.6-128-128-128l-64 0c-70.4 0-128 57.6-128 128L640 448c0 70.4 57.6 128 128 128l64 0c70.4 0 128-57.6 128-128L960 256zM1312 512 1216 512l0-352c0-17.92-14.08-32-32-32S1152 142.08 1152 160L1152 512l-96 0C1038.08 512 1024 526.08 1024 544 1024 561.92 1038.08 576 1056 576l256 0C1329.92 576 1344 561.92 1344 544 1344 526.08 1329.92 512 1312 512zM832 512l-64 0c-35.2 0-64-28.8-64-64l0-192c0-35.2 28.8-64 64-64l64 0c35.2 0 64 28.8 64 64L896 448C896 483.2 867.2 512 832 512z"  horiz-adv-x="1792" />

    
    <glyph glyph-name="liwu" unicode="&#58897;" d="M1135.142452 534.41372c0 57.196057-46.96342 103.728338-104.689952 103.728338l-30.177676 0c17.059174 26.554471 26.182729 57.38756 26.182729 89.711715 0.003072 44.940856-17.691033 87.18735-49.821636 118.9585-32.078374 31.719945-74.707875 49.187728-120.035835 49.187728-43.922918 0-84.252328-19.345951-119.868909-57.499185-23.783302-25.479184-45.446753-59.392715-64.514154-100.969459-17.11345 5.294509-35.72411 8.054412-54.706511 8.054412-19.031558 0-37.644265-2.754783-54.716752-8.042123-19.069449 41.573671-40.729827 75.481058-64.511081 100.95717-35.615557 38.153234-75.943943 57.499185-119.864813 57.499185-77.72892 0-145.290745-52.34088-164.2967-127.28327-1.192033-4.699517-0.407585-9.682704 2.171056-13.788253 2.578641-4.105549 6.726177-6.977077 11.476898-7.944836 12.89218-2.625749 26.425436-6.186485 40.225978-10.582873 4.684155-1.493113 9.778968-0.972879 14.065779 1.435764 4.286811 2.408643 7.38159 6.48859 8.543924 11.265937 9.871136 40.558805 46.122648 68.885964 88.156133 68.885964 55.479694 0 97.333964-76.670018 119.09163-127.878262-3.066104-6.287869-5.029271-13.069347-5.858779-20.262505-0.098312-0.412705-0.183311-0.830531-0.252948-1.251429-0.247828-1.030227-0.650293-2.929901-0.650293-5.285292 0-8.050316 1.776784-15.914249 5.246377-23.433066-25.727012 0.641076-70.702687 10.009387-142.334217 49.166222C284.052714 727.309984 218.537007 746.713284 159.276399 746.713284c-96.788128 0-144.740812-51.962993-150.014839-58.040925-0.124938-0.142348-0.247828-0.287767-0.36867-0.434211-6.680093-8.138387-9.757462-18.377169-8.66579-28.832031 1.093721-10.46408 6.2254-19.853896 14.460051-26.446942 6.997559-5.595589 15.792383-8.677055 24.765398-8.677055 11.874242 0 23.001927 5.234088 30.541226 14.360715 1.476728 1.69793 27.368617 30.395806 87.911377 30.395806 45.805182 0 98.956111-16.367918 157.964795-48.641892 71.328402-39.079005 133.05705-58.892962 183.469581-58.892962 6.2254 0 12.604413 0.403489 19.568177 1.251429 2.877673-1.943709 6.318592-3.038454 9.925412-3.038454l49.222547 0 0-136.466222L178.781083 423.250539l0 111.231794c0 13.914215 11.567017 25.234428 25.785385 25.234428l144.292264 0c0.00512 0 0.011265 0.001024 0.017409 0 9.792281 0 17.730972 7.938691 17.730972 17.730972 0 7.363156-4.487531 13.677652-10.876785 16.357677-16.577855 7.68267-30.463396 14.64029-43.685331 21.891821-14.312583 7.804536-28.696852 14.717096-43.974122 21.130928-2.173104 0.912458-4.505965 1.382512-6.863404 1.382512L204.566468 638.210671c-57.72858 0-104.694048-46.532281-104.694048-103.728338l0-171.927142c0-9.792281 7.938691-17.730972 17.730972-17.730972l47.506184 0 0-369.091784c0-57.198105 46.966492-103.732434 104.695072-103.732434l695.545875 0c57.729604 0 104.695072 46.533305 104.695072 103.732434L1070.045595 344.612234l47.714073 0c4.708733 0 9.223915 1.873048 12.550137 5.205414 3.326221 3.332366 5.190052 7.852668 5.180836 12.561401L1135.142452 534.41372zM991.000729 344.758677l0-369.094857c0-13.915239-11.53527-25.234428-25.715747-25.234428L656.963304-49.570607 656.963304 344.758677 991.000729 344.758677zM1056.309571 534.41372l0-111.231794L657.03499 423.181926l0 136.465198 373.488173 0C1044.74153 559.647123 1056.309571 548.32691 1056.309571 534.41372zM652.285293 663.329378c-8.512177-2.07172-20.320878-3.739951-34.773761-3.739951-5.044633 0-10.108723 0.226322-15.126729 0.674871-1.922204 2.101418-4.027718 3.939647-6.311423 5.506494 6.261243 0.809026 13.444161 1.321067 21.438152 1.321067C631.962367 667.090834 643.773115 665.413386 652.285293 663.329378zM856.257015 817.987409c50.15139 0 90.953927-40.247484 90.953927-89.717859 0-49.468327-40.802537-89.713763-90.953927-89.713763L738.192539 638.555787c3.771698 7.893631 5.729744 16.221474 5.729744 24.753109 0 9.199337-2.292922 18.360783-6.695454 26.944647C759.002929 741.460762 800.831597 817.987409 856.257015 817.987409zM578.125302 344.758677l0-394.330309L269.804648-49.571631c-14.179453 0-25.715747 11.320213-25.715747 25.234428L244.088901 344.758677 578.125302 344.758677z"  horiz-adv-x="1137" />

    
    <glyph glyph-name="star" unicode="&#59251;" d="M512 159.018667 775.68 0 705.92 299.904 938.666667 501.589333 631.850667 527.914667 512 810.666667 392.149333 527.914667 85.333333 501.589333 318.08 299.904 248.32 0Z"  horiz-adv-x="1024" />

    
    <glyph glyph-name="triangle-up" unicode="&#59004;" d="M27.273 142.387l485.222 484.233 484.233-485.222z"  horiz-adv-x="1024" />

    
    <glyph glyph-name="apapdownload" unicode="&#58952;" d="M798.880823 124.815983 225.118154 124.815983c-15.169491 0-27.469632-12.299117-27.469632-27.469632 0-15.169491 12.300141-27.468608 27.469632-27.468608l573.762669 0c15.169491 0 27.469632 12.299117 27.469632 27.468608C826.350454 112.516866 814.050314 124.815983 798.880823 124.815983zM490.732627 184.816518c5.03876-6.112208 12.667507-10.009981 21.206998-10.009981 8.541537 0 16.172331 3.89982 21.211091 10.015098l204.371644 204.371644c10.725272 10.724249 10.725272 28.116361 0 38.844703-10.728342 10.729365-28.120454 10.729365-38.84982 0L539.409257 268.771629 539.409257 670.653649c0 15.170514-12.300141 27.469632-27.469632 27.469632-15.169491 0-27.469632-12.299117-27.469632-27.469632l0-401.883043-159.2684 159.267377c-10.724249 10.725272-28.120454 10.725272-38.844703 0-10.729365-10.728342-10.729365-28.120454 0-38.848797L490.732627 184.816518z"  horiz-adv-x="1024" />

    
    <glyph glyph-name="arrow" unicode="&#58916;" d="M624.576 896 544.128 815.488 976.192 383.968 544.128-47.488 624.576-128 1136.096 383.968Z"  horiz-adv-x="1152" />

    
    <glyph glyph-name="huodong" unicode="&#59139;" d="M512-128C229.6832-128 0 101.6832 0 384 0 666.3168 229.6832 896 512 896 794.3168 896 1024 666.3168 1024 384 1024 101.6832 794.3168-128 512-128ZM512 798.464C283.4432 798.464 97.536 612.5568 97.536 384 97.536 155.4432 283.4432-30.464 512-30.464 740.5568-30.464 926.464 155.4432 926.464 384 926.464 612.5568 740.5568 798.464 512 798.464ZM509.4912 257.28C475.904 279.4496 424.8576 272.7424 390.0928 263.2704L390.0928 91.4432 292.5568 91.4432 292.5568 587.8272 321.6384 600.6784C327.3728 603.2384 464.0256 662.4256 563.3024 596.736 613.376 563.6096 702.6176 554.0864 732.7744 553.216L780.1344 551.8336 780.1856 196.1984 730.1632 197.5296C724.5824 197.6832 593.3056 201.7792 509.4912 257.28ZM682.6496 459.6736C635.5456 465.6128 562.8416 480.0512 509.4912 515.4304 475.904 537.6 424.8576 530.944 390.0928 521.4208L390.0928 363.1616C408.4736 366.7968 429.4144 369.4592 451.2768 369.4592 488.3456 369.4592 528.128 361.8816 563.3024 338.5856 595.7632 317.0816 644.2496 305.5616 682.6496 299.8272L682.6496 459.6736Z"  horiz-adv-x="1024" />

    
    <glyph glyph-name="icon_status-dot-small" unicode="&#58937;" d="M512 384m-160 0a160 160 0 1 1 320 0 160 160 0 1 1-320 0Z"  horiz-adv-x="1024" />

    
    <glyph glyph-name="wenti2" unicode="&#59223;" d="M512-128C230.4-128 0 102.4 0 384S230.4 896 512 896s512-230.4 512-512-230.4-512-512-512z m0 960C265.6 832 64 630.4 64 384s201.6-448 448-448 448 201.6 448 448S758.4 832 512 832zM630.4 582.4c28.8-25.6 41.6-57.6 41.6-99.2 0-35.2-9.6-64-25.6-86.4-6.4-9.6-25.6-25.6-60.8-54.4-12.8-12.8-22.4-22.4-28.8-35.2-6.4-12.8-12.8-28.8-12.8-48v-12.8h-76.8v12.8c0 25.6 3.2 48 12.8 67.2 9.6 19.2 35.2 48 80 86.4l12.8 12.8c12.8 16 19.2 32 19.2 51.2 0 22.4-6.4 41.6-19.2 57.6-12.8 12.8-35.2 22.4-57.6 22.4-32 0-54.4-9.6-70.4-28.8-12.8-16-19.2-41.6-19.2-73.6H352c0 51.2 16 92.8 44.8 121.6 28.8 28.8 70.4 44.8 121.6 44.8 48 0 83.2-12.8 112-38.4zM544 195.2c9.6-9.6 16-22.4 16-35.2 0-16-6.4-25.6-16-35.2-9.6-9.6-22.4-12.8-38.4-12.8s-25.6 6.4-35.2 16c-9.6 9.6-16 22.4-16 35.2 0 16 6.4 25.6 16 35.2 9.6 9.6 22.4 12.8 35.2 12.8 16-3.2 28.8-6.4 38.4-16z"  horiz-adv-x="1024" />

    
    <glyph glyph-name="gonggao" unicode="&#59001;" d="M626.912-57.144c-7.099 0.002-13.566 2.707-18.429 7.141l-267.808 240.998h-154.89c-44.344 0-110.286 29.377-110.286 110.286v165.42c0 44.344 29.394 110.286 110.276 110.286h154.838l267.831 241.074c8.092 7.335 19.736 9.099 29.654 4.68 9.729-4.386 16.38-14 16.38-25.166 0-0.011 0-0.023 0-0.036v-827.107c0-10.872-6.345-20.791-16.317-25.209-3.304-1.496-7.163-2.367-11.227-2.367-0.007 0-0.017 0-0.024 0zM185.777 521.835c-52.497 0-55.133-45.927-55.133-55.143v-165.421c0-52.433 45.936-55.143 55.133-55.143h165.419c6.841 0 13.402-2.529 18.415-7.119l229.725-206.658v703.278l-229.653-206.677c-5.076-4.571-11.628-7.119-18.477-7.119h-165.428zM764.756 549.411c-6.994 0-14.104 2.708-19.512 8.055-10.755 10.746-10.755 28.233 0 38.988l110.285 110.286c10.747 10.737 28.216 10.737 38.989 0 10.747-10.754 10.747-28.242 0-38.997l-110.276-110.276c-5.364-5.347-12.357-8.055-19.485-8.055zM930.184 356.424h-165.428c-15.157 0-27.568 12.339-27.568 27.567 0 15.219 12.411 27.567 27.567 27.567h165.429c15.273 0 27.567-12.357 27.567-27.567 0-15.228-12.294-27.567-27.567-27.567zM875.041 53.142c-7.62 0.011-14.519 3.092-19.527 8.071l-110.27 110.27c-10.755 10.747-10.755 28.216 0 38.989 10.746 10.737 28.215 10.737 38.997 0l110.276-110.276c10.747-10.773 10.747-28.252 0-38.997-5.354-5.355-12.348-8.055-19.476-8.055zM875.041 53.142z"  horiz-adv-x="1024" />

    
    <glyph glyph-name="wenti" unicode="&#59579;" d="M512 832.8c-212 0-384-172-384-384 0-184.8 131.2-340 305.6-376l80-138.4 80 138.4c172.8 38.4 302.4 192 302.4 376 0 212-172 384-384 384zM544 192h-64v64h64v-64z m66.4 312.8l-28.8-29.6c-22.4-24-37.6-44-37.6-91.2v-64h-64v79.2c0 35.2 14.4 68.8 37.6 92l40 40.8c12 11.2 19.2 27.2 19.2 45.6 0 35.2-28.8 64-64 64S448 612 448 576.8h-64c0 71.2 57.6 128.8 128.8 128.8 71.2 0 128.8-57.6 128.8-128.8-0.8-28-12.8-54.4-31.2-72z"  horiz-adv-x="1024" />

    
    <glyph glyph-name="fenlei" unicode="&#58890;" d="M332.16 436.096H127.744A127.872 127.872 0 0 0 0 563.84V768.256C0 838.656 57.28 896 127.744 896h204.416c70.464 0 127.744-57.344 127.744-127.744V563.84a127.872 127.872 0 0 0-127.744-127.744zM127.744 844.928c-42.304 0-76.672-34.368-76.672-76.672V563.84a76.8 76.8 0 0 1 76.672-76.672h204.416A76.8 76.8 0 0 1 408.832 563.84V768.256A76.8 76.8 0 0 1 332.16 844.928H127.744zM894.272 436.096h-204.416A127.872 127.872 0 0 0 562.112 563.84V768.256C562.112 838.656 619.392 896 689.856 896h204.416c70.4 0 127.744-57.344 127.744-127.744V563.84a127.872 127.872 0 0 0-127.744-127.744zM689.856 844.928a76.8 76.8 0 0 1-76.672-76.672V563.84a76.8 76.8 0 0 1 76.672-76.672h204.416a76.8 76.8 0 0 1 76.608 76.672V768.256c0 42.304-34.368 76.672-76.608 76.672h-204.416zM332.16-126.016H127.744a127.872 127.872 0 0 0-127.744 127.744V206.08a128 128 0 0 0 127.744 127.808h204.416c70.464 0 127.744-57.344 127.744-127.808v-204.352a127.872 127.872 0 0 0-127.744-127.744zM127.744 282.816a76.8 76.8 0 0 1-76.672-76.672v-204.352c0-42.304 34.368-76.608 76.672-76.608h204.416c42.24 0 76.672 34.304 76.672 76.608v204.352a76.8 76.8 0 0 1-76.672 76.672H127.744zM894.272-126.016h-204.416a127.872 127.872 0 0 0-127.744 127.744V206.08a128 128 0 0 0 127.744 127.808h204.416a128 128 0 0 0 127.744-127.808v-204.352a127.872 127.872 0 0 0-127.744-127.744z m-204.416 408.832a76.8 76.8 0 0 1-76.672-76.672v-204.352c0-42.304 34.432-76.608 76.672-76.608h204.416c42.24 0 76.608 34.304 76.608 76.608v204.352a76.8 76.8 0 0 1-76.608 76.672h-204.416z"  horiz-adv-x="1024" />

    
    <glyph glyph-name="hot1" unicode="&#58885;" d="M989.9222626666667 451.6589896666666L580.1490096666668 861.0909086666667H119.41107066666666l870.511192-870.596525V451.6589896666666zM493.7399596666666 550.7607276666666l-32.726626 32.68008 63.282424 63.371637-65.454546 65.361454-63.282424-63.371636-32.727919 32.680081L516.2330506666667 835.1017376666666l32.727919-32.681374-61.895111-61.981737 65.454545-65.361455 61.895111 61.981737 32.72792-32.68008L493.7399596666666 550.7607276666666zM604.8452526666667 589.1529696666666c24.031677 24.064 50.614303 36.636444 79.751757 37.714748 29.134869 1.078303 55.240404-9.903838 78.314021-32.943839 21.950061-21.91903 32.323232-46.871273 31.120808-74.851555-1.202424-27.982869-13.257697-53.443232-36.167111-76.383677-23.901091-23.934707-50.253576-36.406303-79.057455-37.417374-28.806465-1.011071-54.480162 9.739636-77.02497 32.252121-22.016 21.986263-32.689131 47.067798-32.015515 75.245899 0.674909 28.179394 12.366869 53.638465 35.078465 76.383677z m36.196848-32.579232c-14.921697-14.943677-23.517091-30.756202-25.782303-47.437576-2.270384-16.68396 2.879354-31.297939 15.440162-43.843232 12.827152-12.806465 27.34804-18.232889 43.566545-16.270223 16.217212 1.960081 31.985778 10.608485 47.303111 25.947798 15.976727 15.998707 25.133253 32.109899 27.46699 48.332283 2.333737 16.219798-2.813414 30.637253-15.441454 43.247192-12.825859 12.807758-27.677737 18.133333-44.558222 15.972849-16.877899-2.157899-32.876606-10.808889-47.994829-25.949091zM940.0177776666667 358.44008066666674l-43.835475 43.770828-126.661818-126.841535-32.827475 32.780929 126.663112 126.841536-43.734627 43.672565 26.739071 26.777859 120.39499-120.226909-26.737778-26.775273z"  horiz-adv-x="1024" />

    


  </font>
</defs>
</svg>
