<?xml version="1.0" standalone="no"?>
<!DOCTYPE svg PUBLIC "-//W3C//DTD SVG 1.1//EN" "http://www.w3.org/Graphics/SVG/1.1/DTD/svg11.dtd" >
<!--
2013-9-30: Created.
-->
<svg>
<metadata>
Created by iconfont
</metadata>
<defs>

<font id="iconfont" horiz-adv-x="1024" >
  <font-face
    font-family="iconfont"
    font-weight="500"
    font-stretch="normal"
    units-per-em="1024"
    ascent="896"
    descent="-128"
  />
    <missing-glyph />
    
    <glyph glyph-name="bangzhuzhongxin" unicode="&#59011;" d="M512 896C230.4 896 0 665.6 0 384s230.4-512 512-512 512 230.4 512 512S793.6 896 512 896zM512-64c-249.6 0-448 198.4-448 448 0 249.6 198.4 448 448 448s448-198.4 448-448C960 134.4 761.6-64 512-64zM467.2 147.2l89.6 0 0-89.6-89.6 0 0 89.6ZM512 710.4c-57.6 0-108.8-12.8-140.8-44.8s-57.6-76.8-64-134.4L384 518.4c6.4 44.8 19.2 76.8 44.8 96C454.4 633.6 480 646.4 512 646.4c32 0 64-12.8 89.6-32C627.2 588.8 640 563.2 640 531.2 640 512 633.6 499.2 627.2 480 614.4 467.2 601.6 448 569.6 422.4 544 403.2 524.8 384 518.4 371.2 499.2 352 492.8 339.2 486.4 320c-6.4-25.6-12.8-51.2-12.8-83.2 0-6.4 0-12.8 0-25.6l76.8 0c0 32 0 51.2 6.4 70.4S563.2 313.6 569.6 320c6.4 12.8 25.6 25.6 51.2 51.2 38.4 32 64 64 76.8 83.2s19.2 51.2 19.2 76.8c0 51.2-19.2 89.6-57.6 121.6C627.2 691.2 576 710.4 512 710.4z"  horiz-adv-x="1024" />

    
    <glyph glyph-name="dizhi" unicode="&#58905;" d="M328.704 429.056c6.144-9.216 31.744-48.128 160.768-232.448l1.024-1.024c7.168-9.216 19.456-15.36 30.72-15.36 12.288 0 24.576 6.144 30.72 16.384 55.296 79.872 159.744 230.4 163.84 235.52l1.024 1.024c21.504 35.84 33.792 77.824 33.792 119.808 0 125.952-102.4 229.376-229.376 229.376s-229.376-102.4-229.376-229.376C291.84 508.928 304.128 466.944 328.704 429.056L328.704 429.056zM520.192 723.968c94.208 0 171.008-76.8 171.008-171.008 0-30.72-8.192-60.416-24.576-89.088-6.144-9.216-90.112-130.048-145.408-209.92-43.008 61.44-136.192 195.584-145.408 207.872C358.4 488.448 348.16 520.192 348.16 551.936 349.184 646.144 425.984 723.968 520.192 723.968zM520.192 424.96c69.632 0 126.976 57.344 126.976 126.976s-57.344 126.976-126.976 126.976c-69.632 0-126.976-57.344-126.976-126.976S449.536 424.96 520.192 424.96zM520.192 621.568c37.888 0 68.608-30.72 68.608-68.608 0-38.912-30.72-68.608-68.608-68.608-37.888 0-68.608 30.72-68.608 68.608S482.304 621.568 520.192 621.568zM1006.592 126.976 864.256 402.432 746.496 402.432l-46.08-59.392 128 0 130.048-248.832 2.048-2.048c7.168-9.216 7.168-21.504 2.048-31.744-5.12-10.24-15.36-16.384-27.648-16.384L90.112 44.032c-12.288 0-22.528 6.144-27.648 16.384-5.12 11.264-4.096 22.528 3.072 32.768l1.024 1.024L194.56 344.064l145.408 0-48.128 59.392-133.12 0-142.336-276.48c-19.456-27.648-21.504-62.464-6.144-91.136 16.384-30.72 46.08-49.152 80.896-49.152l844.8 0c33.792 0 64.512 18.432 79.872 49.152C1029.12 65.536 1026.048 100.352 1006.592 126.976z"  horiz-adv-x="1024" />

    
    <glyph glyph-name="weixin" unicode="&#59057;" d="M320.417684 587.776c-19.442526 0-39.073684-13.056-39.073684-32.848842 0-19.712 19.631158-32.929684 39.073684-32.929684 19.469474 0 32.525474 13.217684 32.525474 32.929684C352.943158 574.72 339.900632 587.776 320.417684 587.776zM502.177684 521.984c19.631158 0 32.606316 13.231158 32.606316 32.929684 0 19.806316-12.975158 32.848842-32.606316 32.848842-19.442526 0-39.006316-13.056-39.006316-32.848842C463.184842 535.215158 482.735158 521.984 502.177684 521.984zM512 896C229.214316 896 0 666.799158 0 384c0-282.785684 229.214316-512 512-512 282.799158 0 512.013474 229.214316 512.013474 512C1024.013474 666.799158 794.799158 896 512 896zM404.843789 251.917474c-32.444632 0-58.556632 6.642526-90.974316 13.217684l-90.799158-46.187789 25.936842 79.211789c-65.010526 46.066526-103.922526 105.364211-103.922526 177.650526 0 125.278316 116.992 223.905684 259.759158 223.905684 127.730526 0 239.602526-78.834526 262.036211-184.818526-8.178526 0.929684-16.559158 1.536-25.007158 1.536-123.392 0-220.820211-93.372632-220.820211-208.289684 0-19.213474 2.977684-37.645474 8.003368-55.228632C421.052632 252.254316 413.022316 251.917474 404.843789 251.917474zM787.968 159.757474l19.536842-65.886316L736.282947 133.389474c-26.044632-6.575158-52.048842-13.150316-77.918316-13.150316-123.567158 0-221.008842 85.598316-221.008842 190.976 0 105.283368 97.441684 191.056842 221.008842 191.056842 116.641684 0 220.577684-85.76 220.577684-191.056842C878.928842 251.917474 840.124632 199.343158 787.968 159.757474zM729.532632 396.894316c-12.8 0-25.694316-13.231158-25.694316-26.381474 0-13.204211 12.894316-26.273684 25.694316-26.273684 19.536842 0 32.592842 13.069474 32.592842 26.273684C762.112 383.663158 749.069474 396.894316 729.532632 396.894316zM586.657684 396.894316c-12.867368 0-25.923368-13.231158-25.923368-26.381474 0-13.204211 13.056-26.273684 25.923368-26.273684 19.712 0 32.525474 13.069474 32.525474 26.273684C619.183158 383.663158 606.369684 396.894316 586.657684 396.894316z"  horiz-adv-x="1025" />

    
    <glyph glyph-name="pinglun" unicode="&#59327;" d="M512 896C229.696 896 0 699.328 0 457.578667c0-144.384 82.282667-278.336 220.778667-360.469333l0-203.733333c0-8.213333 4.714667-15.744 12.181333-19.285333C235.882667-127.338667 239.04-128 242.154667-128c4.8 0 9.578667 1.621333 13.461333 4.8l181.589333 147.456c26.794667-3.413333 51.370667-5.077333 74.794667-5.077333 282.282667 0 512 196.693333 512 438.421333C1024 699.328 794.282667 896 512 896zM512.021333 61.909333c-24.106667 0-49.664 1.941333-78.144 5.952-5.845333 0.874667-11.84-0.832-16.448-4.586667l-153.92-125.034667 0 171.2c0 7.701333-4.16 14.848-10.901333 18.602667-131.413333 73.813333-209.877333 197.013333-209.877333 329.514667C42.730667 675.754667 253.269333 853.269333 512 853.269333s469.312-177.472 469.312-395.648S770.773333 61.909333 512.021333 61.909333zM512 457.6m-49.066667 0a2.3 2.3 0 1 0 98.133333 0 2.3 2.3 0 1 0-98.133333 0ZM266.709333 457.6m-49.066667 0a2.3 2.3 0 1 0 98.133333 0 2.3 2.3 0 1 0-98.133333 0ZM757.290667 506.666667c-27.114667 0-49.024-21.952-49.024-49.088 0-27.136 21.888-49.045333 49.024-49.045333 27.157333 0 49.088 21.909333 49.088 49.045333C806.378667 484.714667 784.448 506.666667 757.290667 506.666667z"  horiz-adv-x="1024" />

    
    <glyph glyph-name="xuanzhong" unicode="&#58937;" d="M512.083915 831.265615c-247.21296 0-447.607415-200.390362-447.607415-447.603322s200.391385-447.608439 447.607415-447.608439c247.208866 0 447.605369 200.393432 447.605369 447.608439C959.687237 630.873206 759.292782 831.265615 512.083915 831.265615zM524.007028 230.428142l-71.565282-70.39968-71.593936 70.39968 0.019444 0.020467L213.850554 394.760581l71.566305 70.421171 167.014653-164.328345L738.750971 582.547299l71.566305-70.422194L524.004981 230.431212 524.007028 230.428142z"  horiz-adv-x="1025" />

    
    <glyph glyph-name="notice" unicode="&#58940;" d="M620.313-17.691 220.932 212.36 102.745 212.36c-19.437 0-35.248 15.826-35.248 35.263L67.497 520.334c0 19.451 15.812 35.269 35.248 35.269l118.186 0 399.382 230.087L620.313-17.691zM102.745 522.606c-1.24 0-2.257-1.023-2.257-2.271l0-272.712c0-1.214 1.03-2.257 2.257-2.257l127.016 0 357.547-205.961L587.308 728.602 229.761 522.606 102.745 522.606zM625.313-26.342 219.595 207.36l-116.85 0c-22.193 0-40.248 18.062-40.248 40.263L62.497 520.334c0 22.205 18.055 40.269 40.248 40.269l116.848 0 405.719 233.738L625.312-26.342zM102.745 550.604c-16.679 0-30.248-13.579-30.248-30.269l0-272.711c0-16.687 13.569-30.263 30.248-30.263l119.523 0 1.159-0.667 391.885-225.734L615.312 777.04 222.268 550.604 102.745 550.604zM592.308 30.755 228.424 240.366 102.745 240.366c-4.001 0-7.257 3.255-7.257 7.257L95.488 520.335c0 4.009 3.255 7.271 7.257 7.271l125.678 0 363.884 209.646L592.307 30.755zM105.488 250.366l125.609 0 1.159-0.667 350.051-201.644L582.307 719.95 231.098 517.606l-125.61 0L105.488 250.366zM208.857 539.109l32.992 0 0-310.245-32.992 0L208.857 539.109zM246.849 223.864l-42.992 0L203.857 544.109l42.992 0L246.849 223.864zM213.857 233.864l22.992 0L236.849 534.109l-22.992 0L213.857 233.864zM735.24 263.844l-14.373 29.704c37.843 18.28 61.342 55.602 61.342 97.431 0 41.834-23.499 79.171-61.313 97.437l14.33 29.712c48.578-23.442 79.989-73.353 79.989-127.148C815.215 336.37 784.564 287.653 735.24 263.844zM732.915 257.169l-18.728 38.705 4.505 2.176c36.095 17.436 58.517 53.044 58.517 92.929 0 39.897-22.411 75.508-58.488 92.934l-4.5 2.174 18.674 38.717 4.504-2.174c50.309-24.277 82.816-75.953 82.816-131.651 0-56.543-31.728-106.983-82.801-131.638L732.915 257.169zM727.501 291.317l10.026-20.72c44.967 23.697 72.688 69.375 72.688 120.381 0 50.219-28.374 96.93-72.698 120.388l-9.993-20.718c36.944-19.823 59.686-57.568 59.686-99.67C787.209 348.89 764.461 311.148 727.501 291.317zM791.067 133.769l-13.696 30.028c88.776 40.482 146.141 129.653 146.141 227.168 0 95.421-55.616 183.773-141.657 225.102l14.274 29.741c97.438-46.772 160.375-146.805 160.375-254.842C956.505 280.558 891.579 179.609 791.067 133.769zM788.593 127.145l-17.846 39.127 4.55 2.074c87 39.673 143.215 127.056 143.215 222.619 0 93.499-54.491 180.088-138.822 220.595l-4.506 2.164 18.602 38.755 4.508-2.164c99.146-47.593 163.211-149.394 163.211-259.35 0.001-112.358-66.085-215.1-168.361-261.745L788.593 127.145zM783.975 161.367l9.548-20.934c96.14 45.962 157.982 143.747 157.981 250.531 0 104.462-59.913 201.303-153.051 248.13l-9.949-20.73c85.216-43.043 140.008-131.748 140.008-227.399C928.512 293.165 871.944 203.595 783.975 161.367z"  horiz-adv-x="1024" />

    
    <glyph glyph-name="3" unicode="&#58882;" d="M512 145.490683c-19.080745 0-31.801242 12.720497-31.801242 31.801242L480.198758 463.503106c0 19.080745 12.720497 31.801242 31.801242 31.801242s31.801242-12.720497 31.801242-31.801242l0-286.21118C537.440994 158.21118 524.720497 145.490683 512 145.490683zM651.925466 361.73913 365.714286 361.73913c-19.080745 0-31.801242 12.720497-31.801242 31.801242 0 19.080745 12.720497 31.801242 31.801242 31.801242l286.21118 0c19.080745 0 31.801242-12.720497 31.801242-31.801242C683.726708 374.459627 671.006211 361.73913 651.925466 361.73913zM651.925466 247.254658 365.714286 247.254658c-19.080745 0-31.801242 12.720497-31.801242 31.801242 0 19.080745 12.720497 31.801242 31.801242 31.801242l286.21118 0c19.080745 0 31.801242-12.720497 31.801242-31.801242C683.726708 259.975155 671.006211 247.254658 651.925466 247.254658zM512 431.701863c-6.360248 0-19.080745 0-25.440994 6.360248L352.993789 571.627329c-12.720497 12.720497-12.720497 31.801242 0 44.521739 12.720497 12.720497 31.801242 12.720497 44.521739 0l133.565217-133.565217c12.720497-12.720497 12.720497-31.801242 0-44.521739C524.720497 431.701863 518.360248 431.701863 512 431.701863zM512 431.701863c-6.360248 0-19.080745 0-25.440994 6.360248-12.720497 12.720497-12.720497 31.801242 0 44.521739l133.565217 133.565217c12.720497 12.720497 31.801242 12.720497 44.521739 0 12.720497-12.720497 12.720497-31.801242 0-44.521739L531.080745 438.062112C524.720497 431.701863 518.360248 431.701863 512 431.701863zM512-121.639752c-279.850932 0-508.819876 228.968944-508.819876 508.819876s228.968944 508.819876 508.819876 508.819876 508.819876-228.968944 508.819876-508.819876c0-25.440994 0-50.881988-6.360248-82.68323 0-19.080745-19.080745-31.801242-38.161491-25.440994-19.080745 0-31.801242 19.080745-25.440994 38.161491 6.360248 25.440994 6.360248 44.521739 6.360248 69.962733 0 248.049689-197.167702 445.217391-445.217391 445.217391S66.782609 628.869565 66.782609 380.819876s197.167702-445.217391 445.217391-445.217391c25.440994 0 57.242236 0 82.68323 6.360248 19.080745 6.360248 31.801242-6.360248 38.161491-25.440994 6.360248-19.080745-6.360248-31.801242-25.440994-38.161491C575.602484-121.639752 543.801242-121.639752 512-121.639752zM989.018634 31.006211l-318.012422 0c-19.080745 0-31.801242 12.720497-31.801242 31.801242s12.720497 31.801242 31.801242 31.801242l318.012422 0c19.080745 0 31.801242-12.720497 31.801242-31.801242S1001.73913 31.006211 989.018634 31.006211zM830.012422-128c-19.080745 0-31.801242 12.720497-31.801242 31.801242l0 318.012422c0 19.080745 12.720497 31.801242 31.801242 31.801242s31.801242-12.720497 31.801242-31.801242l0-318.012422C861.813665-108.919255 842.732919-128 830.012422-128z"  horiz-adv-x="1024" />

    
    <glyph glyph-name="yzm" unicode="&#59012;" d="M512 812.8C582.4 768 723.2 704 857.6 697.6c0-140.8 0-403.2 0-454.4l0-6.4c0-76.8-6.4-108.8-51.2-160-64-64-249.6-134.4-288-140.8-38.4 6.4-230.4 83.2-294.4 147.2-44.8 51.2-44.8 76.8-51.2 160l0 6.4c0 51.2 0 307.2 0 448C300.8 704 441.6 768 512 812.8M512 896C486.4 864 307.2 761.6 128 761.6c-6.4 0-19.2 0-25.6 0 0-140.8 0-448 0-512 6.4-89.6 6.4-134.4 70.4-204.8C249.6-38.39999999999998 460.8-128 512-128c51.2 0 262.4 83.2 339.2 160 64 70.4 64 115.2 70.4 204.8 0 64 0 384 0 524.8-6.4 0-19.2 0-25.6 0C716.8 761.6 537.6 864 512 896L512 896zM460.8 224c-6.4 0-19.2 0-25.6 6.4l-128 128c-12.8 12.8-12.8 32 0 44.8s32 12.8 44.8 0l102.4-102.4 198.4 198.4c12.8 12.8 32 12.8 44.8 0s12.8-32 0-44.8l-224-224C480 224 473.6 224 460.8 224z"  horiz-adv-x="1024" />

    
    <glyph glyph-name="chongzhi" unicode="&#58931;" d="M693.095316 614.239143l-131.632817-223.935003 103.718481 0 0-49.478312-120.846571 0 0-68.193688 120.846571 0 0-50.115659-120.846571 0 0-99.276514-62.164435 0L482.169975 222.516481 356.88022 222.516481l0 50.115659 125.289755 0 0 68.193688L356.88022 340.825828l0 49.478312 106.893053 0-130.364204 223.935003 70.099647 0c60.895822-111.230417 97.898433-181.748475 111.012698-211.562689l1.268612 0c4.441967 12.262847 16.596562 37.002611 36.474732 74.219292l74.536749 137.343396L693.095316 614.239143 693.095316 614.239143zM693.095316 614.239143M784.470674 274.551478c-15.061578 0-27.247797-12.187435-27.247797-27.247797s12.187435-27.247797 27.247797-27.247797l71.98128 0c-61.204765-128.843816-192.338895-217.986027-344.464118-217.986027-210.6687 0-381.478892 170.782216-381.478892 381.475243 0 210.696675 170.810191 381.465512 381.478892 381.465512 192.121175 0 350.635679-142.189179 377.137878-326.968701l55.08064 0C917.333181 653.046759 734.255278 819.506206 511.987837 819.506206 271.197197 819.506206 76.012135 624.311414 76.012135 383.543883c0-240.762665 195.185062-435.972053 435.975702-435.972053 164.236031 0 307.128238 90.894915 381.475243 225.064956l0-61.57574c0-15.061578 12.187435-27.247797 27.276989-27.247797 15.004412 0 27.247797 12.187435 27.247797 27.247797L947.987865 247.302465c0 3.297419 0 27.247797-27.247797 27.247797L784.470674 274.550262 784.470674 274.551478zM784.470674 274.551478"  horiz-adv-x="1024" />

    
    <glyph glyph-name="xiangxia" unicode="&#58918;" d="M271.225 560.203l408.802-404.972c0.605-0.605 1.411-0.806 2.016-1.31 0.101-0.101 0.202-0.403 0.302-0.504 14.514-14.413 37.998-14.312 52.411 0.202l404.939 408.701c14.413 14.514 14.312 37.897-0.202 52.31-7.19 7.089-16.697 10.684-26.104 10.684-9.508 0-19.083-3.696-26.306-10.986l-379.17-382.597-384.579 380.984c-7.19 7.089-16.597 10.684-26.104 10.684-9.609 0-19.083-3.696-26.306-10.986-14.379-14.312-14.178-37.796 0.302-52.209v0z"  horiz-adv-x="1414" />

    
    <glyph glyph-name="notice1" unicode="&#58920;" d="M223.037772 504.390951c-45.848211 0-48.158836-40.117696-48.158836-48.15986L174.878936 311.753559c0-45.801139 40.116673-48.16293 48.158836-48.16293l144.481625 0c5.973038 0 11.704576-2.213411 16.084327-6.211469L584.240301 76.874087 584.240301 691.110563 383.65489 510.606513c-4.431939-3.998057-10.162454-6.215562-16.135492-6.215562L223.037772 504.390951zM608.320743-1.291157c-5.828752 0-11.56029 2.12029-16.084327 6.215562L358.320898 215.43077 223.037772 215.43077c-38.71986 0-96.318696 25.668613-96.318696 96.322789L126.719076 456.231091c0 38.720883 25.668613 96.322789 96.318696 96.322789l135.234007 0 233.913471 210.553437c7.082302 6.405897 17.243733 7.948019 25.911136 4.095271 8.764618-3.900843 14.304797-12.521175 14.304797-22.011316l0-722.403011c0-9.486048-5.54018-18.153452-14.257725-22.0062C615.016235-0.615775 611.642394-1.291157 608.320743-1.291157zM728.71988 528.471392c-6.114255 0-12.328793 2.361791-17.049305 7.03523-9.389858 9.388834-9.389858 24.657586 0 34.046421l96.322789 96.322789c9.388834 9.389858 24.657586 9.389858 34.046421 0 9.393951-9.392928 9.393951-24.661679 0-34.050514l-96.318696-96.318696C741.048673 530.833183 734.933395 528.471392 728.71988 528.471392zM873.201505 359.912395 728.71988 359.912395c-13.242606 0-24.079418 10.786671-24.079418 24.080441 0 13.292748 10.837836 24.080441 24.079418 24.080441l144.481625 0c13.33982 0 24.079418-10.786671 24.079418-24.080441C897.280924 370.699066 886.541325 359.912395 873.201505 359.912395zM825.041646 95.031633c-6.117324 0-12.32777 2.358721-17.048281 7.031137l-96.322789 96.318696c-9.389858 9.393951-9.389858 24.657586 0 34.051537 9.392928 9.388834 24.657586 9.388834 34.050514 0l96.318696-96.318696c9.393951-9.393951 9.393951-24.661679 0-34.051537C837.370439 97.390353 831.253114 95.031633 825.041646 95.031633z"  horiz-adv-x="1024" />

    
    <glyph glyph-name="left" unicode="&#58903;" d="M709.254038-61.195501c-15.286148 0-29.522384 5.878894-40.166815 16.564257L279.38971 345.759047c-1.425466 1.39272-2.537799 2.577708-3.449565 3.846608l-2.304486 2.905166c-11.362792 11.416004-16.945951 24.848944-16.945951 39.068807 0 14.475689 5.708002 28.010961 16.056698 38.110993l392.376529 388.216789c10.612709 10.467399 24.785499 16.236799 39.892569 16.236799 14.772448 0 28.726252-5.599532 39.287795-15.753799 10.497075-10.18599 16.538675-24.390503 16.538675-38.95215 0-14.382569-5.722328-28.009937-16.142655-38.366819L390.732587 390.901177 749.217215 31.473061c10.249435-10.30981 15.909341-23.781636 15.909341-37.994336 0-14.889105-6.05081-28.859281-16.999163-39.333844C737.70809-55.744349 723.878107-61.195501 709.254038-61.195501z"  horiz-adv-x="1024" />

    
    <glyph glyph-name="search" unicode="&#58880;" d="M398.904889 725.333333c124.757333 0 226.247111-102.058667 226.247111-227.555555 0-47.274667-14.506667-92.728889-41.927111-131.527111l-22.300445-31.459556-31.288888-22.357333A223.630222 223.630222 0 0 0 398.904889 270.222222c-124.757333 0-226.247111 102.058667-226.247111 227.555556s101.489778 227.555556 226.247111 227.555555z m0 113.777778C211.456 839.111111 59.505778 686.307556 59.505778 497.777778s151.950222-341.333333 339.399111-341.333334a335.758222 335.758222 0 0 1 196.323555 63.260445l272.554667-274.147556a56.32 56.32 0 0 1 80.156445 0 57.173333 57.173333 0 0 1 0 80.554667l-272.554667 274.147556a340.536889 340.536889 0 0 1 62.862222 197.461333c0 188.529778-151.950222 341.333333-339.342222 341.333333z"  horiz-adv-x="1024" />

    
    <glyph glyph-name="openeye" unicode="&#58893;" d="M515.2 672C208 672 22.4 358.4 22.4 358.4s214.4-304 492.8-304 492.8 304 492.8 304S822.4 672 515.2 672zM832 243.20000000000005c-102.4-86.4-211.2-140.8-320-140.8s-217.6 51.2-320 140.8c-35.2 32-70.4 64-99.2 99.2-6.4 6.4-9.6 12.8-16 19.2 3.2 6.4 9.6 12.8 12.8 19.2 25.6 35.2 57.6 70.4 92.8 102.4 99.2 89.6 208 144 329.6 144s230.4-54.4 329.6-144c35.2-32 64-67.2 92.8-102.4 3.2-6.4 9.6-12.8 12.8-19.2-3.2-6.4-9.6-12.8-16-19.2-28.8-32-60.8-67.2-99.2-99.2zM512 550.4c-96 0-169.6-76.8-169.6-169.6 0-96 76.8-169.6 169.6-169.6 96 0 169.6 76.8 169.6 169.6S604.8 550.4 512 550.4z m0-294.4c-67.2 0-121.6 54.4-121.6 121.6 0 67.2 54.4 121.6 121.6 121.6 67.2 0 121.6-54.4 121.6-121.6 0-64-54.4-121.6-121.6-121.6z"  horiz-adv-x="1024" />

    
    <glyph glyph-name="code" unicode="&#58892;" d="M817.079812 505.95047H756.063133v81.339539c0 134.512576-109.475344 243.931638-244.062621 243.931639S267.93482 721.802586 267.93482 587.292056v-81.341586h-61.015655c-33.69952 0-61.016679-27.301809-61.016679-60.98291v-447.206298c0-33.679054 27.318182-60.98291 61.016679-60.98291h610.160647c33.69952 0 61.016679 27.302833 61.016679 60.98291V444.968583c0 33.680077-27.318182 60.981886-61.016679 60.981887z m-488.129336 81.341586c0 100.882642 82.109066 182.948729 183.049012 182.948729 100.939947 0 183.049013-82.066087 183.049013-182.948729v-81.341586h-366.098025v81.341586z m488.129336-589.530794H206.919165V444.968583h610.160647v-447.207321zM512.000512 109.55337099999997c16.84362 0 30.507828 13.657045 30.507827 30.491455V302.66455299999996c0 16.832364-13.664208 30.491455-30.507827 30.491455s-30.507828-13.659091-30.507828-30.491455v-162.620751c-0.001023-16.83441 13.664208-30.490431 30.507828-30.490431z"  horiz-adv-x="1024" />

    
    <glyph glyph-name="shouye" unicode="&#58941;" d="M1007.072 353.52L512.016 816.848 16.96 354.88c-9.68-9.04-10.224-24.24-1.168-33.92 9.04-9.68 24.24-10.224 33.92-1.168l462.272 431.36L974.272 318.48a23.942 23.942 0 0 1 16.4-6.48c6.4 0 12.8 2.544 17.52 7.6 9.056 9.68 8.56 24.864-1.12 33.92zM856 344c-13.248 0-24-10.752-24-24v-368H640V208H384v-256H192V320c0 13.248-10.736 24-24 24s-24-10.752-24-24v-416h288V160h160v-256h288V320c0 13.248-10.752 24-24 24zM688 688h144v-128c0-13.264 10.752-24 24-24s24 10.736 24 24V736H688c-13.248 0-24-10.736-24-24s10.752-24 24-24z"  horiz-adv-x="1024" />

    
    <glyph glyph-name="pinglun1" unicode="&#58989;" d="M272 480c0-26.51 21.49-48 48-48s48 21.49 48 48c0 26.51-21.49 48-48 48-26.51 0-48-21.49-48-48zM464 480c0-26.51 21.49-48 48-48s48 21.49 48 48c0 26.51-21.49 48-48 48-26.51 0-48-21.49-48-48zM656 480c0-26.51 21.49-48 48-48s48 21.49 48 48c0 26.51-21.49 48-48 48-26.51 0-48-21.49-48-48zM896 768h-768c-35.2 0-64-28.8-64-64v-448c0-35.2 28.8-64 64-64h160v-192l192 192h416c35.2 0 64 28.8 64 64v448c0 35.2-28.8 64-64 64zM896 288c0-19.2-12.8-32-32-32h-416l-96-96v96h-192c-19.2 0-32 12.8-32 32v384c0 19.2 12.8 32 32 32h704c19.2 0 32-12.8 32-32v-384z"  horiz-adv-x="1024" />

    
    <glyph glyph-name="dingdan" unicode="&#58888;" d="M440.556 776.132h144c15.464 0 28 12.536 28 28s-12.536 28-28 28h-144c-15.464 0-28-12.536-28-28s12.536-28 28-28zM677.16 570.249h-344c-15.464 0-28-12.536-28-28s12.536-28 28-28h344c15.464 0 28 12.536 28 28s-12.536 28-28 28zM677.16 412.767h-344c-15.464 0-28-12.536-28-28s12.536-28 28-28h344c15.464 0 28 12.536 28 28s-12.536 28-28 28zM677.16 255.285h-344c-15.464 0-28-12.536-28-28s12.536-28 28-28h344c15.464 0 28 12.536 28 28 0 15.463-12.536 28-28 28zM807.126 831.777h-60.55v-0.002l-0.075 0.002c-15.464 0-28-12.536-28-28s12.536-28 28-28l0.075 0.002v-0.002h60.55c8.982 0 17.493-3.564 23.965-10.036 6.471-6.471 10.035-14.982 10.035-23.964v-716c0-8.982-3.564-17.493-10.035-23.964s-14.982-10.036-23.965-10.036H218.025c-8.982 0-17.493 3.564-23.965 10.036s-10.035 14.982-10.035 23.964v716c0 8.982 3.564 17.493 10.035 23.964 6.471 6.472 14.982 10.036 23.965 10.036h60.55v0.002l0.091-0.002c15.464 0 28 12.536 28 28s-12.536 28-28 28l-0.091-0.002v0.002h-60.55c-49.5 0-90-40.5-90-90v-716c0-49.5 40.5-90 90-90h589.101c49.5 0 90 40.5 90 90v716c0 49.5-40.5 90-90 90z"  horiz-adv-x="1024" />

    
    <glyph glyph-name="yue" unicode="&#58951;" d="M512 62.4c-13.6 0-24 10.4-24 24v67.2H384c-13.6 0-24 10.4-24 24s10.4 24 24 24h104v60.8H384c-13.6 0-24 10.4-24 24s10.4 24 24 24h111.2L384 421.6c-4.8 4.8-7.2 10.4-7.2 16.8s2.4 12.8 7.2 16.8c4.8 4.8 10.4 7.2 16.8 7.2s12.8-2.4 16.8-7.2L512 361.6 605.6 456c4.8 4.8 10.4 7.2 16.8 7.2s12.8-2.4 16.8-7.2c9.6-9.6 9.6-24.8 0-33.6l-110.4-112H640c13.6 0 24-10.4 24-24s-10.4-24-24-24H536v-60.8h104c13.6 0 24-10.4 24-24s-10.4-24-24-24H536v-67.2c0-12.8-10.4-24-24-24zM280-115.2c-32.8 0-115.2 7.2-176.8 71.2-51.2 53.6-75.2 132-72 234.4 8 210.4 193.6 352 272.8 402.4l12.8 8-9.6 11.2c-20 22.4-53.6 66.4-61.6 117.6-4.8 31.2 2.4 59.2 20 80.8 21.6 28 47.2 33.6 64.8 33.6 19.2 0 40-7.2 60.8-20l8.8-6.4 7.2 9.6c18.4 24.8 52 55.2 103.2 56h1.6c52 0 85.6-30.4 104.8-56l7.2-9.6 9.6 6.4c20.8 13.6 41.6 20 60.8 20 17.6 0 43.2-5.6 64.8-33.6 17.6-22.4 24-50.4 19.2-80.8-5.6-37.6-28-80.8-61.6-117.6l-9.6-11.2 12.8-8c79.2-51.2 264.8-192 272.8-402.4 4-102.4-20.8-181.6-72-234.4-61.6-64-144.8-71.2-176.8-71.2H280z m85.6 688.8c-28.8-16-277.6-159.2-286.4-384.8-3.2-89.6 16.8-156.8 58.4-200 48.8-50.4 116-56 142.4-56h464c26.4 0 93.6 5.6 142.4 56 41.6 43.2 61.6 110.4 58.4 199.2-8 226.4-257.6 369.6-285.6 384.8l-4.8 3.2-5.6-1.6c-2.4-0.8-4.8-1.6-7.2-1.6H384c-2.4 0-4.8 0.8-8 1.6l-5.6 1.6-4.8-2.4z m-36 223.2c-6.4 0-16-1.6-27.2-15.2-9.6-12-12.8-26.4-9.6-44.8 6.4-46.4 48-95.2 72.8-115.2l4.8-4 6.4 1.6c3.2 0.8 4.8 1.6 6.4 1.6h257.6c0.8 0 2.4-0.8 4-0.8l8-2.4 4.8 4c24.8 20 66.4 68.8 72.8 115.2 2.4 18.4-0.8 32.8-9.6 44.8-10.4 13.6-20 15.2-27.2 15.2-23.2 0-51.2-24-60-33.6-4.8-4.8-11.2-8-17.6-8-1.6 0-3.2 0-4.8 0.8-8 1.6-15.2 7.2-17.6 15.2-2.4 7.2-27.2 64-81.6 64h-1.6c-56.8-0.8-80-61.6-80.8-64-3.2-8-9.6-13.6-17.6-15.2-1.6 0-3.2-0.8-4.8-0.8-6.4 0-12.8 2.4-17.6 8-8.8 9.6-36.8 33.6-60 33.6z"  horiz-adv-x="1024" />

    
    <glyph glyph-name="my_icon" unicode="&#58973;" d="M657.94 310.1c95 51.87 159.61 152.7 159.61 268.36-0 168.47-137.070 305.54-305.55 305.54s-305.55-137.070-305.55-305.55c0-115.65 64.61-216.49 159.61-268.36-192.31-49.98-330.81-198.52-353.87-395.090-0.119-0.966-0.187-2.085-0.187-3.219 0-14.203 10.659-25.917 24.414-27.578 15.133-2.013 29.133 9.077 30.953 24.347 25.17 214.54 208.030 364.36 444.63 364.36s419.46-149.82 444.63-364.33c1.658-13.892 13.361-24.563 27.561-24.58 0.031-0 0.070-0 0.108-0 1.111 0 2.205 0.069 3.28 0.203 13.76 1.661 24.419 13.375 24.419 27.578 0 1.134-0.068 2.253-0.2 3.351-23.047 196.437-161.547 344.977-353.857 394.967zM262 578.45c0 137.85 112.14 250 250 250s250-112.14 250-250-112.14-250-250-250-250 112.15-250 250z"  horiz-adv-x="1024" />

    
    <glyph glyph-name="xiaoxi" unicode="&#58939;" d="M841.5 705.2H181.1c-64.9 0-117.7-51.9-117.7-115.6v-409.7c0-63.7 52.8-115.6 117.7-115.6h660.4c64.9 0 117.7 51.9 117.7 115.6V589.6c0 63.7-52.8 115.6-117.7 115.6zM620 400.5l284.1 227.6c7.1-11.2 11.3-24.4 11.3-38.5v-409.7c0-13-3.5-25.2-9.6-35.8L620 400.5z m221.5 261.7c10.2 0 20-2.1 28.8-5.8L511.7 369.2 152.8 656.6c8.7 3.6 18.3 5.6 28.3 5.6h660.4zM117.1 143.7c-6.3 10.7-9.9 23-9.9 36.2V589.6c0 14.3 4.2 27.6 11.5 38.9l284.6-228-286.2-256.8z m64-36.4c-11.4 0-22.2 2.6-31.9 7.1L437.6 373l54.4-43.6 1.1-1.1 1.2-1.2c4.7-4.5 10.9-6.8 17.1-6.8 5.4 0 10.9 1.8 15.4 5.4l59 47.2 288.1-258.4c-9.8-4.7-20.7-7.3-32.3-7.3H181.1z"  horiz-adv-x="1024" />

    
    <glyph glyph-name="iphone" unicode="&#59009;" d="M819.2 691.2V793.6a51.2 51.2 0 0 1-51.2 51.2H256a51.2 51.2 0 0 1-51.2-51.2v-102.4h614.4z m0-51.2H204.8v-665.6a51.2 51.2 0 0 1 51.2-51.2h512a51.2 51.2 0 0 1 51.2 51.2V640zM256 896h512a102.4 102.4 0 0 0 102.4-102.4v-819.2a102.4 102.4 0 0 0-102.4-102.4H256a102.4 102.4 0 0 0-102.4 102.4V793.6a102.4 102.4 0 0 0 102.4 102.4z m179.2-844.8h153.6a25.6 25.6 0 0 0 0-51.2h-153.6a25.6 25.6 0 0 0 0 51.2z"  horiz-adv-x="1024" />

    
    <glyph glyph-name="wode" unicode="&#58883;" d="M361.37472 213.85728h308.1728c157.34784 0 228.57728-119.83872 243.50208-275.4304l36.41344 40.1152H81.46432l36.41344-40.1152c14.9248 155.62752 86.05184 275.4304 243.49696 275.4304z m-279.9104-308.55168h868.00384c21.58592 0 38.4768 18.6112 36.41344 40.12032-18.5088 193.07008-121.20576 341.66272-316.32896 341.66272h-308.1728c-195.22048 0-297.81504-148.57728-316.32384-341.66272-2.06848-21.50912 14.81728-40.12032 36.40832-40.12032z m688.0768 675.13856c0 144.91648-117.36576 262.37952-262.1184 262.37952-144.77824 0-262.144-117.46304-262.144-262.37952 0-144.91136 117.36576-262.39488 262.144-262.39488 144.75264 0 262.1184 117.48352 262.1184 262.39488z m-451.11296 0c0 104.46848 84.61312 189.13792 188.98944 189.13792 104.35072 0 188.95872-84.67456 188.95872-189.13792s-84.608-189.1584-188.95872-189.1584c-104.3712 0-188.98944 84.68992-188.98944 189.1584z"  horiz-adv-x="1024" />

    
    <glyph glyph-name="shezhi" unicode="&#58917;" d="M898.005172 348.480228c1.130666 11.754662 1.834666 23.55199 1.834666 35.519985 0 11.967995-0.704 23.765323-1.834666 35.519986l90.133296 71.210637a51.007979 51.007979 0 0 1 12.031995 65.151972l-96.12796 168.042597a50.901312 50.901312 0 0 1-62.997307 22.101324l-105.621289-42.901315a379.775842 379.775842 0 0 1-60.522642 35.583985l-16.021326 114.047952a51.327979 51.327979 0 0 1-50.389313 43.263982h-192.298586c-25.237323 0-46.442647-18.154659-50.431979-43.647981l-15.957327-113.663953a383.978507 383.978507 0 0 1-60.586641-35.583985L183.31747 746.197396c-22.805324 8.831996-50.431979-0.917333-62.613307-22.271991l-96.12796-167.99993a51.157312 51.157312 0 0 1 12.351995-65.471973l89.749296-70.933303A368.98118 368.98118 0 0 1 124.842828 384.000213c0-11.967995 0.704-23.80799 1.834666-35.519985l-90.239963-71.189304a51.157312 51.157312 0 0 1-11.861328-65.109306l96.170627-168.170596a51.093312 51.093312 0 0 1 62.95464-21.973325l105.621289 42.901316c19.413325-13.909328 39.701317-25.834656 60.522642-35.519985l16.021327-114.218619a50.794646 50.794646 0 0 1 50.325312-43.221316h192.25592c24.917323 0 46.549314 18.581326 50.495979 43.647982l15.957326 113.727953a382.677174 382.677174 0 0 1 60.522642 35.583985l105.898622-43.135982a51.199979 51.199979 0 0 1 62.719974 22.271991l95.978627 167.93593c12.565328 21.674658 7.70133 49.15198-12.309328 65.706639l-89.70663 70.762637zM861.333188 71.893677l-119.701284 48.661313a26.709322 26.709322 0 0 1-26.709322-3.669332 327.65853 327.65853 0 0 0-75.071969-44.031982 27.178655 27.178655 0 0 1-16.362659-21.183991l-17.621326-125.845281-186.709256-2.751999-18.005326 128.59728a27.093322 27.093322 0 0 1-16.341326 21.183991 330.517196 330.517196 0 0 0-75.093302 44.031982 26.815989 26.815989 0 0 1-26.645323 3.605332l-115.498618-49.749313-97.15196 164.607932 101.525291 80.0853c7.44533 5.887998 11.221329 15.253327 10.026663 24.639989A329.023863 329.023863 0 0 0 178.794806 384.000213c0 14.869327 1.237333 29.482654 3.135998 43.818649a26.773322 26.773322 0 0 1-10.047996 24.639989l-100.479958 76.693302 91.967962 166.97593 119.594617-48.618646c8.895996-3.647998 19.071992-2.282666 26.687989 3.605332a336.06386 336.06386 0 0 0 75.242635 44.202648c8.810663 3.669332 14.95466 11.690662 16.29866 21.119991l14.997327 125.695948 189.333254 2.751999 18.02666-128.554613c1.279999-9.429329 7.551997-17.450659 16.341326-21.119992a331.327862 331.327862 0 0 0 75.135969-44.095981c7.658663-5.866664 17.813326-7.274664 26.709322-3.669332l115.498618 49.706646 97.194627-164.501265-101.567958-80.191967a27.029322 27.029322 0 0 1-10.090662-24.597323c1.834666-14.442661 3.178665-29.034655 3.178665-43.925315 0-14.869327-1.301333-29.461321-3.178665-43.925315-1.194666-9.365329 2.645332-18.687992 10.090662-24.575989l100.437291-76.586635-91.967961-166.954597zM512.426666 587.200129c-111.231954 0-201.685249-91.135962-201.685249-203.199916 0-111.999953 90.453296-203.178582 201.685249-203.178582s201.642583 91.135962 201.642583 203.178582c0 112.063953-90.474629 203.199915-201.642583 203.199916z m0-352.49052c-81.450633 0-147.754605 66.922639-147.754605 149.290604s66.303972 149.290604 147.754605 149.290605 147.690605-66.986639 147.690606-149.290605-66.282639-149.290604-147.690606-149.290604z"  horiz-adv-x="1024" />

    
    <glyph glyph-name="dingdan1" unicode="&#58904;" d="M349.090909 791.272727m46.545455 0l325.818181 0q46.545455 0 46.545455-46.545454l0-93.090909q0-46.545455-46.545455-46.545455l-325.818181 0q-46.545455 0-46.545455 46.545455l0 93.090909q0 46.545455 46.545455 46.545454ZM860.858182-69.585455h-698.181818a46.545455 46.545455 0 0 0-46.545455 46.545455v744.727273a46.545455 46.545455 0 0 0 46.545455 46.545454H302.545455V791.272727a46.545455 46.545455 0 0 0 46.545454 46.545455h325.818182a46.545455 46.545455 0 0 0 46.545454-46.545455v-23.04h139.403637a46.545455 46.545455 0 0 0 46.545454-46.545454v-744.727273a46.545455 46.545455 0 0 0-46.545454-46.545455zM674.909091 791.272727H349.090909v-93.090909h325.818182v93.090909z m185.949091-69.585454H721.454545V698.181818a46.545455 46.545455 0 0 0-46.545454-46.545454H349.090909a46.545455 46.545455 0 0 0-46.545454 46.545454V721.687273H162.676364v-744.727273h698.181818v744.727273zM302.545455 512h418.90909a23.272727 23.272727 0 0 0 0-46.545455H302.545455a23.272727 23.272727 0 0 0 0 46.545455z m0-186.181818h418.90909a23.272727 23.272727 0 0 0 0-46.545455H302.545455a23.272727 23.272727 0 0 0 0 46.545455z m0-186.181818h232.727272a23.272727 23.272727 0 0 0 0-46.545455H302.545455a23.272727 23.272727 0 0 0 0 46.545455z"  horiz-adv-x="1024" />

    
    <glyph glyph-name="renyuanbaoming" unicode="&#58971;" d="M745.4 212.5c11.6 11.8 11.5 30.8-0.3 42.4-36.3 35.8-77.1 60.9-125 76.9-1.9 0.6-3.9 1.3-5.9 1.9 18.2 11.1 35.1 24.4 50.6 39.8 50.6 50.6 78.5 117.9 78.5 189.5s-27.9 138.9-78.5 189.5C614.3 803 547 830.9 475.4 830.9S336.5 803 285.9 752.4c-50.6-50.6-78.5-117.9-78.5-189.5 0-47.9 12.8-94.8 37-135.9 8.4-14.3 26.8-19 41.1-10.6s19 26.8 10.6 41.1c-18.7 31.8-28.7 68.3-28.7 105.4 0 114.7 93.3 208 208 208s208-93.3 208-208-93.3-208-208-208c-4.3 0-8.4-0.9-12.1-2.6-36.5-1.2-71.1-7.6-103-19.2-34.2-12.4-66.2-31.1-95.4-55.6-52.7-44.3-97.6-108.3-137.2-195.8-6.8-15.1-0.1-32.9 14.9-39.7 4-1.8 8.2-2.7 12.4-2.7 11.4 0 22.3 6.6 27.3 17.6 73.8 162.8 164.2 235.5 293 235.5 101 0 171.2-24.8 227.6-80.4 11.9-11.5 30.9-11.3 42.5 0.5zM912 358.5c-14.1 8.7-32.6 4.4-41.3-9.7L722 109.3 645.1 173c-12.8 10.6-31.7 8.8-42.2-4-10.6-12.8-8.8-31.7 4-42.2l103.4-85.6c5.4-4.5 12.2-6.9 19.1-6.9 1.6 0 3.2 0.1 4.8 0.4 8.6 1.4 16.1 6.4 20.7 13.8l166.8 268.7c8.7 14.1 4.4 32.6-9.7 41.3z"  horiz-adv-x="1024" />

    
    <glyph glyph-name="right" unicode="&#59385;" d="M320 736c0-8.2 3.1-16.4 9.4-22.6L658.7 384 329.4 54.6c-12.5-12.5-12.5-32.8 0-45.3s32.8-12.5 45.3 0l352 352c12.5 12.5 12.5 32.8 0 45.3l-352 352c-12.5 12.5-32.8 12.5-45.3 0-6.3-6.2-9.4-14.4-9.4-22.6z"  horiz-adv-x="1024" />

    
    <glyph glyph-name="fenlei" unicode="&#58900;" d="M391.982 831.411H120.334c-30.887 0-55.93-25.043-55.93-55.93v-271.648c0-30.887 25.042-55.93 55.93-55.93h271.648c30.887 0 55.93 25.042 55.93 55.93V775.481c0 30.887-25.043 55.93-55.93 55.93z m-8-319.578H127.334V768.481h256.648v-256.648z m8-191.789H120.334c-30.887 0-55.93-25.044-55.93-55.931v-271.647c0-30.887 25.042-55.931 55.93-55.931h271.648c30.887 0 55.93 25.044 55.93 55.931V264.113c0 30.887-25.043 55.931-55.93 55.931z m-8-319.578H127.334V256.113h256.648v-255.647zM903.35 831.411H631.701c-30.887 0-55.93-25.043-55.93-55.93v-271.648c0-30.887 25.043-55.93 55.93-55.93H903.35c30.887 0 55.93 25.042 55.93 55.93V775.481c-0.001 30.887-25.044 55.93-55.93 55.93z m-7-319.578H639.701V768.481H896.35v-256.648z m7-192.789H632.701c-30.887 0-55.93-25.044-55.93-55.931v-270.647c0-30.887 25.043-55.931 55.93-55.931H903.35c30.887 0 55.93 25.044 55.93 55.931V263.113c-0.001 30.887-25.044 55.931-55.93 55.931z m-7-318.578H639.701V256.113H896.35v-255.647z"  horiz-adv-x="1024" />

    
    <glyph glyph-name="closeeye" unicode="&#58942;" d="M986.624 593.152c-130.92864-97.59744-304.07168-156.17536-466.58048-157.25568-161.5872-1.07008-336.72192 60.46208-466.58048 157.25568-26.50624 19.75808-51.98336-24.71936-25.84064-44.2112 43.93984-32.74752 93.76256-58.752 143.31392-81.69984 109.44-50.68288 228.11648-81.7408 349.1072-82.54464 118.71744-0.78848 235.64288 31.73376 343.29088 79.89248 51.6608 23.1168 103.59296 50.41152 149.13024 84.352 26.14784 19.49184 0.6656 63.96928-25.84064 44.2112zM363.58144 417.1008l-26.5472-157.71648c-5.43744-32.28672 43.89888-46.11584 49.37216-13.60896l26.5472 157.71648c5.43232 32.28672-43.89888 46.11584-49.37216 13.60896zM645.83168 403.49184l26.5472-157.71648c5.46816-32.50688 54.80448-18.67264 49.37216 13.60896l-26.5472 157.71648c-5.47328 32.50688-54.8096 18.67776-49.37216-13.60896zM119.84896 522.7264L31.5136 380.52864c-17.47456-28.12928 26.8288-53.81632 44.2112-25.84064l88.33536 142.19776c17.47456 28.12928-26.83392 53.81632-44.2112 25.84064zM850.62656 474.2912l88.33536-142.208c17.3824-27.97568 61.68576-2.28864 44.2112 25.84064l-88.33536 142.208c-17.3824 27.97568-61.68576 2.28864-44.2112-25.84064z"  horiz-adv-x="1024" />

    
    <glyph glyph-name="shuxian" unicode="&#58936;" d="M450.56 768h61.44v-768H450.56zM512 768h61.44v-768h-61.44z"  horiz-adv-x="1024" />

    


  </font>
</defs>
</svg>
