<?xml version="1.0" standalone="no"?>
<!DOCTYPE svg PUBLIC "-//W3C//DTD SVG 1.1//EN" "http://www.w3.org/Graphics/SVG/1.1/DTD/svg11.dtd" >
<svg xmlns="http://www.w3.org/2000/svg">
<metadata>
Created by FontForge 20120731 at Sat Apr 23 22:12:13 2016
 By admin
</metadata>
<defs>
<font id="iconfont" horiz-adv-x="1024" >
  <font-face 
    font-family="iconfont"
    font-weight="500"
    font-stretch="normal"
    units-per-em="1024"
    panose-1="2 0 6 3 0 0 0 0 0 0"
    ascent="896"
    descent="-128"
    x-height="792"
    bbox="-0.538461 -212 1024.79 900"
    underline-thickness="50"
    underline-position="-100"
    unicode-range="U+0078-E613"
  />
<missing-glyph horiz-adv-x="374" 
d="M34 0v682h272v-682h-272zM68 34h204v614h-204v-614z" />
    <glyph glyph-name=".notdef" horiz-adv-x="374" 
d="M34 0v682h272v-682h-272zM68 34h204v614h-204v-614z" />
    <glyph glyph-name=".null" horiz-adv-x="0" 
 />
    <glyph glyph-name="nonmarkingreturn" horiz-adv-x="341" 
 />
    <glyph glyph-name="x" unicode="x" horiz-adv-x="1001" 
d="M281 543q-27 -1 -53 -1h-83q-18 0 -36.5 -6t-32.5 -18.5t-23 -32t-9 -45.5v-76h912v41q0 16 -0.5 30t-0.5 18q0 13 -5 29t-17 29.5t-31.5 22.5t-49.5 9h-133v-97h-438v97zM955 310v-52q0 -23 0.5 -52t0.5 -58t-10.5 -47.5t-26 -30t-33 -16t-31.5 -4.5q-14 -1 -29.5 -0.5
t-29.5 0.5h-32l-45 128h-439l-44 -128h-29h-34q-20 0 -45 1q-25 0 -41 9.5t-25.5 23t-13.5 29.5t-4 30v167h911zM163 247q-12 0 -21 -8.5t-9 -21.5t9 -21.5t21 -8.5q13 0 22 8.5t9 21.5t-9 21.5t-22 8.5zM316 123q-8 -26 -14 -48q-5 -19 -10.5 -37t-7.5 -25t-3 -15t1 -14.5
t9.5 -10.5t21.5 -4h37h67h81h80h64h36q23 0 34 12t2 38q-5 13 -9.5 30.5t-9.5 34.5q-5 19 -11 39h-368zM336 498v228q0 11 2.5 23t10 21.5t20.5 15.5t34 6h188q31 0 51.5 -14.5t20.5 -52.5v-227h-327z" />
    <glyph glyph-name="uniE600" unicode="&#xe600;" 
d="M455.5 7q-95.5 0 -177 47.5t-129 129t-47.5 177t47.5 177t129 129t177 47.5t177 -47.5t129 -129t47.5 -177t-47.5 -177t-129 -129t-177 -47.5zM455.5 627q-110.5 0 -188.5 -78t-78 -188.5t78 -188.5t188.5 -78t188.5 78t78 188.5t-78 188.5t-188.5 78zM868 -106
q-22 0 -38 16l-184 184q-16 16 -16 38t15.5 38t38 16t38.5 -16l184 -185q16 -15 16 -37.5t-16 -38t-38 -15.5z" />
    <glyph glyph-name="uniE601" unicode="&#xe601;" 
d="M305 260zM730 427zM596 554zM651 49l141 -166l141 166h-282zM291 687h501v-89h-501v89zM291 441h501v-89h-501v89zM291 194h501v-89h-501v89zM168 718v-151h-38v113h-38v38h76zM130 370v-30h75v-38h-113v86l76 36v29h-76v38h113v-86zM205 243v-188h-113v38h76v37h-76v38
h76v38h-76v37h113z" />
    <glyph glyph-name="uniE602" unicode="&#xe602;" 
d="M235 300l506 512l48 -98l-409 -414l409 -414l-48 -98z" />
    <glyph glyph-name="uniE603" unicode="&#xe603;" 
d="M995 300q0 -45 -8 -88q-31 -170 -165 -282.5t-310 -112.5q-148 0 -268.5 81.5t-176.5 213.5q-38 90 -38 188q95 25 291.5 78t345.5 94l149 41q5 -3 13.5 -8.5t33 -25.5t46 -42.5t46.5 -59.5t41 -77zM512 -212q-104 0 -199 40.5t-163.5 109t-109 163.5t-40.5 199t40.5 199
t109 163.5t163.5 109t199 40.5t199 -40.5t163.5 -109t109 -163.5t40.5 -199t-40.5 -199t-109 -163.5t-163.5 -109t-199 -40.5zM512 754q-92 0 -176 -36t-145 -97t-97 -145t-36 -176t36 -176t97 -145t145 -97t176 -36t176 36t145 97t97 145t36 176t-36 176t-97 145t-145 97
t-176 36zM776 553l-33 43l-205 -143h-24l-204 148l-33 -53l134 -95h-120v-58h205l-2 14v-159h-203v-58h203v-204h58v204h174v58h-174v145h174v58h-84z" />
    <glyph glyph-name="uniE604" unicode="&#xe604;" 
d="M692 333l-300 300q-8 8 -19 8q-12 0 -20 -9l-13 -13l-13 -13q-9 -8 -9 -19.5t8 -19.5l260 -260q3 -3 3 -7t-3 -7l-260 -260q-8 -8 -8 -19.5t8 -18.5l14 -14q7 -7 14 -13q7 -9 19 -9q11 0 19 8l300 300q14 14 14 33t-14 33z" />
    <glyph glyph-name="uniE605" unicode="&#xe605;" 
d="M1019 329q-96 120 -229 185t-278.5 65t-278 -65t-228.5 -184q-5 -6 -5 -14v-29q0 -8 5 -14q96 -119 228.5 -184t278 -65t278.5 65.5t229 184.5q5 6 5 14v27q0 8 -5 14zM979 296q-89 -109 -211.5 -168.5t-256 -59.5t-255.5 59.5t-211 167.5v13q89 108 211 167.5
t255.5 59.5t256 -59.5t211.5 -168.5v-11zM512 473q-71 0 -121 -50.5t-50 -121t50 -121t121 -50.5q39 0 74 17q8 4 11.5 12.5t-0.5 17t-13 11.5t-17 -1q-26 -12 -55 -12q-52 0 -89.5 37t-37.5 89.5t37.5 89.5t89.5 37t89.5 -37t37.5 -89q0 -18 -5 -35q-3 -9 1.5 -17
t13.5 -10.5t17 1.5t11 13q6 23 6 48q0 70 -50 120.5t-121 50.5zM431 333q-5 -15 -5 -31q0 -5 3 -8.5t7.5 -3.5t8 3.5t3.5 8.5q0 12 4 23q7 18 23.5 29.5t36.5 11.5q5 0 8 3t3 7.5t-3 8t-8 3.5q-27 0 -49 -15.5t-32 -39.5z" />
    <glyph glyph-name="uniE606" unicode="&#xe606;" 
d="M878 99v287h-161v-287h-125v654h-161v-654h-124v449h-161v-449h-83v-80h83h161h124h161h125h161h82v80h-82z" />
    <glyph glyph-name="uniE607" unicode="&#xe607;" 
d="M369 647q106 -14 195 21l-27 -31l18 -11l51 39l-14 -28l21 -4l16 44q28 -21 59 -25q6 -63 -14 -118q-24 -70 -70 -106q-35 -28 -74 -30t-74 22q-44 31 -70 94q-23 57 -17 133zM655 324q37 1 80 -7l4 -80h-37h-15l7 -14l32 -53q-43 -54 -96.5 -133.5t-81.5 -133.5l8 -4
q19 36 82.5 123.5t105.5 141.5l4 5l-3 5l-27 45h31h9l-1 9l-4 86q29 -7 74 -19q66 -149 70 -346q-18 -35 -128.5 -56t-238.5 -21.5t-240.5 20t-132.5 57.5q4 197 70 346q53 15 79 20l-4 -87l-1 -9h10h30l-27 -45l-3 -5l4 -5q114 -144 169 -247l7 3q-85 157 -157 250l32 52
l8 14h-16h-37l4 83q39 6 74 5q1 -19 6 -38.5t17 -45.5t18.5 -38.5t25.5 -46.5t23 -40l18 105l-18 27l20 23h35l20 -19l-13 -31l19 -120q5 12 22 48t24 53t18 44.5t16 46t5 32.5zM735 627l4 2l2 1q7 24 8.5 57t-8 66.5t-24 60.5t-39.5 38.5t-54 0.5q-20 19 -46.5 27t-50.5 7
t-51 -2q-90 -5 -134.5 -76.5t-28.5 -173.5l-7 -1q-6 -47 5 -71q8 -16 21 -25q6 -24 14 -42q32 -75 86 -112q46 -33 102 -31q52 2 99 39q57 46 85 127q17 52 17 108z" />
    <glyph glyph-name="uniE608" unicode="&#xe608;" 
d="M839 208q-18 27 -56 42q35 0 64 3q-19 21 -31 39t-18.5 31.5t-10 36t-4.5 38t-2.5 53.5t-3.5 69q-1 97 -32.5 198.5t-70.5 129.5q-64 48 -173.5 45t-173.5 -55q-24 -20 -45.5 -69t-29.5 -108q-5 -48 -12.5 -85.5t-14.5 -63.5t-18 -46.5t-19 -32.5t-23.5 -24t-25 -17
t-29.5 -16q83 -23 147 15q-13 -31 -32 -49t-47 -35q64 -50 142 -36q-8 -2 -27.5 -6t-29.5 -7t-25 -8t-25.5 -11t-17.5 -14q-34 -34 -53 -85t-23 -103t-2.5 -93t8.5 -72h761q4 27 5.5 68t-2 89t-16.5 97t-34 82zM353 573q2 19 3 28q33 -8 68 -11v32l10 -3l3 -13l5 21l11 -1
l18 -40q106 -4 201 15q6 -48 -4 -96q-14 -65 -53.5 -114t-99.5 -67q-57 9 -95.5 50.5t-55.5 99.5q-13 48 -11 99zM510 -82q-124 157 -175 357q48 13 83 48q42 -32 96 -39l3 -1l5 1q41 12 76 36q30 -35 78 -52q-54 -194 -166 -350z" />
    <glyph glyph-name="uniE609" unicode="&#xe609;" 
d="M152 612q-37 0 -62.5 26.5t-25.5 63.5t25.5 62t62.5 25q36 0 61.5 -26t25.5 -61.5t-25.5 -62.5t-61.5 -27zM152 299q-37 0 -62.5 25t-25.5 62t26 62.5t62 25.5q35 0 61 -26.5t26 -61.5t-25.5 -61t-61.5 -26zM151.5 -16q-36.5 0 -62 26t-25.5 62q0 35 26 61t61.5 26
t61.5 -26t26 -61q0 -36 -25.5 -62t-62 -26zM924 659h-590q-16 0 -28.5 12.5t-12.5 29t12.5 29t28.5 12.5h590q16 0 28.5 -12.5t12.5 -29t-12.5 -29t-28.5 -12.5zM924 30h-590q-16 0 -28.5 12.5t-12.5 29t12.5 29t28.5 12.5h590q16 0 28.5 -12.5t12.5 -29t-12.5 -29
t-28.5 -12.5zM924 345h-590q-16 0 -28.5 12.5t-12.5 29t12.5 29t28.5 12.5h590q16 0 28.5 -12.5t12.5 -29t-12.5 -29t-28.5 -12.5z" />
    <glyph glyph-name="uniE60A" unicode="&#xe60a;" 
d="M290 900h52v-1033h-52v1033z" />
    <glyph glyph-name="uniE60B" unicode="&#xe60b;" 
d="M512 896q-48 0 -82.5 -26t-34.5 -63l1 -848q-1 -36 33 -61.5t82.5 -25.5t83 26t34.5 62v849q1 36 -33.5 61.5t-83.5 25.5z" />
    <glyph glyph-name="uniE60C" unicode="&#xe60c;" 
d="M512 891q103 0 197 -40t162 -108t108 -162t40 -197t-40 -197t-108 -162t-162 -108t-197 -40t-197 40t-162 108t-108 162t-40 197t40 197t108 162t162 108t197 40zM512 470q27 0 46 19t19 46t-19 46t-46 19t-46 -19t-19 -46t19 -46t46 -19v0zM512 561q13 0 23 -9.5t10 -23
t-10 -23t-23 -9.5t-23 9.5t-10 23t10 23t23 9.5v0zM512 561zM577 262q0 27 -19 46t-46 19t-46 -19t-19 -46t19 -46t46 -19t46 19t19 46v0zM479 268q0 14 10 23.5t23 9.5t23 -9.5t10 -23t-10 -23t-23 -9.5t-23 9.5t-10 22.5v0zM479 268zM648 334q27 0 46 19.5t19 46.5t-19 46
t-46 19t-46 -19t-19 -46t19 -46.5t46 -19.5v0zM642 432q13 0 22.5 -9.5t9.5 -23t-9.5 -23t-23 -9.5t-23 9.5t-9.5 23t9.5 23t23.5 9.5v0zM642 432zM375 462q-27 0 -46 -19t-19 -46t19 -46t46 -19t46 19t19 46t-19 46t-46 19v0zM382 364q-14 0 -23.5 10t-9.5 23.5t9.5 23
t23 9.5t23 -9.5t9.5 -23t-9.5 -23.5t-22.5 -10v0zM382 364zM783 138h-138q41 21 74 54q40 40 62 93q23 54 23 113.5t-23 113.5q-22 53 -62.5 93.5t-92.5 62.5q-55 23 -114.5 23t-113.5 -23q-52 -22 -92.5 -62.5t-63.5 -93.5q-22 -54 -22 -113q0 -60 23 -114
q22 -53 62.5 -93.5t92.5 -62.5q55 -23 114 -23h5h1h265q7 0 11.5 4.5t4.5 11.5t-4.5 11.5t-11.5 4.5v0zM340 227q-33 34 -52 77q-19 45 -19 94.5t19 94.5q19 44 52.5 77.5t77.5 51.5q45 19 94 19t95 -19q43 -18 76.5 -51.5t52.5 -77.5q19 -45 19 -94.5t-19 -94.5
q-19 -43 -52.5 -77t-76.5 -52q-46 -19 -95 -19t-94 19q-44 18 -78 52v0zM340 227z" />
    <glyph glyph-name="uniE60D" unicode="&#xe60d;" 
d="M629 -44q0 -8 -6 -14t-15 -6h-192q-9 0 -15 6t-6 14v856q0 8 6 14t15 6h192q9 0 15 -6t6 -14v-856z" />
    <glyph glyph-name="uniE60E" unicode="&#xe60e;" 
d="M671 -6q-42 0 -85 -12t-51 -34v-1h-46q-8 22 -51 34t-85 12h-251v660h273q43 0 79.5 -20.5t57.5 -54.5q21 34 57.5 54.5t79.5 20.5h273v-659h-251zM489 516q0 39 -34.5 65t-79.5 26h-227v-569h205q115 2 136 -33v25q-1 37 0 77v395v14zM876 607h-227q-45 0 -79.5 -26
t-34.5 -65v-14v-395q1 -39 0 -76v-26q21 36 136 34h205v568z" />
    <glyph glyph-name="uniE60F" unicode="&#xe60f;" 
d="M512.5 748q-90.5 0 -173.5 -35.5t-142.5 -95t-95 -142.5t-35.5 -174t35.5 -173.5t95 -142.5t142.5 -95t173.5 -35t173.5 35t142.5 95t95 142.5t35.5 173.5t-35.5 174t-95 142.5t-142.5 95t-173.5 35.5zM512.5 -95q-107.5 0 -199 53t-144.5 144.5t-53 199t53 199
t144.5 144.5t199 53t199 -53t144.5 -144.5t53 -199t-53 -199t-144.5 -144.5t-199 -53zM451 567l-7 -11q63 -58 122 -118l-28 -31q-53 59 -113 117q-49 -77 -101 -129h205q-3 -70 -5 -98q-3 -74 -68 -74q-26 0 -65 1q-3 22 -7 40q34 -5 64 -6q36 0 38 46q2 24 3 56h-132v-200
q0 -28 30 -28h82q39 0 44 26q6 24 9 59q20 -8 40 -14q-5 -33 -13 -61q-12 -46 -70 -46h-99q-62 0 -62 61v232q-16 -15 -31 -28q-15 25 -23 36q82 63 141 170h46zM690 563h40v-415q0 -61 -61 -61h-78q-3 23 -8 46q53 -5 74 -5q33 0 33 32v403zM624 211h-39v308h39v-308z" />
    <glyph glyph-name="uniE610" unicode="&#xe610;" 
d="M1011 527q0 9 -6.5 15.5t-16.5 6.5h-222q-19 0 -32 13t-13 32q0 37 -26 63t-63 26h-490v67q0 9 -6.5 15.5t-15.5 6.5t-15.5 -6.5t-6.5 -15.5v-913h-45q-9 0 -15.5 -6.5t-6.5 -16t6.5 -16t15.5 -6.5h134q9 0 15.5 6.5t6.5 16t-6.5 16t-15.5 6.5h-45v200h490q19 0 32 -13
t13 -31v0q0 -37 26 -63t63 -26h222q10 0 16.5 6.5t6.5 15.5v601zM632 82h-490v556h490q19 0 32 -13t13 -31v-524q-22 12 -45 12zM721 -7v524q21 -12 45 -12h200v-557h-200q-19 0 -32 13t-13 32z" />
    <glyph glyph-name="uniE611" unicode="&#xe611;" horiz-adv-x="1025" 
d="M975 75q-28 -29 -56 -41.5t-46.5 -11.5t-43.5 8q-15 4 -42.5 27.5t-55.5 49.5t-74 51.5t-93 34.5t-100 0q-48 -8 -94 -32t-74 -48t-56 -45.5t-43 -26.5q-20 -5 -25.5 -6.5t-25 -3.5t-31 2t-29.5 14t-35 28q-30 31 -44 118t-2 193t50 178q53 100 119 143t133 29
q36 -7 62.5 -14.5t34 -10t31 -13.5t26.5 -13q3 -1 8 -2.5t18.5 -4.5t24.5 -3q24 0 52 10q15 6 34.5 17t46 19.5t73.5 14.5q151 21 253 -178q37 -71 48.5 -175.5t-2 -190.5t-42.5 -117zM924 525q-48 84 -101.5 124.5t-107.5 34.5q-51 -6 -109 -29t-85 -24h-30q-24 2 -85.5 23
t-108.5 30q-60 11 -113.5 -30t-95.5 -129q-41 -95 -38 -209t38 -163q30 -42 52 -51.5t53 -1.5q13 3 42.5 23t60 42t76.5 43.5t90 28.5q43 8 91 0q44 -7 87 -26.5t67.5 -37.5t53 -41.5t35.5 -28.5q23 -16 40.5 -23t41 -3.5t46.5 23.5q31 27 43.5 105.5t1 169.5t-44.5 150z
M769 331h-104v50h-51v104h51v50h104v-50h50v-104h-50v-50zM306.5 331q-42.5 0 -72.5 30t-30 72t30 72t72.5 30t72.5 -30t30 -72t-30 -72t-72.5 -30zM307 484q-21 0 -36 -15t-15 -36t15 -36t36 -15t36 15t15 36t-15 36t-36 15z" />
    <glyph glyph-name="uniE612" unicode="&#xe612;" 
d="M897 -65h-770q-26 0 -45 19t-19 45v770q0 26 19 45t45 19h770q26 0 45 -19t19 -45v-770q0 -26 -19 -45t-45 -19zM127 794q-10 0 -17.5 -7.5t-7.5 -17.5v-770q0 -10 7.5 -17.5t17.5 -7.5h770q10 0 17.5 7.5t7.5 17.5v770q0 10 -7.5 17.5t-17.5 7.5h-770zM83 585h858v-39
h-858v39zM512 684zM477 684q0 14 10.5 24.5t24.5 10.5t24.5 -10.5t10.5 -24.5t-10.5 -24.5t-24.5 -10.5t-24.5 10.5t-10.5 24.5zM369 684zM334 684q0 14 10 24.5t24.5 10.5t25 -10.5t10.5 -24.5t-10.5 -24.5t-25 -10.5t-24.5 10.5t-10 24.5zM225 684zM191 684q0 14 10 24.5
t24.5 10.5t24.5 -10.5t10 -24.5t-10 -24.5t-24.5 -10.5t-24.5 10.5t-10 24.5zM799 684zM764 684q0 14 10 24.5t24.5 10.5t24.5 -10.5t10 -24.5t-10 -24.5t-24.5 -10.5t-24.5 10.5t-10 24.5zM655 684zM620 684q0 14 10.5 24.5t25 10.5t24.5 -10.5t10 -24.5t-10 -24.5
t-24.5 -10.5t-25 10.5t-10.5 24.5zM83 222h858v-38h-858v38zM512 84zM477 84.5q0 14.5 10.5 24.5t24.5 10t24.5 -10t10.5 -24.5t-10.5 -24.5t-24.5 -10t-24.5 10t-10.5 24.5zM655 84zM620 84.5q0 14.5 10.5 24.5t25 10t24.5 -10t10 -24.5t-10 -24.5t-24.5 -10t-25 10
t-10.5 24.5zM799 84zM764 84.5q0 14.5 10 24.5t24.5 10t24.5 -10t10 -24.5t-10 -24.5t-24.5 -10t-24.5 10t-10 24.5zM225 84zM191 84.5q0 14.5 10 24.5t24.5 10t24.5 -10t10 -24.5t-10 -24.5t-24.5 -10t-24.5 10t-10 24.5zM369 84zM334 84.5q0 14.5 10 24.5t24.5 10t25 -10
t10.5 -24.5t-10.5 -24.5t-25 -10t-24.5 10t-10 24.5zM424 482v-209l176 105z" />
    <glyph glyph-name="uniE613" unicode="&#xe613;" 
d="M909 -24h-224q-1 1 -1 2l-51 120q55 22 100 62l22 -22l-24 -24q-6 -5 -6 -13.5t5.5 -14.5t14 -6t14.5 6l76 77q6 5 6 13.5t-6 14.5t-14 6t-14 -6l-24 -24l-22 21q81 90 88 211h28v-34q0 -9 6 -14.5t14 -5.5t14 5.5t6 14.5v107q0 9 -6 14.5t-14 5.5t-14 -5.5t-6 -14.5v-33
h-29q-7 118 -86 207l21 21l24 -25q6 -5 14 -5t14 5.5t6 14t-6 14.5l-76 76q-6 6 -14.5 6t-14 -6t-5.5 -14t6 -14l24 -24l-21 -21q-90 80 -210 87v29h34q8 0 14 5.5t6 14t-6 14t-14 5.5h-108q-8 0 -14 -5.5t-6 -14t6 -14t14 -5.5h34v-29q-119 -7 -208 -87l-21 21l24 24
q6 6 6 14t-6 14t-14.5 6t-13.5 -6l-77 -76q-6 -6 -6 -14.5t6 -14t14.5 -5.5t13.5 5l25 25l21 -21q-79 -89 -87 -207h-30v33q0 9 -6 14.5t-14 5.5t-14 -5.5t-6 -14.5v-107q0 -9 6 -14.5t14 -5.5t14 5.5t6 14.5v34h30q7 -120 87 -211l-21 -21l-25 24q-5 6 -13.5 6t-14.5 -6
t-6 -14.5t6 -13.5l77 -77q5 -6 13.5 -6t14.5 6t6 14.5t-6 13.5l-24 24l22 22q47 -42 106 -64l-48 -119l-1 -1h-223q-8 0 -14 -6t-6 -14t6 -14t14 -6h798q8 0 14 6t6 14t-6 14t-14 6zM617 135l-83 197q10 3 18 9l153 -153q-39 -34 -88 -53zM455 417.5q0 20.5 14.5 35
t35.5 14.5q19 0 33 -12.5t17 -31.5q-1 -2 -1 -4q0 -3 1 -6q-2 -19 -16 -32.5t-34 -13.5q-21 0 -35.5 15t-14.5 35.5zM484 114q-24 1 -48 7l48 120v-127zM524 252l55 -130q-27 -7 -55 -8v138zM733 216l-152 153q9 14 12 30h216q-7 -104 -76 -183zM808 439h-216q-3 14 -11 26
l153 153q67 -78 74 -179zM706 646l-153 -153q-13 9 -29 12v216q104 -6 182 -75zM484 721v-216q-15 -4 -28 -12l-152 153q78 68 180 75zM276 617l152 -152q-7 -13 -10 -26h-217q7 101 75 178zM201 399h216q3 -16 12 -30l-152 -152q-69 78 -76 182zM305 188l152 153
q10 -6 21 -9l-80 -199q-52 19 -93 55zM421 84q31 -8 63 -10v-30h-34q-8 0 -14 -6t-6 -14.5t6 -14t14 -5.5h108q8 0 14 5.5t6 14t-6 14.5t-14 6h-34v30q36 2 71 11l46 -109h-264z" />
  </font>
</defs>
</svg>
