<?xml version="1.0" standalone="no"?>
<!DOCTYPE svg PUBLIC "-//W3C//DTD SVG 1.1//EN" "http://www.w3.org/Graphics/SVG/1.1/DTD/svg11.dtd" >
<svg xmlns="http://www.w3.org/2000/svg">
<metadata>
Created by FontForge 20120731 at Fri Feb 19 17:55:36 2016
 By Ads
</metadata>
<defs>
<font id="iconfont" horiz-adv-x="1024" >
  <font-face 
    font-family="iconfont"
    font-weight="500"
    font-stretch="normal"
    units-per-em="1024"
    panose-1="2 0 6 3 0 0 0 0 0 0"
    ascent="896"
    descent="-128"
    x-height="792"
    bbox="-0.242424 -213 1293.65 895"
    underline-thickness="50"
    underline-position="-100"
    unicode-range="U+0078-E612"
  />
<missing-glyph horiz-adv-x="374" 
d="M34 0v682h272v-682h-272zM68 34h204v614h-204v-614z" />
    <glyph glyph-name=".notdef" horiz-adv-x="374" 
d="M34 0v682h272v-682h-272zM68 34h204v614h-204v-614z" />
    <glyph glyph-name=".null" horiz-adv-x="0" 
 />
    <glyph glyph-name="nonmarkingreturn" horiz-adv-x="341" 
 />
    <glyph glyph-name="x" unicode="x" horiz-adv-x="1001" 
d="M281 543q-27 -1 -53 -1h-83q-18 0 -36.5 -6t-32.5 -18.5t-23 -32t-9 -45.5v-76h912v41q0 16 -0.5 30t-0.5 18q0 13 -5 29t-17 29.5t-31.5 22.5t-49.5 9h-133v-97h-438v97zM955 310v-52q0 -23 0.5 -52t0.5 -58t-10.5 -47.5t-26 -30t-33 -16t-31.5 -4.5q-14 -1 -29.5 -0.5
t-29.5 0.5h-32l-45 128h-439l-44 -128h-29h-34q-20 0 -45 1q-25 0 -41 9.5t-25.5 23t-13.5 29.5t-4 30v167h911zM163 247q-12 0 -21 -8.5t-9 -21.5t9 -21.5t21 -8.5q13 0 22 8.5t9 21.5t-9 21.5t-22 8.5zM316 123q-8 -26 -14 -48q-5 -19 -10.5 -37t-7.5 -25t-3 -15t1 -14.5
t9.5 -10.5t21.5 -4h37h67h81h80h64h36q23 0 34 12t2 38q-5 13 -9.5 30.5t-9.5 34.5q-5 19 -11 39h-368zM336 498v228q0 11 2.5 23t10 21.5t20.5 15.5t34 6h188q31 0 51.5 -14.5t20.5 -52.5v-227h-327z" />
    <glyph glyph-name="uniE600" unicode="&#xe600;" 
d="M954 317l-185 185q-7 7 -16.5 7t-16.5 -7l-38 -37q-14 -14 -2 -30q1 -2 2 -3l82 -82h-372q-10 0 -16.5 -6.5t-6.5 -16.5v-53q0 -5 2 -9t5 -7t7 -5t9 -2h372l-82 -82q-7 -6 -7 -16t7 -16l38 -38q6 -7 16 -7t16 7l148 148l38 37q6 7 6 16.5t-6 16.5zM635 748h-500
q-29 0 -49.5 -20.5t-20.5 -49.5v-755q0 -19 9.5 -35t25.5 -25.5t35 -9.5h500q29 0 49.5 20.5t20.5 49.5v98q0 10 -7 16.5t-17 6.5h-50q-5 0 -9 -2t-7.5 -5t-5 -7t-1.5 -9v-37q0 -15 -10.5 -25t-24.5 -10h-377q-15 0 -25 10.5t-10 24.5v634q0 9 4.5 17t12.5 13t18 5h377
q9 0 17 -4.5t13 -12.5t5 -18v-38q0 -10 6.5 -16.5t16.5 -6.5h50q4 0 7.5 1t6.5 3t5 5t3.5 6.5t1.5 7.5v98q0 42 -37 61q-16 9 -33 9z" />
    <glyph glyph-name="uniE601" unicode="&#xe601;" 
d="M956 -114h-80l1 23q0 35 -1 52t-4.5 35t-12.5 26t-22.5 15t-36.5 13l-4 1q-36 8 -54 12.5t-47 14.5t-45 19t-32.5 23.5t-24.5 32.5q-21 46 10 105q37 72 55 136t15.5 116t-25.5 90q-42 70 -136 70q-46 0 -81.5 -18.5t-55.5 -52.5q-23 -38 -25 -90.5t16 -116.5t55 -134
q31 -58 10 -105q-4 -10 -11 -19t-14.5 -16t-19 -14t-20.5 -11.5t-24.5 -10t-25.5 -9t-27.5 -8t-27.5 -7.5l-30 -7l-7 -1q-23 -6 -37 -13t-22.5 -15t-12 -26t-4.5 -35t-1 -52v-23h-79v22v33q0 11 1 31t3.5 30.5t7 27t11.5 26t17.5 22t24 20.5t32 15.5t41.5 13.5l7 2
q19 4 30 6.5t30 7.5t30.5 9.5t24.5 10t20.5 11.5t10.5 12q5 11 -8 35q-67 127 -78.5 235t34.5 184q31 52 84.5 80.5t120.5 28.5q44 0 82.5 -13t69.5 -37t52 -58q15 -25 24 -54t11.5 -61.5t-1 -68t-13.5 -73.5t-26 -79t-38 -83q-13 -25 -8 -36q4 -9 18 -17.5t39.5 -16.5
t42.5 -12.5t49 -11.5l4 -1q26 -6 46 -14.5t34 -20t24.5 -22.5t16.5 -28t10 -29t5 -33.5t1.5 -34t0.5 -37.5v-22zM614 -24h153v-79h-153v79z" />
    <glyph glyph-name="uniE602" unicode="&#xe602;" 
d="M274 244l-6 2q-3 0 -8 0.5t-8 0.5q-31 3 -47 6q-24 6 -40 27.5t-6 68.5q2 11 6.5 19t9 12.5t9.5 7.5q10 5 20 6t30 -5q48 -16 104 -43q13 -7 23.5 -25.5t4.5 -32.5q-9 -26 -43 -37q-21 -5 -45 -5q-1 -1 -2 -1.5t-2 -0.5zM211 342q0 -1 -0.5 -2t-0.5 -2q-2 -11 -2.5 -18.5
t1.5 -10.5t3 -4t4 -2q15 -2 40 -5q3 0 9.5 -0.5t8.5 -0.5h9h9q5 0 9.5 1t8.5 2q1 0 2 1q-24 12 -47.5 22t-46.5 17zM737 246h-2h-5q-3 0 -5 0.5t-5 0.5h-3q-4 0 -10.5 0.5t-10.5 1t-9 1.5l-10 2q-10 3 -18.5 9t-13.5 14.5t-6 18.5q-4 31 24 45q58 30 125 51q22 7 40 -5
q21 -15 23 -47v-9q2 -7 0.5 -18.5t-4 -22t-12.5 -20t-26 -13.5q-27 -6 -50 -8h-5q-2 0 -4 -0.5t-4 -0.5h-4h-5zM699 300q6 -2 22 -2h3h4q3 0 5 -0.5t4 -0.5q3 0 8 0.5t8 0.5q28 3 42 7q2 1 4 1q1 2 1 9t-1 11v11v3q-27 -8 -51 -18.5t-49 -21.5zM888 -9h-80q-14 0 -26 5
t-20.5 14t-14 21t-5.5 25v39h-477v-39q0 -10 -3.5 -20t-9.5 -18t-14 -14t-18 -9.5t-20 -3.5h-81q-27 0 -46 19t-19 46v176v4l28 177q-12 2 -23 7.5t-19 14t-12.5 19.5t-4.5 23v12q0 27 19 46t46 19h64q23 57 39 87q20 38 41 63.5t43 38t45 12.5h364q69 0 129 -114
q19 -36 38 -87h64q27 0 46 -19t19 -46v-12q0 -16 -7.5 -30t-20.5 -23t-29 -11l28 -177v-4v-176q1 -39 -33 -57q-14 -8 -30 -8zM239 146h529q11 0 18.5 -7.5t7.5 -18.5v-64q0 -5 4 -9.5t10 -4.5h80q6 0 10 4.5t4 9.5v173l-33 205q-2 12 7 20q8 9 19 9h23q2 0 4 1l4 2q2 1 3 3
l2 4q1 2 1 4v12q0 6 -4 10t-10 4h-82q-18 0 -24 18q-22 66 -58 124t-68 58h-365q-31 0 -67.5 -58t-57.5 -124q-3 -8 -9.5 -13t-14.5 -5h-82q-6 0 -10 -4t-4 -10v-12q0 -5 4 -9.5t10 -4.5h23q10 0 19 -9q6 -6 6 -20l-33 -205v-173q0 -14 14 -14h81q3 0 6.5 2t5.5 5.5t2 6.5
v64q0 11 7.5 18.5t17.5 7.5zM727 485h-447q-14 0 -20 12q-9 10 -3 23q54 143 123 143h250q21 0 40 -12.5t34.5 -35t26.5 -45.5t22 -50q4 -12 -3 -23q-10 -12 -23 -12zM317 536h372q-17 36 -33 56t-28 20h-249q-7 -1 -17 -9.5t-21.5 -25.5t-23.5 -41z" />
    <glyph glyph-name="uniE603" unicode="&#xe603;" 
d="M619 812h-224q-21 0 -35.5 -16t-14.5 -39t14.5 -39t35.5 -16h226q20 0 34 16.5t14 38.5q0 15 -6.5 27.5t-18 20t-25.5 7.5zM748 48h-486q-8 0 -16.5 6t-14 15.5t-5.5 18.5q0 13 10 23t23 10h485q14 0 24 -9.5t11 -23.5q0 -15 -9 -27.5t-22 -12.5zM750 243h-486q-3 0 -6 1
t-6 2.5t-5 3.5t-4 5t-3.5 6t-2.5 6t-1.5 6.5t-0.5 6.5q0 7 2.5 13.5t7 11.5t10.5 8t13 3h485q13 0 23 -10.5t11 -25.5q0 -13 -11.5 -25t-25.5 -12zM750 443h-486q-13 0 -21 11.5t-8 26.5q0 13 10 24t23 11h485q8 0 16 -4.5t12.5 -13t5.5 -17.5q0 -7 -3 -14t-8.5 -12
t-12 -8.5t-13.5 -3.5zM863 725q39 0 57 -19q17 -18 17 -57v-736q0 -45 -16 -59q-5 -6 -14.5 -9.5t-22 -5t-28.5 -1.5h-699q-14 0 -25 2t-19 5.5t-12 8.5q-14 16 -14 59v736q0 15 1 27t4 20.5t7 13.5q5 6 14 10q4 2 10 3t12.5 1.5t14.5 0.5h65q10 -47 44 -78t78 -31h343
q42 0 76 31t44 78h63zM863 775zM863 775h-112q2 -9 2 -18q0 -35 -22 -63t-51 -28h-343q-31 0 -53.5 28t-22.5 63q0 9 2 18h-113q-33 0 -56 -8.5t-35 -26.5t-17 -39.5t-5 -51.5v-736q0 -63 28 -94t92 -31h699q45 0 73.5 12.5t43 40t14.5 72.5v736q0 58 -31.5 92t-92.5 34z
" />
    <glyph glyph-name="uniE604" unicode="&#xe604;" horiz-adv-x="1025" 
d="M513 895q-60 0 -117.5 -13.5t-108 -38.5t-95 -60t-79.5 -79.5t-60 -95t-38.5 -108t-13.5 -117.5q0 -104 40.5 -198.5t109 -163t163 -109t199.5 -40.5q83 0 161 26t141 73t110 110t73 141t26 161q0 105 -40.5 199.5t-109 163t-163 109t-198.5 40.5zM512.5 -77
q-93.5 0 -179 36.5t-147 98t-98 147t-36.5 178.5q0 75 23.5 145.5t66 127t99 99t127 66t145.5 23.5t145 -23.5t126.5 -66t99 -99t66 -127t23.5 -145.5q0 -93 -36.5 -178.5t-98 -147t-147 -98t-179 -36.5zM831 637q0 4 -1 8.5t-4 8t-6.5 6.5t-8 4t-8.5 1h-401q-12 0 -20 -8
t-8 -20v-89h-115q-19 0 -26 -18l-77 -129q-5 -4 -8 -9.5t-3 -12.5v-1v-1q0 -4 0.5 -7.5t2.5 -6.5q-2 -3 -2.5 -6t-0.5 -6v-115q0 -7 3.5 -14t10.5 -10.5t14 -3.5h6h30q-2 -7 -3.5 -14.5t-1.5 -14.5q0 -35 25 -60t60 -25t60 25t25 60q0 7 -1.5 14.5t-4.5 14.5h213
q-1 -3 -1.5 -5t-1.5 -5v-4q-1 -3 -1.5 -5t-0.5 -5v-5q0 -23 11 -42.5t31 -31t43 -11.5q11 0 22 3t20.5 8.5t17 13.5t13 17.5t9 20.5t3.5 22q0 4 -0.5 7.5t-1.5 7.5l-2 6l-2 8h63q9 0 17 6q11 9 11 22v401zM289 140q-15 0 -25.5 10.5t-10.5 25.5t10.5 26t25.5 11t26 -11
t11 -26t-11 -25.5t-26 -10.5zM374 255h-178v97h92q12 0 20 8t8 19.5t-8 19t-20 7.5h-67l52 91h101v-242zM660 143q-15 0 -26 10.5t-11 25.5t11 25.5t26 10.5t25.5 -10.5t10.5 -25.5t-10.5 -25.5t-25.5 -10.5zM781 255h-357v363h357v-363z" />
    <glyph glyph-name="uniE605" unicode="&#xe605;" 
d="M169 384q0 -29 9.5 -50.5t25.5 -35t40 -21.5t49 -10.5t57 -2.5q53 0 91 9q31 65 90 110v1q0 50 -25.5 92t-68.5 66q34 35 34 83q0 50 -35.5 85t-85.5 35t-85 -35t-35 -85q0 -48 33 -83q-42 -24 -68 -66t-26 -92zM350 685q25 0 42.5 -17.5t17.5 -42.5q0 -16 -8 -30
t-22 -22t-30 -8t-30 8t-22 22t-8 30t8 30t22 22t30 8zM350 504q50 0 85.5 -31.5t35.5 -76.5q0 -28 -17.5 -45t-42 -22t-61.5 -5q-57 0 -88.5 15.5t-31.5 56.5q0 45 35 76.5t85 31.5zM669 122l-43 42l-42 -42l85 -85l170 170l-42 43zM711.5 384q-99.5 0 -170 -70.5
t-70.5 -170.5t70.5 -170.5t170 -70.5t170 70.5t70.5 170.5t-70.5 170.5t-170 70.5zM711.5 -38q-74.5 0 -127.5 53t-53 128t53 128t128 53q49 0 90.5 -24.5t65.5 -66t24 -90.5q0 -75 -53 -128t-127.5 -53zM832 866h-602q-75 0 -128 -53t-53 -128v-361q0 -49 24 -91t66 -66
t91 -24h180q0 30 6 60h-186q-50 0 -85.5 35.5t-35.5 85.5v361q0 50 35.5 85.5t85.5 35.5h602q50 0 85 -35.5t35 -85.5v-361v-2q27 -35 42 -77q19 38 19 79v361q0 49 -24.5 91t-66 66t-90.5 24zM895 384v60h-183q98 0 179 -60h4zM594 420q56 24 118 24h-118v-24zM594 685h301
v-60h-301v60zM594 565h301v-61h-301v61z" />
    <glyph glyph-name="uniE606" unicode="&#xe606;" 
d="M931 286l-1 -62h-57q11 0 18.5 1t14 2.5t10.5 4.5t7 7.5t4.5 11.5t2 15t1.5 20zM931 286v29v-29zM838 223l35 1q-2 0 -3.5 -0.5t-3.5 -0.5h-4h-4h-4h-4h-4h-4h-4zM792 454l-95 -1q-13 0 -23.5 6.5t-17 17t-6.5 22.5q0 6 1.5 11t3.5 9.5t5.5 8.5t7.5 7t8.5 5.5t9.5 3.5
t11 1l95 1q19 0 32.5 -13.5t13.5 -32.5t-13.5 -32.5t-32.5 -13.5zM559 546q13 0 23.5 -6.5t16.5 -17t6 -22.5q0 -19 -13.5 -32.5t-32.5 -13.5l-95 -1q-9 0 -18 4t-15 10t-9.5 14.5t-3.5 17.5q0 19 13.5 32.5t32.5 13.5zM94 276q1 -18 3.5 -27t9.5 -15t18.5 -8t32.5 -2h-63z
M94 276v39v-39zM189 223h-11h-10q-6 0 -10 1zM231 545l95 1q13 0 23.5 -6.5t17 -17t6.5 -23t-6.5 -23t-17 -16.5t-23.5 -6l-95 -1q-19 0 -32.5 13.5t-13.5 32.5q0 13 6 23.5t17 16.5t23 6zM932 131h-49h-352l-221 -218q-4 -3 -8.5 -6t-9.5 -4.5t-10 -2t-10 0t-10 2t-9.5 4.5
t-8.5 6q-13 14 -13 33t13 32l231 227q3 4 7 7.5t8.5 5.5t9.5 3.5t11 1.5h1h419v486q-1 30 -6 43t-17 18t-39 6l61 -1l1 -54v55h-70h8h-17h-699q-37 -2 -48 -12t-12 -43v-498h187q19 0 32.5 -13.5t13.5 -32.5q0 -9 -3.5 -17.5t-9.5 -14.5t-15 -10t-18 -4h-138h-49
q-37 0 -64 25.5t-29 62.5v557q0 19 7 35.5t19 28.5t28.5 19.5t34.5 8.5h843q35 0 60.5 -22.5t31.5 -55.5v-577q-3 -23 -15.5 -41.5t-33 -29.5t-43.5 -11zM93 776v-33v32l30 1h-30z" />
    <glyph glyph-name="uniE607" unicode="&#xe607;" 
d="M823 282q0 -10 -4 -16t-11 -14l-500 -454q-5 -5 -13.5 -8t-16.5 -3t-16.5 3t-13.5 8l-8 8q-11 11 -11 30t11 30l462 416l-469 409q-21 21 -8 61l8 7q20 21 60 8l507 -447q15 -15 15 -30z" />
    <glyph glyph-name="uniE608" unicode="&#xe608;" 
d="M512 895q-103 0 -198 -40.5t-163.5 -109t-109 -163.5t-40.5 -198.5t40.5 -198t109 -163t163.5 -109.5t198 -41q83 0 161 26t141 73.5t110.5 110.5t73.5 141t26 161t-26 161t-73.5 141t-110.5 110t-141 73t-161 26zM512 -64q-92 0 -175 35.5t-142.5 95t-94.5 142.5
t-35 175q0 73 22 141.5t63.5 123.5t96.5 96.5t123.5 63.5t142 22t142 -22t123.5 -63.5t96 -96.5t63.5 -123.5t22.5 -141.5q0 -187 -130.5 -317.5t-317.5 -130.5zM577 297h174v73h-174v52q0 36 7 53q2 7 2 13q0 2 -2 3.5t-6 2t-11 0.5h-79v-315h-86v171q0 36 6 53q4 8 4 14
q0 5 -18 5h-78v-243h-100v-75h587v75h-226v118zM563 680q3 4 11 9q8 4 8 11q0 5 -5.5 7.5t-99.5 26.5q-71 -185 -295 -264q27 -22 64 -69q185 92 270 214q89 -131 263 -212q35 55 63 87q-92 22 -165 72q-37 25 -65.5 54.5t-48.5 63.5z" />
    <glyph glyph-name="uniE609" unicode="&#xe609;" 
d="M675 329h-127v127q0 15 -10.5 25.5t-25.5 10.5t-26 -10.5t-11 -25.5v-127h-127q-10 0 -18 -5t-13 -13.5t-5 -18.5q0 -15 10.5 -25.5t25.5 -10.5h127v-127q0 -10 5 -18.5t13.5 -13.5t18.5 -5t18 5t13 13.5t5 18.5v127h127q10 0 18.5 5t13 13t4.5 18q0 15 -10.5 26
t-25.5 11zM511 747q-92 0 -176 -36t-145 -97t-97 -145t-36 -176.5t36 -176.5t97 -144.5t145 -96.5t176.5 -36t176.5 36t144.5 96.5t96.5 144.5t36 177q0 171 -114 300q-110 125 -273 149q-34 4 -67 5zM511 -105q-80 0 -153.5 31.5t-127 85t-85 127t-31.5 154t31.5 154
t85 127t127 85t154 31.5t154 -31.5t127 -85t85 -127t31.5 -153.5q0 -155 -106 -270q-103 -111 -253 -126q-20 -2 -39 -2zM511 -105z" />
    <glyph glyph-name="uniE60A" unicode="&#xe60a;" 
d="M512 747q-73 0 -141.5 -22.5t-123.5 -63.5t-96 -96t-63.5 -123.5t-22.5 -141.5q0 -91 35 -174t95 -143t143 -95t174 -35t174 35t143 95t95 143t35 174t-35 174t-95 143t-143 95t-174 35zM798 421l-299 -305q-28 -28 -68 -29h-1q-39 0 -67 28l-137 134q-9 9 -9.5 22
t9 22.5t22.5 10t23 -9.5l137 -134q4 -4 10 -6.5t12 -2.5q3 0 5.5 0.5t5 1.5t4.5 2t4 2.5t4 3.5l300 305q9 9 22 9t22.5 -9t10 -22.5t-9.5 -22.5z" />
    <glyph glyph-name="uniE60B" unicode="&#xe60b;" 
d="M890 434q0 -157 -264 -504q-64 -84 -114 -142q-15 18 -40.5 48.5t-91 117t-115.5 164t-90.5 167.5t-40.5 149q0 102 50.5 189.5t137.5 138t190 50.5q62 0 119.5 -19t104 -54t81.5 -81.5t54 -104.5t19 -119zM660 443q0 62 -43.5 105t-104.5 43t-104.5 -43t-43.5 -104.5
t43.5 -104.5t104.5 -43t104.5 43t43.5 104z" />
    <glyph glyph-name="uniE60C" unicode="&#xe60c;" 
d="M512 812q-139 0 -257 -68.5t-186.5 -186.5t-68.5 -257t68.5 -257t186.5 -186.5t257 -68.5t257 68.5t186.5 186.5t68.5 257t-68.5 257t-186.5 186.5t-257 68.5zM512 -167q-176 0 -308 115q-127 112 -154 278q-5 37 -5 74q0 76 23.5 147.5t66.5 129t100.5 100.5t129 66.5
t147.5 23.5t147.5 -23.5t129 -66.5t100.5 -100.5t66.5 -129t23.5 -147.5q0 -95 -37 -181.5t-99.5 -149t-149 -99.5t-181.5 -37zM616 253q-12 0 -32 -10.5t-31 -10.5q-16 0 -64.5 48.5t-48.5 65.5q0 11 10.5 28t10.5 29q0 15 -35.5 67t-52.5 52q-22 0 -55 -29.5t-33 -58.5
q0 -45 37.5 -107.5t92 -117.5t120.5 -94t117 -39q30 0 59 27.5t29 60.5q0 13 -53.5 51t-70.5 38z" />
    <glyph glyph-name="uniE60D" unicode="&#xe60d;" horiz-adv-x="1294" 
d="M648 694q-55 0 -107 -14t-96 -38.5t-81.5 -59.5t-63 -77t-40 -91.5t-14.5 -101.5q0 -76 29.5 -144t83.5 -121q51 -43 105 -70q35 -17 68 -30q57 -16 116 -16q109 0 202 51t146.5 139t53.5 191.5t-53.5 191.5t-146.5 139t-202 51zM429 235q36 -29 74.5 -47.5t72.5 -25.5
t67.5 -7.5t62 6t54 15t45 19.5t33.5 19.5t22 14.5l7 6v-6q0 -4 -2 -17t-5.5 -25.5t-11.5 -29.5t-18.5 -31.5t-27.5 -29.5t-38 -25.5t-51 -17t-65 -6.5q-45 0 -81 10.5t-58.5 27t-39 36.5t-24 40t-11.5 37t-4 27zM648 812q-184 0 -326.5 -107t-185.5 -273q-6 -1 -15.5 -3
t-33.5 -13t-42 -26.5t-32.5 -45.5t-12.5 -68q5 -101 109 -134q26 -9 47 -10q2 -1 4.5 -1t9 1t11.5 2t11 2.5t9 1.5q-36 84 -36 174q0 63 17 122t48.5 109.5t76 92.5t97.5 71.5t115.5 46t128.5 16.5q98 0 187.5 -36t154.5 -97.5t103 -146.5t38 -178q0 -99 -42 -187.5
t-116.5 -152t-170.5 -94.5q-6 -2 -11.5 -1.5t-9.5 1.5l-4 1q-32 6 -73 -5q-10 -2 -16.5 -9t-9 -16t-1.5 -18q1 -17 8.5 -27t24.5 -13q72 -10 88 21l3 6q2 4 3.5 6.5t3.5 6t4.5 5.5t5.5 3q111 36 195.5 113t126.5 180q6 1 16 3t36 11.5t46 24t37 43t18.5 65t-12 66t-33 45
t-39.5 26t-35 13.5l-14 3q-43 165 -185.5 272.5t-326.5 107.5z" />
    <glyph glyph-name="uniE60E" unicode="&#xe60e;" 
d="M511 302zM231 302q0 76 37.5 140.5t102 102t140.5 37.5q116 0 198 -82t82 -198q0 -76 -37.5 -140.5t-102 -102t-140.5 -37.5q-116 0 -198 82t-82 198z" />
    <glyph glyph-name="uniE60F" unicode="&#xe60f;" 
d="M515 585q17 0 32 6t25.5 17t17 26t6.5 31q0 34 -23.5 57.5t-57 23.5t-57 -23.5t-23.5 -57t23.5 -57t56.5 -23.5zM515 383q-33 0 -56.5 -23.5t-23.5 -57t23.5 -57.5t56.5 -24q22 0 40.5 11t29.5 29.5t11 40.5q0 9 -2 18.5t-6 17.5t-9.5 15t-12.5 12.5t-15 9.5t-17 6t-19 2
zM515 19q-16 0 -31 -6t-26 -17t-17 -26t-6 -31q0 -34 23.5 -57.5t56.5 -23.5q17 0 32 6.5t25.5 17t17 25.5t6.5 32q0 46 -40 69q-19 11 -41 11z" />
    <glyph glyph-name="uniE610" unicode="&#xe610;" 
d="M512 90l-256 321h513z" />
    <glyph glyph-name="uniE611" unicode="&#xe611;" 
d="M951 -109l-211 211q46 52 71 116.5t25 136.5q0 44 -10 87t-29 81t-45.5 71t-60.5 59.5t-72 45t-81.5 28.5t-88.5 10q-106 0 -195 -51t-141 -139t-52 -192t52 -192t141 -139.5t195 -51.5q139 0 246 87l211 -213q3 -5 17 -4.5t22.5 9.5t9.5 23t-4 17zM126 355
q0 86 43 159.5t117.5 116.5t162 43t162 -43t118 -116.5t43.5 -160t-43.5 -160t-118 -116t-161.5 -42.5q-38 0 -74.5 8.5t-68 24t-59.5 37.5t-50.5 49.5t-38 59t-24 67.5t-8.5 73z" />
    <glyph glyph-name="uniE612" unicode="&#xe612;" 
d="M702 681h-380q-31 0 -60 -10t-52.5 -27.5t-41 -41t-27.5 -52.5t-10 -60v-380q0 -79 56 -135t135 -56h380q79 0 135 56t56 135v380q0 79 -56 135t-135 56zM777 111l-76 -76l-189 189l-189 -189l-76 76l189 189l-189 189l76 76l189 -189l189 189l76 -76l-189 -189z" />
  </font>
</defs>
</svg>
