<?xml version="1.0" standalone="no"?>
<!DOCTYPE svg PUBLIC "-//W3C//DTD SVG 1.1//EN" "http://www.w3.org/Graphics/SVG/1.1/DTD/svg11.dtd" >
<svg xmlns="http://www.w3.org/2000/svg">
<metadata>
Created by FontForge 20120731 at Fri Mar  4 14:13:52 2016
 By Ads
</metadata>
<defs>
<font id="iconfont" horiz-adv-x="1024" >
  <font-face 
    font-family="iconfont"
    font-weight="500"
    font-stretch="normal"
    units-per-em="1024"
    panose-1="2 0 6 3 0 0 0 0 0 0"
    ascent="896"
    descent="-128"
    x-height="792"
    bbox="0 -224 1034.45 896"
    underline-thickness="50"
    underline-position="-100"
    unicode-range="U+0078-E632"
  />
<missing-glyph horiz-adv-x="374" 
d="M34 0v682h272v-682h-272zM68 34h204v614h-204v-614z" />
    <glyph glyph-name=".notdef" horiz-adv-x="374" 
d="M34 0v682h272v-682h-272zM68 34h204v614h-204v-614z" />
    <glyph glyph-name=".null" horiz-adv-x="0" 
 />
    <glyph glyph-name="nonmarkingreturn" horiz-adv-x="341" 
 />
    <glyph glyph-name="x" unicode="x" horiz-adv-x="1001" 
d="M281 543q-27 -1 -53 -1h-83q-18 0 -36.5 -6t-32.5 -18.5t-23 -32t-9 -45.5v-76h912v41q0 16 -0.5 30t-0.5 18q0 13 -5 29t-17 29.5t-31.5 22.5t-49.5 9h-133v-97h-438v97zM955 310v-52q0 -23 0.5 -52t0.5 -58t-10.5 -47.5t-26 -30t-33 -16t-31.5 -4.5q-14 -1 -29.5 -0.5
t-29.5 0.5h-32l-45 128h-439l-44 -128h-29h-34q-20 0 -45 1q-25 0 -41 9.5t-25.5 23t-13.5 29.5t-4 30v167h911zM163 247q-12 0 -21 -8.5t-9 -21.5t9 -21.5t21 -8.5q13 0 22 8.5t9 21.5t-9 21.5t-22 8.5zM316 123q-8 -26 -14 -48q-5 -19 -10.5 -37t-7.5 -25t-3 -15t1 -14.5
t9.5 -10.5t21.5 -4h37h67h81h80h64h36q23 0 34 12t2 38q-5 13 -9.5 30.5t-9.5 34.5q-5 19 -11 39h-368zM336 498v228q0 11 2.5 23t10 21.5t20.5 15.5t34 6h188q31 0 51.5 -14.5t20.5 -52.5v-227h-327z" />
    <glyph glyph-name="uniE600" unicode="&#xe600;" 
d="M591 383l-78 161l-80 -160l-177 -26l128 -125l-31 -176l159 83l158 -84l-30 177l128 124zM512 812q-139 0 -257 -68.5t-186.5 -186.5t-68.5 -257t68.5 -257t186.5 -186.5t257 -68.5t257 68.5t186.5 186.5t68.5 257t-68.5 257t-186.5 186.5t-257 68.5zM512 -132
q-117 0 -216.5 58t-157.5 157.5t-58 216.5t58 216.5t157.5 157.5t216.5 58q88 0 168 -34t138 -92t92 -138t34 -168q0 -117 -58 -216.5t-157.5 -157.5t-216.5 -58z" />
    <glyph glyph-name="uniE601" unicode="&#xe601;" 
d="M352 287.5q0 -66.5 47 -113t113.5 -46.5t113 46.5t46.5 113t-46.5 113.5t-113 47t-113.5 -47t-47 -113.5z" />
    <glyph glyph-name="uniE602" unicode="&#xe602;" 
d="M176 380l298 -299h1q15 -15 36 -15q4 0 8 0.5t7.5 1.5t7 3t6.5 4t6 5l5 5l287 287q22 15 22 42q0 22 -15 37t-36 15h-161v195q0 36 -25 61.5t-62 25.5h-100q-36 0 -61.5 -25.5t-25.5 -61.5v-195h-160q-21 0 -36 -15t-15 -37q0 -9 3.5 -18t9.5 -16zM959 199q0 14 -7 26.5
t-19 19.5t-26.5 7t-27 -7t-19.5 -19.5t-7 -26.5v-211h-682v211q0 22 -16 37.5t-38 15.5q-14 0 -26.5 -7t-19.5 -19.5t-7 -26.5v-223v-70v-41q0 -4 1.5 -6.5t4.5 -4t6 -1.5h871q5 0 8.5 3.5t3.5 8.5v41v293z" />
    <glyph glyph-name="uniE603" unicode="&#xe603;" 
d="M455.5 7q-95.5 0 -177 47.5t-129 129t-47.5 177t47.5 177t129 129t176.5 47.5q72 0 137.5 -28t113 -75.5t75.5 -113t28 -137.5q0 -95 -47.5 -176.5t-129 -129t-177 -47.5zM455 627q-110 0 -188 -78t-78 -188.5t78 -188.5t188.5 -78t188.5 78t78 188q0 73 -35.5 134
t-97 97t-134.5 36zM868 -106q-10 0 -20 4t-18 12l-184 184q-16 16 -16 38t15.5 38t38 16t38.5 -16l184 -185q16 -15 16 -37.5t-16 -37.5q-5 -5 -11 -9t-13 -5.5t-14 -1.5z" />
    <glyph glyph-name="uniE604" unicode="&#xe604;" 
d="M796 239v383q0 12 -4.5 22.5t-12 18.5t-18.5 12.5t-22 4.5h-575q-16 0 -29 -8t-20.5 -21t-7.5 -29v-383q0 -24 16.5 -41t40.5 -17h81v-135l124 135h370q23 0 40 17t17 41zM348 226l-57 -70v70h-101q-11 0 -19 8t-8 19v348q0 7 3.5 13.5t10 10t13.5 3.5h523q8 0 14 -3.5
t10 -10t4 -13.5v-348q0 -11 -8 -19t-20 -8h-349h-16zM875 440h-44v-44h31q12 0 12 -6l1 -7v-268q0 -9 -2 -11t-11 -2h-83v-73l-75 73h-231q-9 0 -11 2t-2 11v30h-42v-42q0 -29 26 -40q8 -3 16 -3h234l119 -111v111h62q12 0 21.5 6t15 15.5t5.5 21.5v294q0 18 -12 30.5
t-30 12.5zM875 440z" />
    <glyph glyph-name="uniE605" unicode="&#xe605;" 
d="M-53 853zM907 648v-524h-190q-20 0 -38 -8t-32 -22l-135 -135l-136 135q-6 8 -14.5 13.5t-17.5 8.5t-18.5 5.5t-19.5 2.5h-190v524h791zM929 747h-835q-32 0 -54.5 -22t-22.5 -54v-571q0 -32 22.5 -54t54.5 -22h212l192 -193q5 -5 14 -5q2 0 4 1l9 4l192 193h212
q32 0 54.5 22t22.5 54v571q0 32 -22.5 54t-54.5 22zM216 387q0 27 19.5 46t45.5 19q11 0 21 -3t18.5 -9t14.5 -14.5t9.5 -18.5t3.5 -21q0 -41 -38 -58q-13 -7 -29 -7q-26 0 -45.5 19.5t-19.5 46.5zM446 386q0 19 8.5 34t23.5 23.5t33.5 8.5t33 -8.5t23.5 -23.5t9 -34
q0 -26 -19 -45.5t-46.5 -19.5t-46.5 19.5t-19 45.5zM678 387q0 27 19 46t46 19q18 0 33 -8.5t24 -23.5t9 -34q0 -26 -19.5 -45.5t-46.5 -19.5t-46.5 19.5t-19.5 46.5h1z" />
    <glyph glyph-name="uniE606" unicode="&#xe606;" 
d="M320 300l61 -64l262 -275l61 63l-263 276l263 276l-61 63l-262 -275z" />
    <glyph glyph-name="uniE607" unicode="&#xe607;" 
d="M511 746q-73 0 -140.5 -22.5t-122.5 -63.5t-96 -96t-63.5 -122.5t-22.5 -140.5t22.5 -140.5t63.5 -122.5t96 -96t122.5 -63.5t140.5 -22.5q91 0 173 35t142 95t95 142t35 173q0 52 -11.5 102t-33.5 94t-52.5 82.5t-69 69t-82.5 52.5t-94 33.5t-102 11.5zM406 73l-35 36
l-194 194l35 36l194 -194l376 375l36 -35z" />
    <glyph glyph-name="uniE608" unicode="&#xe608;" 
d="M799 -201h-574q-59 0 -101 42t-42 101v454h96v71q0 91 44.5 168t121.5 121.5t168 44.5t168 -44.5t121.5 -121.5t44.5 -168v-71h96v-454q0 -59 -42 -101t-101 -42zM178 13q0 -49 35 -84t84 -35h430q49 0 84 35t35 84v287h-668v-287zM751 447q0 110 -65.5 184.5
t-170.5 74.5q-100 0 -171 -71t-71 -171v-68h478v51zM524 -10h-24q-10 0 -18 4.5t-13 13t-5 17.5v144q0 9 5 17.5t13 13t18 4.5h24q7 0 13.5 -2.5t11.5 -7.5t8 -11.5t3 -13.5v-144q0 -24 -23 -33q-7 -2 -13 -2z" />
    <glyph glyph-name="uniE609" unicode="&#xe609;" horiz-adv-x="1027" 
d="M770 168l60 -353l-317 166l-317 -166l61 353l-257 250l355 51l158 322l159 -322l354 -51z" />
    <glyph glyph-name="uniE60A" unicode="&#xe60a;" 
d="M398 316q-1 8 6 11q9 5 20.5 10.5t18 9t20.5 10.5q101 52 131 67q18 9 27 -1q1 -1 3 -2l3 -1q49 -29 102 -2q28 14 42.5 37.5t16.5 54.5q-1 17 -1 18q-2 14 -8 27.5t-15 24.5t-20 19.5t-24 14t-27 6.5q-29 4 -58.5 -9.5t-45.5 -38.5q-9 -15 -13.5 -31t-4.5 -33
q-1 -5 -4 -8l-40 -20q-2 -2 -10 -6l-11 -6l-10 -4q-7 -4 -11.5 -6t-10 -5t-10.5 -5q-7 -4 -30 -15.5t-38.5 -19.5t-30.5 -15q-5 -3 -11 1q-10 8 -21 13t-22 7.5t-22.5 2.5t-22.5 -2.5t-21.5 -8t-20.5 -12.5q-26 -20 -36 -47t-4 -60q3 -20 13.5 -36t26.5 -29q27 -21 60.5 -22
t62.5 18q7 4 13 1q7 -4 16.5 -8.5t18.5 -9t16 -8.5q5 -2 59 -30t82 -42q5 -2 8 -4.5t6 -5.5t4.5 -7.5t2.5 -10.5q2 -49 51 -81q16 -11 45 -14q59 -7 96 40q38 50 13 110q-13 33 -46 50.5t-67 12.5q-33 -5 -53 -22q-6 -6 -11 -3q-9 5 -25 13t-22 10q-24 13 -72 37.5t-73 36.5
q-9 5 -10.5 8t-0.5 13v7z" />
    <glyph glyph-name="uniE60B" unicode="&#xe60b;" 
d="M823 503q-36 63 -93 106.5t-127 62.5q-95 25 -188.5 0t-162.5 -93.5t-94 -163.5q-14 -48 -12.5 -96.5t13 -93.5t36 -85.5t56.5 -73.5t74 -58t90 -38q15 -4 31 -7t31.5 -4t31.5 -1q101 0 188 53q7 4 8.5 11t-2 13.5t-11 8.5t-14.5 -2q-119 -73 -254 -37q-85 23 -146.5 85
t-84.5 146t0 169.5t85 147t146 84.5t169 0q64 -17 115 -56.5t84 -95.5q68 -118 33 -248q-12 -45 -37 -85q-3 -6 -1.5 -13.5t8 -11.5t14 -2t11.5 8q27 45 40 94q38 146 -37 276zM540 388q-7 8 -17 5l-73 -18q-7 -2 -11 -8.5t-2 -13.5q1 -5 4.5 -8.5t8 -4.5t9.5 0l43 11
l-47 -189q-1 -2 -1 -4.5t1 -5t2 -4.5t3 -4q5 -4 12 -4h6l55 19q7 2 10.5 8.5t1 14t-9.5 10.5t-14 1l-23 -8l47 186v5q0 2 -0.5 4.5t-2 4.5t-2.5 3zM560 462l5 18q2 8 -2 14t-11 8t-13.5 -2t-8.5 -11l-5 -18q-2 -8 2 -14.5t11 -7.5q3 -1 5 -1q14 0 17 14z" />
    <glyph glyph-name="uniE60C" unicode="&#xe60c;" 
d="M710 291h-128v140q0 9 -6.5 16t-16.5 7h-93q-10 0 -16.5 -7t-6.5 -16v-140l-129 -1q-7 0 -9 -6h-1v-2v-2v-1v-1q0 -2 1 -3l1 -1v-1q0 -1 1 -1l192 -215l1 -1v0l1 -1h1q0 -1 1 -1h1h1v-1q6 -1 10 2l1 2h1l200 215l1 2h1v1q1 1 1 3v1v1q1 5 -2.5 8t-7.5 3zM466 477h93
q6 0 11.5 3.5t8.5 8.5t3 12v23q0 4 -1 7.5t-3 6t-5 5t-6.5 3.5t-7.5 1h-93q-10 0 -16.5 -6.5t-6.5 -16.5v-23q0 -10 6.5 -17t16.5 -7zM512 812q-188 0 -331 -122q-137 -116 -171 -291q-10 -49 -10 -99q0 -60 13.5 -117.5t39 -107.5t60.5 -94.5t79.5 -79.5t94.5 -60.5
t107.5 -39t117.5 -13.5q104 0 199 40.5t163.5 109t109 163.5t40.5 199q0 83 -26 161t-73.5 141t-110.5 110.5t-141 73.5t-161 26zM512 -148q-91 0 -174 35.5t-143 95.5t-95.5 143t-35.5 174t35.5 174t95.5 143t143 95.5t174 35.5t174 -35.5t143 -95.5t95.5 -143t35.5 -174
q0 -41 -7 -80.5t-21 -75.5t-33.5 -69.5t-44 -62.5t-54 -54t-63 -44.5t-69.5 -33t-75.5 -21t-80.5 -7.5z" />
    <glyph glyph-name="uniE60D" unicode="&#xe60d;" 
d="M339 -197l-131 196q-80 9 -134 68.5t-54 140.5v394q0 87 62 148.5t148 61.5h564q86 0 148 -61.5t62 -148.5v-394q0 -57 -28.5 -105.5t-77 -76.5t-104.5 -28h-285zM230 730q-53 0 -90.5 -37.5t-37.5 -90.5v-394q0 -53 37.5 -90.5t90.5 -37.5h22l95 -143l124 143h323
q34 0 63.5 17t47 46.5t17.5 64.5v394q0 26 -10.5 49.5t-27.5 41t-40.5 27.5t-49.5 10h-564z" />
    <glyph glyph-name="uniE60E" unicode="&#xe60e;" 
d="M1010 503q-7 7 -16 9.5t-18.5 0t-16.5 -9.5l-259 -260l-141 141q-7 7 -16 9.5t-18 0t-16 -9.5q-4 -4 -6.5 -9t-3.5 -10.5t0 -11t3.5 -10.5t6.5 -9l165 -166h1q10 -10 25 -10t25 10l285 285q10 10 10 25t-10 25zM395 418h-213q-15 0 -25.5 -10t-10.5 -25t10.5 -25.5
t25.5 -10.5h213q15 0 25 10.5t10 25.5q0 10 -4.5 18t-12.5 12.5t-18 4.5zM395 253h-213q-10 0 -18 -5t-13 -13t-5 -18t5 -18t13 -12.5t18 -4.5h213q10 0 18 4.5t12.5 12.5t4.5 18t-4.5 18t-12.5 13t-18 5zM703 98q-7 0 -13.5 -2.5t-11.5 -7.5t-8 -11.5t-3 -13.5v-47
q0 -37 -17 -44q-11 -4 -30 -4h-498q-20 0 -29.5 4t-13.5 13.5t-4 30.5v568q0 30 9 39t38 9h498q29 0 38 -9t9 -39v-118v0q0 -10 5 -18t13 -13t18 -5t18 5t12.5 13t4.5 18v0v166q0 29 -20.5 50t-50.5 21h-592q-29 0 -50 -21t-21 -50v-664q0 -29 21 -50t50 -21h592
q30 0 50.5 21t20.5 50v95q0 15 -10 25t-25 10z" />
    <glyph glyph-name="uniE60F" unicode="&#xe60f;" 
d="M0 364h1024v-128h-1024v128z" />
    <glyph glyph-name="uniE610" unicode="&#xe610;" horiz-adv-x="1135" 
d="M1030 397q-6 18 -21 30t-34 15l-250 37l-109 226q-9 18 -26 28.5t-37 10.5t-37 -10.5t-26 -28.5l-108 -226l-250 -37q-10 -1 -19 -5t-16 -10t-12.5 -13.5t-8.5 -16.5q-2 -7 -3 -14.5t0 -15t3.5 -14.5t6.5 -13t9 -12l184 -183l-43 -253q-3 -19 4.5 -37t24.5 -29
q18 -13 40 -13q17 0 33 9l218 117l218 -117q8 -5 16.5 -7t17.5 -2q22 0 40 13q16 11 24 29t4 37l-42 253l183 183q30 30 16 69zM781 193q-24 -25 -19 -58l43 -254l-218 117q-16 9 -34 9q-8 0 -17 -2.5t-16 -6.5l-218 -117l42 254q6 33 -19 58l-183 182l250 38q17 2 31 12.5
t22 25.5l108 225l109 -225q16 -33 52 -38l250 -38z" />
    <glyph glyph-name="uniE611" unicode="&#xe611;" 
d="M512 748q-122 0 -225 -60t-163 -163t-60 -225t60 -225t163 -163t225 -60t225 60t163 163t60 225t-60 225t-163 163t-225 60zM512 -84q-159 0 -271.5 112.5t-112.5 271.5t112.5 271.5t271.5 112.5t271.5 -112.5t112.5 -271.5t-112.5 -271.5t-271.5 -112.5zM479 556
q-13 0 -22.5 -9.5t-9.5 -22.5v-223q0 -13 5.5 -24.5t14 -20t20 -14t24.5 -5.5h162q9 0 16.5 4.5t11.5 12t4 15.5q0 14 -9 23t-23 9h-162v223q0 13 -9 22.5t-23 9.5z" />
    <glyph glyph-name="uniE612" unicode="&#xe612;" 
d="M150 353l148 157h-87l3 7q39 105 128 170.5t198 65.5q96 0 176.5 -50t127.5 -136t47 -187t-47 -187t-127.5 -136t-176.5 -50q-70 0 -133.5 28t-111 77.5t-75.5 114.5q0 1 -1 3v1l-95 -100q1 0 1 -1l1 -2l1 -1q63 -116 173.5 -185.5t242.5 -69.5q97 0 186 40.5t153.5 109
t102.5 163t38 198t-38 198t-102.5 163t-153.5 109t-186 40.5q-165 0 -293.5 -106t-170.5 -271q0 -1 -0.5 -3t-0.5 -3h-76z" />
    <glyph glyph-name="uniE613" unicode="&#xe613;" 
d="M863 559l-351 -351l-351 352z" />
    <glyph glyph-name="uniE614" unicode="&#xe614;" 
d="M635 387l-398 -391q-17 -17 -17 -41.5t17 -41.5l17 -17q17 -17 42 -17t43 17l439 433l17 17q12 11 16 26t0 30.5t-16 26.5l-17 17l-439 433q-18 17 -42.5 17t-42.5 -17l-17 -17q-11 -11 -15.5 -26.5t0 -30.5t15.5 -26z" />
    <glyph glyph-name="uniE615" unicode="&#xe615;" 
d="M530 826q-47 -1 -84 -13.5t-61.5 -34.5t-37.5 -52q-33 -75 -1 -204q-9 -10 -13 -22t-2 -28q4 -36 20 -56q2 -3 5 -5t7.5 -3.5t6.5 -2.5q1 -8 3 -16t4 -15.5t5 -15t6 -14.5q8 -15 17 -27q1 -1 2 -2.5t2.5 -2t2.5 -2t2 -2.5v-12v-12v-12q0 -5 -0.5 -11.5t-0.5 -12.5t-1 -12
q-9 -23 -47 -42q-15 -8 -50 -22t-44 -18q-65 -28 -98 -61q-46 -46 -50 -117l-1 -22h21h779h21l-1 22q-2 36 -15.5 65.5t-34.5 51.5q-33 34 -97 61q-9 4 -20 8.5t-20.5 8.5t-19 7.5t-18 7.5t-16.5 8q-12 6 -21.5 12.5t-16 13.5t-9.5 15q-2 26 -2 73q1 2 4.5 4.5t4.5 4.5
q8 11 16 27q7 13 11.5 29t7.5 32q1 1 5.5 2.5t7.5 3.5t5 5q8 10 13 23.5t7 32.5q2 15 -2 26.5t-12 21.5q23 77 19 139q-4 51 -28 83q-25 36 -75 46q-30 38 -105 38h-1zM531 785v0q30 0 50 -7.5t26 -17.5l5 -9l9 -1q38 -5 57 -31q5 -8 9.5 -18t7 -21.5t3.5 -23.5
q4 -61 -20 -133l-5 -16l14 -8l1 -1l1.5 -2t2.5 -4.5t1.5 -6.5t-0.5 -9q-3 -25 -11 -35q-3 -4 -6 -5l-17 -1l-2 -16q-1 -9 -3.5 -19t-6 -19.5t-7.5 -18.5q-6 -13 -12 -21q-2 -3 -5 -6l-1 -1l-11 -6v-12v-12v-12v-12v-12q0 -6 0.5 -12.5t0.5 -13.5t1 -14v-3l1 -2
q15 -39 69 -66q10 -5 23 -10.5t24 -9.5t25 -9.5t24 -10.5q6 -3 12 -5.5t11 -5.5l12 -6l10 -6q6 -3 11 -6.5t9.5 -7t9 -7.5t8.5 -8q25 -26 34 -70h-727q4 22 12.5 39.5t21.5 30.5q28 28 84 52q10 4 44.5 17.5t51.5 22.5q54 27 69 66v2l1 3q2 21 2 88v12l-11 6v1q-4 3 -6 6
q-7 9 -13 21q-14 29 -17 57l-2 16l-18 1l-5 5q-1 1 -2 3l-2 2q-1 2 -1.5 4.5t-1.5 5t-1.5 5.5t-1.5 7t-1 8q-1 5 -0.5 9t1.5 6.5t2.5 4.5t2.5 2v1l13 8l-4 15q-31 121 -2 187q15 36 49.5 55.5t96.5 20.5z" />
    <glyph glyph-name="uniE616" unicode="&#xe616;" 
d="M508 192q-79 0 -135 55.5t-56 135.5q0 52 25.5 96t70 69.5t96 25.5t95.5 -25.5t69.5 -69.5t25.5 -96t-25.5 -96t-69.5 -69.5t-96 -25.5v0zM508 478q-39 0 -67 -28t-28 -67.5t28 -67.5t67.5 -28t67.5 28t28 67.5t-28 67.5t-68 28v0z" />
    <glyph glyph-name="uniE617" unicode="&#xe617;" 
d="M698 776h-372q-11 0 -20.5 -5.5t-15 -15t-5.5 -20.5v-702q0 -4 0.5 -7.5t2 -7t3 -6.5t3.5 -6l6 -4q2 -3 5.5 -4.5t6.5 -3t7 -2t7 -0.5h372q11 0 20.5 5.5t15 15t5.5 20.5v702q0 17 -12 29t-29 12zM698 33h-372v165h372v-165zM698 240h-372v495h372v-495zM512 74
q11 0 20.5 6t15 15.5t5.5 20.5q0 8 -3 15.5t-8.5 13.5t-13.5 9t-16 3q-17 0 -29 -12t-12 -29t12 -29.5t29 -12.5zM462 652h100q3 0 6 2t4.5 4.5t1.5 6.5v16q0 5 -3.5 9t-8.5 4h-100q-5 0 -8.5 -4t-3.5 -9v-16q0 -5 3.5 -9t8.5 -4z" />
    <glyph glyph-name="uniE618" unicode="&#xe618;" 
d="M652 301h-93v102q0 7 -5 12t-12 5h-68q-7 0 -12 -5t-5 -12v-102l-93 -1q-6 0 -8 -4v-1v-1v-2v-1q0 -1 1 -2v-1l1 -1l140 -157l1 -1h1v-1l2 -1h1h3q2 0 4 1v1l1 1v0l147 157l1 1v1l1 2v1v0v1q0 2 -1 4t-3 3t-4 1zM474 437h68q5 0 9 2t6 6t2 9v17q0 7 -5 12t-12 5h-68
q-2 0 -4 -0.5t-4 -1.5l-2 -2q-2 -1 -3 -2.5t-2 -3.5t-1.5 -3.5t-0.5 -3.5v-17q4 -15 17 -17zM508.5 674q-101.5 0 -187.5 -50t-136 -136t-50 -187.5t50 -187.5t136 -136t187 -50q76 0 145.5 29.5t119.5 79.5t79.5 119.5t29.5 145.5q0 101 -50 187t-136 136t-187.5 50z
M508 -5q-126 0 -215.5 89.5t-89.5 216t89.5 216t215.5 89.5q50 0 96.5 -15t84 -43.5t66 -66t44 -84t15.5 -96.5q0 -128 -91 -217q-90 -88 -215 -89z" />
    <glyph glyph-name="uniE619" unicode="&#xe619;" 
d="M898 382l-82 79l-1 -1l-269 258q-4 4 -9.5 7.5t-12 5t-12.5 1.5v0h-304q-13 0 -24 -6.5t-17.5 -17.5t-6.5 -24h352l385 -370l4 4q11 13 11 30q0 10 -4 18.5t-10 15.5zM880 237v4v1q-1 2 -1 4q-3 14 -13 24l-368 352q-7 7 -15.5 10.5t-18.5 3.5v0h-304q-20 0 -34 -14
t-14 -34v-305q0 -21 16 -35l400 -368q5 -4 11 -7t12 -4h1q1 0 2 -1h1h5q22 0 37 17l272 320q11 13 11 31v1zM240 444q-26 0 -45 19t-19 45t19 45t45 19t45 -19t19 -45t-19 -45t-45 -19z" />
    <glyph glyph-name="uniE61A" unicode="&#xe61a;" 
d="M512 747q-91 0 -174 -35.5t-142.5 -95t-95 -142.5t-35.5 -174q0 -73 22.5 -141t64 -123t96.5 -96.5t123 -64t141 -22.5q91 0 174 35.5t142.5 95t95 142.5t35.5 174q0 52 -11.5 102.5t-34 94.5t-53 82.5t-69 69t-82.5 53t-94.5 34t-102.5 11.5zM553 9h-120v112h120v-112z
M623 308q-80 -55 -70 -141h-120q-4 50 15 96t59 80l3 3l3 3l4 4q36 31 50.5 49t14.5 37q0 18 -9 31.5t-21 19.5t-26 7q-31 0 -54.5 -19t-23.5 -70h-108q0 52 18.5 93t50.5 63q47 35 122 35q39 -2 69 -14t50 -32.5t31 -49t12 -64.5q6 -61 -70 -131z" />
    <glyph glyph-name="uniE61B" unicode="&#xe61b;" 
d="M433 693h-268q-9 0 -18 -3t-16 -8.5t-12.5 -12.5t-8.5 -16t-3 -18v-266q0 -24 17 -41t41 -17h268q23 0 40 17t17 41v266q0 24 -17 41t-40 17zM426 404q0 -7 -3.5 -14t-10.5 -11t-15 -4h-197q-6 0 -11 2.5t-9 6.5t-6.5 9.5t-2.5 10.5v196q0 12 8.5 20.5t20.5 8.5h197
q12 0 20.5 -8.5t8.5 -20.5v-196zM858 693h-267q-24 0 -41 -17t-17 -40v-266q0 -24 17 -41t41 -17h267q24 0 41 17t17 41v266q0 23 -17 40t-41 17zM852 405q0 -6 -2.5 -11.5t-6 -9t-9 -6t-11.5 -2.5h-197q-8 0 -14.5 4t-10.5 10.5t-4 14.5v196q0 12 8.5 20.5t20.5 8.5h197
q12 0 20.5 -8.5t8.5 -20.5v-196zM433 267h-267q-8 0 -15.5 -2.5t-14 -6t-11.5 -9t-9 -11.5t-6 -13.5t-2 -15.5v-266q0 -16 8 -29t21 -21t29 -8h267q24 0 41 17t17 41v266q0 16 -7.5 29t-21 21t-29.5 8zM427 -22q0 -12 -8.5 -20.5t-20.5 -8.5h-197q-3 0 -6.5 1t-6.5 2.5
t-5.5 3.5t-4.5 4.5t-3.5 5.5t-2 6t-0.5 6v196q0 12 8.5 20.5t20.5 8.5h197q12 0 20.5 -8.5t8.5 -20.5v-196zM859 267h-268q-23 0 -40 -17t-17 -40v-266q0 -10 3 -18.5t8 -16t12 -12.5t16 -8t18 -3h268q24 0 41 17t17 41v266q0 23 -17 40t-41 17z" />
    <glyph glyph-name="uniE61C" unicode="&#xe61c;" 
d="M512 -159q-91 0 -174 35t-142.5 95t-95 143t-35.5 174t35.5 173.5t95 142.5t142.5 95.5t174 35.5q61 0 119 -16t107 -45t90 -70.5t70 -90.5t45 -107t16 -118q0 -73 -22.5 -141.5t-64 -123.5t-96.5 -96t-123 -63.5t-141 -22.5zM512 653q-99 0 -183.5 -48.5t-133.5 -133
t-49 -184t49 -183.5t133.5 -133t183.5 -49q60 0 115.5 18.5t100.5 52t79 78.5t52.5 101t18.5 116q0 99 -49 183.5t-133.5 133t-183.5 48.5zM512 153l-253 253l63 64l190 -190l190 190l63 -64z" />
    <glyph glyph-name="uniE61D" unicode="&#xe61d;" horiz-adv-x="1026" 
d="M509 481q-29 0 -56 -9t-49 -25.5t-38.5 -38t-25.5 -49t-9 -56.5q0 -74 52 -126t126 -52t126.5 52t52.5 126q0 29 -9.5 56.5t-26 49t-38 38t-49 25.5t-56.5 9zM509 175q-53 0 -90.5 37.5t-37.5 90.5t37.5 91t90.5 38t91 -38t38 -91q0 -66 -55 -105q-34 -23 -74 -23z
M899 434h-22l-2 7l-1 1v1q-2 6 -4.5 11t-4.5 10l-3 6l15 16q35 35 35 84q0 24 -9 46t-26 39l-16 16q-35 35 -84.5 35t-84.5 -35l-15 -15l-7 3q-5 2 -10.5 4.5t-12.5 4.5l-7 3v22q0 49 -35 84t-84 35h-24q-24 0 -46 -9.5t-38 -25.5t-25.5 -38t-9.5 -46v-22l-7 -3
q-13 -4 -23 -9l-6 -3l-16 15q-35 35 -84.5 35t-84.5 -35l-16 -16q-35 -35 -35 -84.5t35 -84.5l15 -16l-3 -6q-1 -3 -3 -6l-2 -8q-2 -3 -4 -7v-2h-1l-2 -7h-22q-49 0 -84 -35t-35 -84v-24q0 -49 35 -84t84 -35h22l2 -7h1v-2q5 -12 9 -21l3 -6l-15 -16q-35 -35 -35 -84t35 -84
l16 -17q35 -35 84.5 -35t84.5 35l16 15l6 -3q10 -4 23 -9l7 -3v-21q0 -50 35 -85t84 -35h24q49 0 84 35t35 85v21l7 3q13 5 23 9l7 3l15 -15q17 -17 38.5 -26t45.5 -9q50 0 85 35l16 17q17 16 26 38t9 46q0 49 -35 84l-15 16l3 6q4 9 9 21q0 1 1 2l2 7h22q49 0 84 35t35 84
v24q0 49 -35 84t-84 35zM968 291q0 -3 -0.5 -6.5t-0.5 -6.5q-1 -2 -1 -5q-1 0 -1 -1v-1l-2 -6l-3 -6l-1 -1v-1l-2 -3q-1 -2 -2.5 -4t-3.5 -4v0l-2 -2q-3 -4 -8 -7q0 -1 -1 -1q-15 -12 -35 -14h-2h-4h-59q-6 -24 -16 -48t-24 -47l42 -42q8 -8 13 -18t6 -21q0 -1 1 -1v-12v-2
q0 -3 -0.5 -5.5t-0.5 -4.5q-1 -1 -1 -3q-1 -1 -1 -2v-1q-1 -4 -2 -6q-1 -1 -1.5 -2.5t-1.5 -3.5l-1 -1v-1v0l-2 -4q-4 -5 -9 -10l-17 -17q-1 -1 -3 -2.5t-3.5 -3t-3.5 -2.5v-1q-1 0 -2 -0.5t-2 -1.5h-1l-1 -1l-6 -3q-2 -1 -6 -2h-1h-2q-2 -1 -3 -1q-2 -1 -4.5 -1.5
t-5.5 -0.5v0h-2h-3q-4 0 -8 1h-1q-24 3 -40 19l-42 42q-23 -14 -46.5 -24t-48.5 -16v-58v-5v-2q-2 -19 -14 -35v-1q-4 -5 -8 -8q0 -1 -0.5 -1t-1.5 -1q-2 -2 -4 -3.5t-4 -2.5l-3 -2h-1l-1 -1l-6 -3l-6 -2h-1h-1q-3 -1 -5 -2q-3 0 -6.5 -0.5t-6.5 -0.5h-24q-7 0 -13 1l-4 2
h-1h-1h-1q-4 1 -6 2l-6 3l-1 1h-1q-2 1 -3 2q-2 1 -4 2.5t-4 3.5v0l-2 2q-4 3 -7 8h-1v1q-12 16 -14 35v2v5v58q-25 6 -48.5 16t-46.5 24l-42 -42q-8 -8 -18 -13t-21 -6h-1q-2 -1 -3 -1h-4h-2h-3h-2v0q-3 0 -5.5 0.5t-4.5 1.5q-1 0 -3 1h-2h-1q-4 1 -6 2l-6 3l-1 1h-1
q-2 2 -4 3t-3.5 2.5t-3.5 3t-3 2.5l-17 17q-5 5 -9 10q0 2 -2 4v1l-1 1l-3 6q0 1 -0.5 2.5t-1.5 3.5v2l-1 1q0 2 -1 3q0 2 -0.5 4.5t-0.5 5.5v2q0 5 1 11v1v1q3 23 19 39l42 42q-28 46 -40 95h-59h-4h-1h-1q-20 2 -35 14q-1 0 -1 1q-5 3 -8 7l-2 2v0q-4 4 -6 8q-1 1 -2 3v1
l-1 1l-3 6q0 2 -1 3l-1 3v1v1v0l-2 5q-1 6 -1 13v24q0 7 1 13q1 2 2 5v1v1q1 4 2 6l3 6l1 1v1l2 3q2 3 6 8v0l2 2q3 4 8 8h1q15 12 35 14h2h4h59q12 49 40 95l-42 42q-16 16 -19 39v2q-1 6 -1 11v2q1 6 1 10q1 1 1 4q1 0 1 1v1l2 6l3 6l1 1v1q2 2 2 4q2 3 5 5l4 5l17 17l5 4
q2 3 5 5q1 0 2 1h2l1 1l1 1l6 3q1 0 2.5 0.5t3.5 1.5h1h1l1 1l3 1h3q2 0 3.5 0.5t3.5 0.5h2h2h5h4l2 -1q23 -3 39 -19l42 -42q23 14 46.5 24t48.5 16v59v2v2v1v1q1 6 2.5 12.5t4.5 12t7 10.5v1h1q1 2 3 4.5t4 3.5l2 2q1 1 2.5 2t2.5 2t3 2q1 0 2 1l1 1h1l1 1l6 3
q1 0 2.5 0.5t3.5 1.5h1h1v1l5 1l13 1h24q3 0 6.5 -0.5t6.5 -0.5q2 -1 2.5 -1t2.5 -1h1h1l6 -2l6 -3l1 -1h1q2 -1 3 -2q4 -2 8 -6l2 -2l8 -8v-1q12 -15 14 -35v-2v-4v-59q49 -12 95 -40l42 42q8 8 18 13t21 6q1 0 2 1h9h2h2h1q5 -1 9 -1q1 -1 4 -1q0 -1 1 -1h1l6 -2l6 -3
l1 -1h1l4 -2q1 -1 2.5 -2t2.5 -3l3 -2l2 -2l17 -17q5 -4 9 -10l2 -4v-1l1 -1l3 -6l2 -6v-1q0 -1 1 -2q0 -2 1 -3q0 -4 1 -10v-2v-4v-3v-4l-1 -2q0 -4 -1.5 -8.5t-3 -8.5t-3.5 -8t-5 -7.5t-6 -6.5l-42 -42q14 -23 24 -46.5t16 -48.5h59h4h1h1q20 -2 35 -14h1q5 -4 8 -8l2 -2
v0q4 -5 6 -8q1 -1 1 -1.5t1 -1.5v-1l1 -1l3 -6l2 -6v-1q0 -1 1 -1l1 -5l1 -13v-24z" />
    <glyph glyph-name="uniE61E" unicode="&#xe61e;" 
d="M905 555h-217v8q0 17 -6.5 32t-17.5 26t-26 17.5t-32 6.5h-190q-34 0 -58 -24t-24 -58v-8h-217q-22 0 -37 -15t-15 -36v-501q0 -21 15 -36t37 -15h788q21 0 36 15t15 36v501q0 21 -15 36t-36 15zM511 15q-99 0 -168.5 70t-69.5 168.5t69.5 168t168 69.5t168.5 -69.5
t70 -168.5q0 -32 -8.5 -63t-24 -57t-37.5 -48t-48 -37t-57 -24t-63 -9zM511 253zM351 253h320q0 -66 -47 -113t-113.5 -47t-113 47t-46.5 113z" />
    <glyph glyph-name="uniE61F" unicode="&#xe61f;" 
d="M4 -57v51h1020v-51h-1020zM4 325h1020v-51h-1020v51zM4 656h1020v-51h-1020v51z" />
    <glyph glyph-name="uniE620" unicode="&#xe620;" horiz-adv-x="1025" 
d="M512 812q-104 0 -199 -40.5t-163.5 -109t-109 -163.5t-40.5 -199t40.5 -199t109 -163.5t163.5 -109t199 -40.5t199 40.5t163.5 109t109 163.5t40.5 199t-40.5 199t-109 163.5t-163.5 109t-199 40.5zM512 -164q-94 0 -180 36.5t-148 99t-99 148.5t-37 180t37 180t99 148.5
t148 99t180 36.5q63 0 123 -16.5t111 -46.5t94 -73t73 -94t46.5 -111t16.5 -123q0 -76 -23.5 -146.5t-66.5 -127.5t-100 -100t-127.5 -66.5t-146.5 -23.5zM544 15zM480 15q0 27 19 45.5t45.5 18.5t45 -18.5t18.5 -45.5q0 -13 -5 -24.5t-13.5 -20.5t-20.5 -14t-25 -5
q-17 0 -32 8.5t-23.5 23.5t-8.5 32zM564 627q-50 13 -105.5 0.5t-93.5 -54.5q-35 -39 -46.5 -77t-11.5 -108v-1v-1q0 -13 9.5 -22t22.5 -9q8 0 15.5 4.5t11.5 11.5t4 15h1v23q0 143 114 161q43 6 76 -7t57 -33q25 -23 34.5 -55.5t1.5 -61t-27 -41.5l-52 -36q-21 -13 -34 -24
t-23.5 -27.5t-10.5 -33.5v-109q0 -13 9.5 -22.5t22.5 -9.5q9 0 16.5 4.5t11.5 11.5t4 16v4v80q0 38 39 63q3 2 11 7t14 9t15.5 10.5t16 13.5t15 16t14.5 19.5t11 22.5t7.5 27t2.5 31q0 47 -24 87.5t-58 63.5t-71 31z" />
    <glyph glyph-name="uniE621" unicode="&#xe621;" 
d="M511 748q-61 0 -119 -16t-107 -44.5t-90.5 -70t-70 -90.5t-45 -107t-16.5 -119q0 -91 35.5 -174t95.5 -142.5t143 -95t174 -35.5t173.5 35.5t142.5 95t95.5 142.5t35.5 174t-35.5 174t-95.5 143t-142.5 95t-173.5 35zM733 79q-4 -4 -9 -6t-10 -2q-11 0 -18 8l-211 211
v267q0 11 7.5 19t18.5 8t18.5 -8t7.5 -19v-245l196 -196q8 -7 8 -18t-8 -19z" />
    <glyph glyph-name="uniE622" unicode="&#xe622;" 
d="M484 170q5 -6 11.5 -9t10.5 -3h4q-6 15 -15 26.5t-16.5 17.5t-14.5 9t-11 4l-4 1q-13 1 -28 0t-31 -3t-29 -4t-21 -4l-8 -2l-21 -45zM544 168l6 2l172 -12l-20 42q-16 5 -39 8.5t-38 5.5l-15 1q-14 1 -25 -0.5t-19.5 -5t-15.5 -8t-12 -9.5t-8 -9t-4 -7l-2 -2v-16
q4 -1 9 1.5t8 5.5zM322 459h-2l-15 -37v-252l17 44v245zM711 214l16 -40v243l-16 42v-245zM743 145l-193 12q-34 -29 -66 -1l-196 -12v278l13 15h-27v-312l203 15q8 -5 16.5 -8.5t16.5 -4t15.5 0.5t13.5 3t11 4t8 3l2 2l199 -15v314h-31l15 -17v-277zM512 679
q-104 0 -192 -51t-139.5 -139.5t-51.5 -192.5t51.5 -192t139.5 -139.5t192 -51.5t192 51.5t139.5 139.5t51.5 192t-51.5 192.5t-139.5 139.5t-192 51zM773 111l-212 16q-5 -4 -13 -8.5t-31 -5t-42 14.5l-216 -18v337h49l10 34q4 1 10 3t23 6.5t33.5 7.5t38 3t38.5 -4
t32.5 -15t22.5 -29q1 3 4 9t16.5 18t33 18t57 3t85.5 -20l12 -31h49v-339z" />
    <glyph glyph-name="uniE623" unicode="&#xe623;" 
d="M511 -212q-104 0 -198.5 40.5t-163 109t-109 163.5t-40.5 199q0 83 26 161.5t73 141.5t110 110t141 73t161 26q105 0 199.5 -40.5t163 -109t109 -163.5t40.5 -199q0 -70 -18.5 -136t-51.5 -122.5t-80 -103.5t-103 -80t-122.5 -51.5t-136.5 -18.5zM511 713q-33 0 -66 -5.5
t-63.5 -15.5t-59.5 -25t-54 -33.5t-48 -41.5t-41.5 -48.5t-33.5 -54t-25 -59t-15.5 -63.5t-5.5 -67q0 -48 11 -94.5t31 -87t48.5 -76.5t64 -64t76.5 -48.5t87 -31.5t94 -11q113 0 208 55.5t150 150.5t55 207t-55 207t-150 150.5t-208 55.5zM767 306q-1 -1 -2 -5v-1
q-1 -1 -1 -3q-1 -4 -2 -6q-1 0 -2 -1t-1 -1.5t-1 -1.5l-1 -1q-3 -4 -6 -6.5t-6 -4.5l-319 -190q-7 -5 -16 -7q-6 -2 -9 -2h-1v0h-2q-27 0 -40 24q-1 1 -1 3l-1 2v1q-4 9 -4 17v1v384v1q0 8 4 17v1q0 1 1 2q0 2 1 3q13 24 40 24h2v0h1q3 0 9 -2q9 -2 16 -7l319 -190
q6 -4 12 -11l1 -1q1 -1 1 -1.5t1 -1.5t2 -1q1 -2 2 -6l1 -3q1 -5 2 -6v-10v-10zM448 209l179 107l-179 107v-214z" />
    <glyph glyph-name="uniE624" unicode="&#xe624;" 
d="M574 546q-11 15 -29 16l-4 1q-8 0 -16.5 -3.5t-17.5 -9.5q-3 -1 -12 -8q-4 -3 -9.5 -7t-11.5 -9q-13 -10 -29 -21l-16 -12l-16 -12q-37 -27 -80 -59h-22q-22 0 -37 -13.5t-15 -32.5v-3v-116q0 -19 16 -33q7 -6 16 -9.5t20 -3.5h9q3 0 5.5 0.5t3.5 0.5h5q13 -9 26 -19
t26 -19q25 -19 54 -42q30 -24 55 -43q19 -17 37 -18h5q16 0 28 9t17 25q5 13 5 25v367q0 11 -2 23q-3 15 -11 26zM790 361q-6 22 -17 41t-26 35t-32 29q-7 4 -14 5q-9 0 -16 -7t-7 -16q0 -12 10 -19q27 -19 44.5 -48t17.5 -64q0 -9 -1 -17.5t-4 -16.5q-4 -16 -13 -30
q-2 -4 -4 -7.5t-4.5 -6.5t-5.5 -6.5t-5 -6.5q-3 -2 -5 -4.5t-4 -4.5l-6 -4l-4 -4l-6 -4v-1h-1q-1 0 -1 -1q-8 -7 -8 -17t7 -16.5t16 -6.5h3q2 0 4 0.5t3.5 1.5t2.5 2q18 12 33 28.5t26 35.5t17 41q1 3 1.5 7t1.5 7.5t1.5 7t0.5 7.5t0.5 8t0.5 8q0 23 -6 44zM671 256
q9 12 15 27t6 34t-5.5 33t-15.5 28q-4 5 -8 9t-11 4q-4 0 -7.5 -1.5t-6.5 -4.5q-6 -6 -6 -15q0 -4 2 -7q1 -5 5 -10q1 -2 3 -4.5t3 -5.5q3 -5 5 -11.5t2 -14.5q0 -9 -2 -15.5t-5 -11.5t-6.5 -9.5t-5.5 -9.5h1l-2 -8q0 -8 6 -14q1 -2 3 -3t3.5 -2t3.5 -1h4q4 0 6.5 1t4.5 3
q4 4 8 9zM528 317zM69 317h917h-917z" />
    <glyph glyph-name="uniE625" unicode="&#xe625;" 
d="M512 896q-139 0 -257 -68.5t-186.5 -186.5t-68.5 -257t68.5 -257t186.5 -186.5t257 -68.5t257 68.5t186.5 186.5t68.5 257t-68.5 257t-186.5 186.5t-257 68.5zM512 -113q-184 0 -324 120q-134 115 -165 287q-8 45 -8 90q0 101 39.5 193t106 158.5t158.5 106t193 39.5
t193 -39.5t158.5 -106t106 -158.5t39.5 -193q0 -184 -120 -324q-115 -134 -287 -165q-45 -8 -90 -8zM592 401q49 39 49 102q0 53 -37.5 91t-91.5 38q-26 0 -50 -10.5t-41.5 -27.5t-27.5 -41t-10 -50q0 -63 49 -102q-17 -7 -32.5 -16.5t-29 -21.5t-25 -26t-20.5 -29.5
t-15.5 -33t-10 -36t-3.5 -37.5v-43q0 -9 6.5 -15.5t15.5 -6.5h388q9 0 15.5 6.5t6.5 15.5v43q0 67 -38 121.5t-98 78.5zM426 503q0 35 25 60.5t61 25.5t61 -25.5t25 -61t-25 -61t-61 -25.5q-12 0 -23 3.5t-20.5 9t-17.5 13.5t-13.5 17.5t-8.5 20.5t-3 23zM684 179h-344v22
q0 71 50.5 121.5t121.5 50.5q47 0 86.5 -23t62.5 -62.5t23 -86.5v-22zM368 393v3l1 1v1v2v2v3v1v2l-1 1q0 1 -1 3q-2 3 -3 5h-1q-3 3 -7 5q-8 4 -15.5 10t-12 13.5t-7.5 17t-3 18.5q0 23 14 40.5t36 22.5q8 2 13 9.5t2 16.5q-1 6 -5 10t-9.5 5.5t-11.5 0.5q-36 -9 -59 -38.5
t-23 -66.5q0 -14 3.5 -27t9.5 -24.5t15 -20.5q-42 -22 -67.5 -63t-25.5 -90v-34q0 -9 6.5 -15t15.5 -6q2 0 4 1h4q2 1 4 2.5t3.5 3t2.5 3t2 3.5t1 4v4v34q0 29 12.5 55t35 44.5t50.5 25.5q5 1 9.5 4t7.5 8zM721 409q28 31 28 72q0 14 -3.5 28t-11 26t-17 22t-22 17t-26.5 11
q-8 2 -16 -2.5t-10 -13t2 -16t13 -10.5q21 -5 34.5 -22.5t13.5 -39.5q0 -19 -10.5 -35t-27.5 -24q-4 -2 -7 -5h-1l-3 -5v-1l-1 -2v-1h-1v-2v-1v-3v-2v-3l1 -1v-3q3 -5 7.5 -8t9.5 -4q11 -3 21 -7.5t18.5 -10t16.5 -13t14.5 -15.5t11.5 -17.5t8.5 -19.5t5.5 -20.5t2 -21.5
v-34q0 -5 2.5 -10t7.5 -8t11 -3q9 0 15.5 6t6.5 15v34q0 49 -25.5 90t-67.5 63z" />
    <glyph glyph-name="uniE626" unicode="&#xe626;" horiz-adv-x="1025" 
d="M680 426q0 69 -49 117.5t-118.5 48.5t-118.5 -48.5t-49 -117.5q0 -45 22.5 -83.5t61 -60.5t83.5 -22q34 0 65 13t53.5 35.5t36 53t13.5 64.5zM512 800q-104 0 -198.5 -40.5t-163.5 -109t-109.5 -163.5t-40.5 -199t40.5 -199t109.5 -163.5t163.5 -109t198.5 -40.5
t199 40.5t163.5 109t109 163.5t40.5 199t-40.5 199t-109 163.5t-163.5 109t-199 40.5zM786 -56h-37q2 14 2 26q0 49 -19 92.5t-51 75.5t-76 50.5t-93 18.5q-99 0 -169 -69t-70 -168q0 -12 2 -26h-37v6q0 4 -0.5 7t-0.5 7v6q0 49 17 94t46 80t69.5 59.5t86.5 34.5
q-25 7 -47.5 20t-40.5 31.5t-31 40.5t-20.5 48t-7.5 53q0 83 59.5 142t143.5 59q42 0 79.5 -16t64.5 -43t43 -64t16 -78q0 -27 -7 -53t-20 -48t-31 -40.5t-41 -31.5t-48 -20q95 -20 157 -95t62 -173q0 -12 -1 -26z" />
    <glyph glyph-name="uniE627" unicode="&#xe627;" 
d="M511 755q90 0 172 -35.5t141.5 -96t94.5 -144t35 -175.5t-35 -175.5t-94.5 -144t-141.5 -96t-172 -35.5t-172 35.5t-141.5 96t-94.5 144t-35 175.5q0 61 16 119.5t44.5 108t69.5 91.5t89.5 71t106 45t117.5 16zM466 212l4 4l4 4q2 2 4 4.5t4 4.5l32 33q3 3 8.5 9t7.5 8
q3 2 5.5 5t5.5 6t6 5l31 34q43 43 64 66l16 16l6 6l5 5q3 3 5 6l6 6l4 4q2 2 6 7l16 15l-170 -405q-2 3 -11 18l-32 53q-2 4 -7 12t-9 15t-8.5 14.5t-6.5 11.5l-12 16zM284 313q1 1 6.5 3.5t11.5 5t7 3.5q2 1 5.5 2.5t6.5 2.5t6.5 2.5t5.5 2.5q131 57 298 129q4 2 9.5 4.5
t10.5 4.5l10 4q5 2 10 4.5t10 3.5l-24 -25l-3 -2q-1 -2 -2.5 -3t-2.5 -2l-193 -199q-1 -2 -5.5 -7t-9.5 -10.5t-10 -10.5t-6 -5q-2 1 -5 4l-3 3q-2 1 -4 3t-5 3q-2 1 -5 3t-7 4.5t-6 3.5q-5 3 -11 7.5t-12.5 8.5t-11.5 7q-2 1 -13 8t-23.5 15t-23 15t-11.5 7zM537 -4h5
q4 2 6 3.5t3.5 3t2.5 4t2 4t2.5 6.5t3.5 8l44 104q18 42 46.5 110t53 127t46.5 110q3 7 8 19t7 16l14 36v7q-2 4 -7 7h-7l-15 -6q-32 -14 -111 -48t-122 -52q-46 -20 -138.5 -60t-138.5 -60q-24 -10 -15 -26q2 -3 9.5 -8.5t15 -10t16.5 -10.5t12 -7q10 -7 38 -24.5t43 -27.5
q6 -4 14.5 -9.5t12.5 -8t10 -8t13 -13.5l12 -10q5 -6 42 -69q5 -8 16.5 -26.5t16.5 -29.5l26 -41l5 -6q2 -1 5 -3z" />
    <glyph glyph-name="uniE628" unicode="&#xe628;" 
d="M512 749q-91 0 -174 -35.5t-143 -95.5t-95.5 -143t-35.5 -174t35.5 -174t95.5 -143t143 -95.5t174 -35.5t174 35.5t143 95.5t95.5 143t35.5 174t-35.5 174t-95.5 143t-143 95.5t-174 35.5zM704 511l-130 -199h82q10 0 17.5 -7.5t7.5 -18t-7.5 -18t-17.5 -7.5h-115v-52
h115q10 0 17.5 -7.5t7.5 -18t-7.5 -18t-17.5 -7.5h-115v-123q0 -13 -9 -22t-22 -9t-22 9t-9 22v123h-116q-11 0 -18.5 7.5t-7.5 18t7.5 18t18.5 7.5h116v52h-116q-11 0 -18.5 7.5t-7.5 18t7.5 18t18.5 7.5h82l-130 199q-7 10 -4.5 22.5t13.5 19.5t23 4.5t19 -13.5l144 -218
l143 218q4 7 11.5 11t15.5 3.5t15 -5.5q11 -7 13.5 -19.5t-4.5 -22.5z" />
    <glyph glyph-name="uniE629" unicode="&#xe629;" horiz-adv-x="1026" 
d="M1017 421q0 31 -22.5 53.5t-53.5 22.5q-11 0 -20.5 -3t-18 -7.5t-15.5 -11.5t-12 -15.5t-7.5 -18.5t-2.5 -20q0 -24 14 -43q-7 -4 -24 -14t-27 -15.5t-26 -12t-32.5 -10t-35.5 -3.5q-4 0 -7.5 0.5t-7.5 0.5t-7.5 0.5t-7.5 1.5q-18 3 -35.5 11t-32 18.5t-27 23.5
t-22.5 26.5t-18 27t-13.5 26t-9 22.5t-4.5 17q7 3 12.5 7t10 9t8.5 11t6.5 12.5t4 13.5t1.5 15q0 20 -10 37.5t-27.5 27.5t-38 10t-38 -10t-28 -27.5t-10.5 -37.5q0 -16 6.5 -30.5t17.5 -25t26 -15.5q-2 -17 -13 -42.5t-29.5 -54t-49 -51t-65.5 -27.5q-12 -2 -25 -2
q-18 0 -34.5 3t-33 10t-26 12t-28 15.5t-24.5 14.5q6 14 6 29t-6 29.5t-16 24.5t-24.5 16t-29.5 6q-31 0 -53 -22l-1 1l1 -1q-23 -22 -23 -53.5t22.5 -54t53.5 -22.5l196 -476h463l204 496q12 1 22.5 5.5t18.5 11.5t14.5 16t10 19.5t3.5 22.5zM706 -93h-387l-165 402
q6 -3 16.5 -8.5t17 -9t16.5 -8t17.5 -7.5t17.5 -6t19 -5t20.5 -3t22.5 -1q17 0 33 2q41 6 78.5 26.5t64 47.5t38.5 56q19 -41 69.5 -76.5t109.5 -46.5l10 -2h10l10 -2h10q18 0 32.5 2t30.5 8t23.5 9t27 12.5t24.5 12.5z" />
    <glyph glyph-name="uniE62A" unicode="&#xe62a;" 
d="M513 810q-188 0 -331 -122q-136 -117 -170 -292q-9 -48 -9 -97q0 -104 40 -198.5t108.5 -163t163 -109t198.5 -40.5t198.5 40.5t163 109t109 163t40.5 198.5q0 83 -26 161t-73 140.5t-110 110t-141 73.5t-161 26zM669 106h-362v32q0 15 20.5 32t40.5 25l21 9
q15 6 27.5 14.5t17.5 13.5l5 5q3 2 4.5 6.5t0.5 7.5v3q-14 14 -25 65q-11 4 -16 13t-5 16v8q0 8 3.5 12.5t6.5 4.5l3 1q-2 21 -2 36.5t2.5 28t9 19.5t17.5 9q1 25 39 25q15 0 30 -4.5t19 -4.5q7 -1 14 0t11 3l4 1q0 -11 -8 -20q14 -9 17 -25.5t1 -67.5q2 0 4 -0.5t6 -5
t4 -12.5v-2v-2q0 -2 -0.5 -4t-1 -5t-1.5 -5.5t-2.5 -5t-3.5 -5t-5.5 -4.5t-6.5 -4q-2 -5 -4 -14t-8.5 -27t-12.5 -24l1 -12l4 -5q0 -1 1.5 -2t6 -5t10 -8t14 -9t18.5 -9q3 -1 8.5 -3.5t19.5 -9.5t25 -14.5t19.5 -18t8.5 -20.5v-32v0zM706 209h-51q-4 0 -7 1.5t-4.5 4.5
t-1.5 6.5t1.5 6.5t4.5 4.5t7 1.5h51q3 0 5.5 -1t4 -2.5t2.5 -4t1 -4.5q0 -6 -3.5 -9.5t-9.5 -3.5zM706 286h-77q-5 0 -9 3.5t-4 9.5q0 2 1 4t2 3.5t2.5 2.5t3.5 2t4 1h77q4 0 7 -2t4.5 -5t1.5 -6q0 -6 -3.5 -9.5t-9.5 -3.5zM706 363h-77q-5 0 -9 4t-4 9t4 9t9 4h77
q3 0 5.5 -1t4 -3t2.5 -4t1 -5q0 -5 -3.5 -9t-9.5 -4z" />
    <glyph glyph-name="uniE62B" unicode="&#xe62b;" 
d="M848 -52h-96q-7 0 -11.5 4.5t-4.5 11.5t4.5 11.5t11.5 4.5h80v80q0 7 4.5 11.5t11.5 4.5t11.5 -4.5t4.5 -11.5v-96q0 -7 -4.5 -11.5t-11.5 -4.5zM848 140q-7 0 -11.5 4.5t-4.5 11.5v96q0 7 4.5 11.5t11.5 4.5t11.5 -4.5t4.5 -11.5v-96q0 -7 -4.5 -11.5t-11.5 -4.5z
M848 332q-7 0 -11.5 4.5t-4.5 11.5v96q0 7 4.5 11.5t11.5 4.5t11.5 -4.5t4.5 -11.5v-96q0 -7 -4.5 -11.5t-11.5 -4.5zM848 524q-7 0 -11.5 4.5t-4.5 11.5v80h-80q-7 0 -11.5 4.5t-4.5 11.5t4.5 11.5t11.5 4.5h96q7 0 11.5 -4.5t4.5 -11.5v-96q0 -7 -4.5 -11.5t-11.5 -4.5z
M656 -52h-96q-7 0 -11.5 4.5t-4.5 11.5t4.5 11.5t11.5 4.5h96q7 0 11.5 -4.5t4.5 -11.5t-4.5 -11.5t-11.5 -4.5zM656 620h-96q-7 0 -11.5 4.5t-4.5 11.5t4.5 11.5t11.5 4.5h96q7 0 11.5 -4.5t4.5 -11.5t-4.5 -11.5t-11.5 -4.5zM638 332q13 0 22.5 -9.5t9.5 -22.5t-9.5 -22.5
t-22.5 -9.5h-96v-96q0 -13 -9.5 -22.5t-22.5 -9.5t-22.5 9.5t-9.5 22.5v96h-96q-13 0 -22.5 9.5t-9.5 22.5q0 7 2.5 12.5t7 10t10 7t12.5 2.5h96v96q0 7 2.5 12.5t7 10t10 7t12.5 2.5q9 0 16 -4.5t11.5 -11.5t4.5 -16v-96h96zM464 620h-96q-7 0 -11.5 4.5t-4.5 11.5
t4.5 11.5t11.5 4.5h96q7 0 11.5 -4.5t4.5 -11.5t-4.5 -11.5t-11.5 -4.5zM272 -52h-96q-7 0 -11.5 4.5t-4.5 11.5v96q0 7 4.5 11.5t11.5 4.5t11.5 -4.5t4.5 -11.5v-80h80q7 0 11.5 -4.5t4.5 -11.5t-4.5 -11.5t-11.5 -4.5zM272 620h-80v-80q0 -7 -4.5 -11.5t-11.5 -4.5
t-11.5 4.5t-4.5 11.5v96q0 7 4.5 11.5t11.5 4.5h96q7 0 11.5 -4.5t4.5 -11.5t-4.5 -11.5t-11.5 -4.5zM176 460q7 0 11.5 -4.5t4.5 -11.5v-96q0 -7 -4.5 -11.5t-11.5 -4.5t-11.5 4.5t-4.5 11.5v96q0 7 4.5 11.5t11.5 4.5zM176 268q7 0 11.5 -4.5t4.5 -11.5v-96
q0 -7 -4.5 -11.5t-11.5 -4.5t-11.5 4.5t-4.5 11.5v96q0 7 4.5 11.5t11.5 4.5zM368 -20h96q7 0 11.5 -4.5t4.5 -11.5t-4.5 -11.5t-11.5 -4.5h-96q-7 0 -11.5 4.5t-4.5 11.5t4.5 11.5t11.5 4.5z" />
    <glyph glyph-name="uniE62C" unicode="&#xe62c;" horiz-adv-x="1030" 
d="M512 896q-104 0 -199 -40.5t-163.5 -109t-109 -163.5t-40.5 -199t40.5 -199t109 -163.5t163.5 -109t199 -40.5t199 40.5t163.5 109t109 163.5t40.5 199t-40.5 199t-109 163.5t-163.5 109t-199 40.5zM512 -63q-91 0 -173.5 35.5t-142.5 95.5t-95.5 142.5t-35.5 173.5
t35.5 173.5t95.5 142.5t142.5 95.5t173.5 35.5q73 0 141 -22.5t123 -64t96.5 -96.5t64 -123t22.5 -141q0 -91 -35.5 -173.5t-95.5 -142.5t-142.5 -95.5t-173.5 -35.5zM365 567h86v-385h-86v385zM537 567h107v-385h-107v385z" />
    <glyph glyph-name="uniE62D" unicode="&#xe62d;" 
d="M604 275q-38 9 -49 47q-12 38 18 69q13 13 24.5 30.5t19.5 37.5t12 42t4 44q0 62 -34 101.5t-87 39.5t-87 -39.5t-34 -101.5q0 -29 7.5 -57.5t21 -53.5t30.5 -42q2 -1 3 -3q6 -7 10.5 -15t6.5 -17t2 -18t-3 -17q-5 -18 -18 -30.5t-30 -16.5q-92 -17 -151.5 -58.5
t-59.5 -73.5q0 -61 302 -61t302 61q0 32 -59.5 73.5t-150.5 58.5zM512 896q-104 0 -199 -40.5t-163.5 -109t-109 -163.5t-40.5 -199q0 -70 18.5 -136t51.5 -122.5t80 -103.5t103.5 -80t122.5 -51.5t136 -18.5q104 0 199 40.5t163.5 109t109 163.5t40.5 199t-40.5 199
t-109 163.5t-163.5 109t-199 40.5zM512 43q-36 0 -65.5 0.5t-62 2.5t-58.5 5.5t-51 8.5t-43 12.5t-32.5 17.5t-21.5 23.5t-7 29.5q0 20 12 41.5t34.5 41t52 36.5t66.5 30.5t76 21.5q15 3 19 19q5 17 -9 31q0 1 -1 2q-16 16 -29 36.5t-22 43.5t-13.5 48.5t-4.5 50.5
q0 78 45 129t115 51t115 -51t45 -129q0 -52 -19 -101t-53 -81q-13 -13 -8 -30q5 -16 20 -19q99 -19 170 -69.5t71 -101.5q0 -30 -23.5 -50.5t-71 -31t-105.5 -14.5t-141 -4z" />
    <glyph glyph-name="uniE62E" unicode="&#xe62e;" 
d="M325 -50zM882 -50zM236 -65zM960 -65zM64 23zM958 23zM81 -66zM1023 -66zM34 -40zM284 139q0 27 24 50l111 112l-111 111q-8 7 -13 15.5t-8 17t-3 17.5v3q0 5 0.5 7.5t1 7t2.5 8.5q6 16 14 23q9 8 23 13q7 4 22 4h3q6 0 12.5 -1.5t13.5 -4.5q3 -1 5.5 -2.5t4.5 -3
t3.5 -2.5t3.5 -3l3 -3l4 -4l112 -111l110 111q5 5 9.5 8.5t9.5 6.5t10 5t11 3t11 1h4q27 0 45 -17q10 -10 13 -23q4 -12 4 -23v-3q0 -12 -6 -26q-6 -13 -17 -24l-112 -111l112 -112q11 -12 17 -24.5t6 -25.5v-3q0 -8 -1 -13.5t-4 -10.5q0 -2 -12 -22q-16 -17 -45 -17h-4
q-27 0 -51 24l-110 111l-112 -111q-6 -6 -12 -10.5t-12 -7.5t-12.5 -4.5t-13.5 -1.5h-3q-15 0 -22 4q-17 7 -23 13q-10 10 -14 22q-2 6 -3 12t-1 12v3zM63 301q0 -187 131 -318t318 -131q94 0 172 32t145 99t99 145t32 173q0 186 -131 317t-317.5 131t-317.5 -131t-131 -317
zM999 -40z" />
    <glyph glyph-name="uniE62F" unicode="&#xe62f;" 
d="M512 770q-104 0 -192 -51.5t-139.5 -140t-51.5 -192.5t51.5 -192t139.5 -139.5t192 -51.5t192.5 51.5t140 139.5t51.5 192q0 78 -30.5 149t-82 122.5t-122.5 82t-149 30.5zM547 167q0 -4 -1 -7t-2.5 -6t-4 -5t-5.5 -4q-5 -2 -10 -2q-8 0 -14 6l-135 112h-110q-4 0 -8.5 2
t-8 5t-5 7.5t-1.5 9.5v189q0 10 7 17t17 7l108 -1l136 113q11 9 24 3t13 -21v-425zM630 264q-2 -1 -3.5 -1.5t-3.5 -1t-4 -0.5q-4 0 -8 1.5t-7.5 4.5t-5.5 7q-4 9 -1 18.5t12 13.5q4 2 9.5 7t15 24t9.5 44q0 23 -10 41.5t-16 23t-11 6.5q-4 3 -7 6.5t-4.5 7.5t-1.5 9t2 9
q4 9 13.5 12t17.5 -1q4 -2 8.5 -4.5t15 -12.5t19 -21.5t15 -32t6.5 -43.5q0 -24 -6.5 -45t-14 -33t-17.5 -22t-14.5 -13t-7.5 -4zM703 194q-6 -4 -13 -4q-13 0 -20 11q-3 5 -3.5 11.5t2.5 12t8 9.5q3 2 7.5 5.5t14.5 16.5t18 28t14 40.5t6 54.5t-6.5 54.5t-14.5 40.5
t-18.5 28t-15.5 17t-8 6q-8 5 -10 14.5t3.5 17.5t15 10.5t17.5 -3.5q2 -1 5.5 -4t12.5 -11t17 -17.5t17.5 -25.5t16 -33.5t11 -42t4.5 -51t-4 -51t-11 -42t-16 -33.5t-16.5 -25.5t-16 -18t-12 -11t-5.5 -4.5zM703 194z" />
    <glyph glyph-name="uniE630" unicode="&#xe630;" 
d="M512 832q-61 0 -119.5 -16t-108 -45t-91 -70.5t-70.5 -91t-45 -108t-16 -119.5q0 -91 35.5 -174.5t96 -144t143.5 -96t175 -35.5t175 35.5t143.5 96t96 144t35.5 175t-35.5 174.5t-96 143.5t-143.5 96t-175 35.5zM439 495v188h150v-188h91l-166 -231l-166 231h91z
M778 156h-532v169h58v-110h416v110h58v-169z" />
    <glyph glyph-name="uniE631" unicode="&#xe631;" 
d="M510 809q116 0 213.5 -57t154.5 -155t57 -213q0 -69 -21.5 -134t-60.5 -117t-91.5 -91.5t-117 -61t-134.5 -21.5q-115 0 -213 57t-154.5 155t-56.5 213q0 86 33.5 165t90.5 135.5t135.5 90.5t164.5 34v0zM542 203v366q0 1 -1 3.5t-4.5 6.5t-8 6t-11.5 0.5t-15 -8.5
q-6 -5 -14.5 -12.5t-17.5 -16t-18.5 -17t-18 -16t-15 -14t-10.5 -9.5l-4 -4h-108q-6 0 -9 -0.5t-6.5 -6.5t-3.5 -19v-157q0 -6 2.5 -11t7 -8t10.5 -3h101l105 -91q6 -5 12.5 -8t12.5 -3t10 5.5t4 16.5v0zM744 372q1 32 -8 63t-26.5 57.5t-43.5 48.5q-8 5 -17.5 1
t-13.5 -11.5t0 -15.5q70 -58 66 -141q-4 -75 -68 -127q-9 -11 6 -22t24 -4q76 62 81 151v0zM616 377q-3 -46 -41 -80q-6 -7 -1.5 -15t13.5 -10.5t16 1.5q50 43 53 103q3 67 -52 115q-8 6 -17.5 2.5t-13 -11t0.5 -13.5q44 -38 42 -92v0zM616 377z" />
    <glyph glyph-name="uniE632" unicode="&#xe632;" 
d="M292 784q-7 -7 -9.5 -16t0 -17.5t10.5 -15.5l360 -349l-359 -354q-11 -10 -11 -24t11 -24q8 -6 17.5 -8.5t19 0t16.5 8.5l383 377v1q1 0 1 1h1q10 10 10 24q0 4 -1 8.5t-3.5 8.5t-6.5 7l-386 373q-7 6 -16.5 8.5t-19.5 0t-17 -8.5v0zM292 784z" />
  </font>
</defs>
</svg>
