<?xml version="1.0" standalone="no"?>
<!DOCTYPE svg PUBLIC "-//W3C//DTD SVG 1.1//EN" "http://www.w3.org/Graphics/SVG/1.1/DTD/svg11.dtd" >
<svg xmlns="http://www.w3.org/2000/svg">
<metadata>
Created by FontForge 20120731 at Sat Nov 19 20:52:05 2016
 By admin
</metadata>
<defs>
<font id="iconfont" horiz-adv-x="1024" >
  <font-face 
    font-family="iconfont"
    font-weight="500"
    font-stretch="normal"
    units-per-em="1024"
    panose-1="2 0 6 3 0 0 0 0 0 0"
    ascent="896"
    descent="-128"
    x-height="792"
    bbox="0 -212 1024 896"
    underline-thickness="0"
    underline-position="0"
    unicode-range="U+0078-E849"
  />
<missing-glyph 
 />
    <glyph glyph-name=".notdef" 
 />
    <glyph glyph-name=".notdef" 
 />
    <glyph glyph-name=".null" horiz-adv-x="0" 
 />
    <glyph glyph-name="nonmarkingreturn" horiz-adv-x="341" 
 />
    <glyph glyph-name="x" unicode="x" horiz-adv-x="1001" 
d="M281 543q-27 -1 -53 -1h-83q-18 0 -36.5 -6t-32.5 -18.5t-23 -32t-9 -45.5v-76h912v41q0 16 -0.5 30t-0.5 18q0 13 -5 29t-17 29.5t-31.5 22.5t-49.5 9h-133v-97h-438v97zM955 310v-52q0 -23 0.5 -52t0.5 -58t-10.5 -47.5t-26 -30t-33 -16t-31.5 -4.5q-14 -1 -29.5 -0.5
t-29.5 0.5h-32l-45 128h-439l-44 -128h-29h-34q-20 0 -45 1q-25 0 -41 9.5t-25.5 23t-13.5 29.5t-4 30v167h911zM163 247q-12 0 -21 -8.5t-9 -21.5t9 -21.5t21 -8.5q13 0 22 8.5t9 21.5t-9 21.5t-22 8.5zM316 123q-8 -26 -14 -48q-5 -19 -10.5 -37t-7.5 -25t-3 -15t1 -14.5
t9.5 -10.5t21.5 -4h37h67h81h80h64h36q23 0 34 12t2 38q-5 13 -9.5 30.5t-9.5 34.5q-5 19 -11 39h-368zM336 498v228q0 11 2.5 23t10 21.5t20.5 15.5t34 6h188q31 0 51.5 -14.5t20.5 -52.5v-227h-327z" />
    <glyph glyph-name="jianhao" unicode="&#xe684;" 
d="M64 364h896v-128h-896v128z" />
    <glyph glyph-name="fanhui" unicode="&#xe604;" 
d="M700 615l-46 46l-315 -315v0l-46 -46v0v0l46 -45v0l315 -316l46 46l-316 315z" />
    <glyph glyph-name="fanhui1" unicode="&#xe64e;" 
d="M480 748q-98 0 -186.5 -38t-153 -102.5t-102.5 -153t-38 -186.5t38 -186.5t102.5 -153t153 -102.5t186.5 -38t186.5 38t153 102.5t102.5 153t38 186.5t-38 186.5t-102.5 153t-153 102.5t-186.5 38zM565 99q9 -9 9 -22.5t-9 -23t-22.5 -9.5t-22.5 10l-192 191q-9 10 -9 23
t9 23l193 192q9 10 22.5 10t23 -9.5t9.5 -22.5t-10 -23l-170 -170z" />
    <glyph glyph-name="erweima" unicode="&#xe623;" 
d="M152 688h305q9 0 14.5 -6t7.5 -18.5t2.5 -20.5t0 -25.5t-0.5 -22.5v-169q0 -6 0.5 -21.5t0 -24t-1.5 -19.5t-5.5 -17.5t-11.5 -9.5t-21 -3.5t-33.5 0.5t-23.5 1h-162q-6 0 -23 -0.5t-25.5 -0.5t-20.5 2t-18 7.5t-7 15.5v309q6 18 23 23zM194 619v-220h220v223h-219
q-1 0 -1 -3zM562 688h305q20 -7 23 -27v-301q-5 -22 -21 -27q-9 -2 -22 -2.5t-30.5 0.5t-24.5 1h-157q-7 0 -24.5 -1t-31 -1t-21.5 3t-12.5 9.5t-6.5 19t-2 21.5t0.5 25.5t0.5 22.5v158q0 8 -0.5 25.5t-0.5 27t2 21.5t7.5 18t15.5 7zM604 619v-220h220v223h-219q-2 0 -1 -3z
M294 554q23 5 39 -8t17 -35q0 -27 -22 -40t-45 -2q-16 9 -21.5 28t3.5 36.5t29 20.5zM704 554q39 8 51 -26q10 -30 -10 -51q-16 -16 -41 -12q-22 4 -30.5 24t0 40.5t30.5 24.5zM455 -84h-302q-19 6 -24 25v308q6 19 20 23q9 2 22 2.5t30.5 -0.5t24.5 -1h156q7 0 24.5 1
t31 0.5t22.5 -2.5q8 -3 13 -9.5t6.5 -18.5t2 -21t0 -25.5t-0.5 -23.5v-162q0 -6 0.5 -24.5t0 -26.5t-2.5 -20t-8 -18t-16 -7zM194 203v-220h220v223h-219q-1 0 -1 -3zM890 245v-86q-1 -7 -0.5 -46t-0.5 -47h-218v50q-5 2 -33 1.5t-34 -0.5q-2 -17 -1.5 -99.5t0.5 -101.5h-40
q-10 2 -16 8.5t-8 18.5t-2 21.5t0.5 27t0.5 24.5v158q0 7 -1 25.5t-0.5 32t2.5 21.5q2 5 4.5 8.5t7 5.5t8 3.5t11 2t11.5 0.5h13.5h12.5h148v-136h69q0 12 -0.5 68.5t1.5 67.5q17 0 31 -0.5t23.5 -7t10.5 -20.5zM300 140q25 2 40.5 -17.5t6.5 -45.5q-9 -23 -33.5 -27
t-42.5 12.5t-10.5 45t39.5 32.5zM745 -84h-74v41t1 39h73v-80zM890 -4v-52q-4 -21 -24 -28h-52q0 8 -0.5 41t1.5 39h75z" />
    <glyph glyph-name="jia" unicode="&#xe600;" 
d="M581 458v360h-144v-360h-360v-144h360v-360h144v360h360v144h-360z" />
    <glyph glyph-name="phone-line" unicode="&#xe6ed;" 
d="M900 115q6 -6 13 -11q29 -24 41 -38v0v0v0q3 -4 5 -6q2 -3 4 -4q0 -1 1 -2q1 -2 2 -3l6 -9v-1q15 -30 -4 -71q-18 -39 -57 -75q-81 -75 -154 -75q-11 0 -21 2q-74 9 -198 78q-133 73 -232.5 167.5t-176.5 220.5q-73 118 -83 189q-6 46 21 96q25 44 70 81q1 1 3 2.5t2 2.5
q42 34 75 46q17 8 32 8t30 -6v-1q5 -2 13 -6q35 -17 70 -64q23 -31 40 -59q21 -36 35 -68l1 -1l2 -7q14 -36 -14 -62q0 -1 -2 -3l-1 -1l-1 -1q-1 0 -3 -2q-4 -3 -5 -4h-1q-11 -8 -19 -12l-12 -8h-1q-11 -6 -32 -15q-19 -7 -31 -13q-11 -6 -14.5 -20.5t0.5 -19.5
q31 -68 122 -155q63 -60 157 -113q8 -5 17 -5q11 0 22 7.5t17 17.5q5 10 15 29l10 20v0q10 18 18 30q5 7 8 10q11 16 30 22q10 4 22 4q16 0 27 -6l21 -10v0q1 -1 4 -3q5 -2 10 -6q16 -10 33 -21q3 -2 7 -5zM720 153q-6 -7 -20 -32q-3 -5 -10 -18q-10 -20 -16 -31
q-10 -18 -30.5 -32t-43.5 -14q-20 0 -37 10q-98 56 -165 119q-97 92 -131 168q-10 22 -3 48q9 32 36 46q14 6 34 14q18 7 26 12t14 9q7 3 16 9l2 2q3 2 4 3l2 2v0q8 8 4 18l-1 1l-2 7q-13 30 -32 62q-16 26 -38 55q-28 39 -54 52h-1l-12 6q-6 3 -13 3t-17 -4l-1 -1
q-26 -9 -63 -40q-4 -3 -5 -4q-39 -32 -60 -70.5t-16 -69.5q9 -63 77 -174q74 -121 170 -211.5t224 -161.5q117 -65 183 -74q8 -1 16 -1q57 0 127 65q33 30 47 61q5 10 6 21t-2 16l-4 5v0v1q-3 3 -8 9q-11 12 -36 33q-40 33 -73 55q-26 17 -43 28l-20 9q-3 2 -9 2q-5 0 -9 -1
q-7 -3 -10 -8z" />
    <glyph glyph-name="jian" unicode="&#xe69a;" 
d="M589 364h-13h-128h-5h-379v-128h379h5h128h13h370v128h-370z" />
    <glyph glyph-name="xiangyoujiantou" unicode="&#xe6a8;" 
d="M268 800l29 29q6 6 14 6t14 -6l431 -431q6 -6 6 -14t-6 -14l-29 -29q-6 -6 -14 -6t-14 6l-431 431q-6 6 -6 14t6 14zM268 -4l431 431q6 6 14 6t14 -6l29 -29q6 -6 6 -14t-6 -14l-431 -431q-6 -6 -14 -6t-14 6l-29 29q-6 6 -6 14t6 14z" />
    <glyph glyph-name="guanlingsheng" unicode="&#xe658;" 
d="M851 127q-3 52 -27 97.5t-65 76.5v191q0 83 -52 146.5t-131 79.5v5q0 37 -27 64t-65 27t-65 -27t-27 -64v-5q-24 -5 -46 -15l431 -576h74zM458 -57h52q60 0 105 39.5t52 98.5h-365q7 -59 51.5 -98.5t104.5 -39.5zM209 492v-191q-41 -31 -65 -76.5t-26 -97.5h91v-1h525
l-420 560q-48 -32 -76.5 -83t-28.5 -111zM249 832l-28 -22l93 -124q16 10 32 17zM906 -45l-129 172h-18v-1h-25l144 -192z" />
    <glyph glyph-name="xiajiantou" unicode="&#xe6c4;" 
d="M511 248l-397 368l-50 -43l447 -415l447 415l-50 43z" />
    <glyph glyph-name="qiehuan" unicode="&#xe60b;" 
d="M811 410l-233 -282q-2 -3 -7 -3v177v118v354h61v-354h172q5 0 7.5 -3.5t-0.5 -6.5v0zM390 479h-172q-5 0 -7.5 3.5t0.5 6.5l232 282q3 3 7 3v-177v-118v-354h-60v354v0zM390 479z" />
    <glyph glyph-name="jia1" unicode="&#xe616;" 
d="M575 -14q0 -5 -3.5 -8.5t-8.5 -3.5h-108q-5 0 -9 3.5t-4 8.5v781q0 5 4 9t9 4h108q5 0 8.5 -4t3.5 -9v-781zM899 443q5 0 9 -3.5t4 -8.5v-108q0 -5 -4 -9t-9 -4h-780q-6 0 -9.5 4t-3.5 9v108q0 5 3.5 8.5t9.5 3.5h780z" />
    <glyph glyph-name="cgwangfan" unicode="&#xe68e;" 
d="M503 487q-14 0 -23 10l-195 198l-197 -198q-9 -10 -22.5 -10t-23 9.5t-9.5 22.5t10 23l220 221q7 7 22 9q14 0 23 -9l218 -222q9 -9 9 -22t-9.5 -22.5t-22.5 -9.5zM669 60q-13 0 -22 9l-220 221q-9 10 -9 23t9 22.5t22.5 9.5t22.5 -10l197 -198l195 198q9 10 22 10
t22.5 -9.5t10 -22.5t-9.5 -23l-217 -221q-9 -9 -23 -9v0zM640 768v-640v640zM672 96q-13 0 -22.5 9.5t-9.5 22.5v640q0 13 9.5 22.5t22.5 9.5t22.5 -9.5t9.5 -22.5v-640q0 -13 -9.5 -22.5t-22.5 -9.5zM288 32q-13 0 -22.5 9.5t-9.5 22.5v640q0 13 9.5 22.5t22.5 9.5
t22.5 -9.5t9.5 -22.5v-640q0 -13 -9.5 -22.5t-22.5 -9.5z" />
    <glyph glyph-name="gerenzhongxin03" unicode="&#xe66a;" 
d="M512 294q44 0 82 36t58 85t20 93q0 67 -47 114t-113.5 47t-113.5 -47t-47 -114q0 -44 20 -93t58.5 -85t82.5 -36zM512 624q48 0 81.5 -34t33.5 -82q0 -55 -37 -112t-78.5 -57t-78.5 57t-37 112q0 48 34 82t82 34zM512 832q-91 0 -174 -35.5t-143 -95.5t-95.5 -143
t-35.5 -174t35.5 -174t95.5 -143t143 -95t174 -35t174 35t143 95t95 143t35 174t-35 174t-95 143t-143 95.5t-174 35.5zM511.5 787q109.5 0 202.5 -54t147 -146.5t54 -202.5q0 -144 -93 -256q-42 50 -104.5 83.5t-134.5 44.5q-16 3 -23 -11l-48 -82l-47 83q-8 13 -23 11
q-73 -11 -135.5 -44.5t-105.5 -84.5q-92 112 -92 256q0 110 54 202.5t146.5 146.5t202 54zM231 95q74 90 203 115l59 -103q6 -11 19 -11t20 11l59 102q127 -25 201 -114q-56 -54 -128 -84t-152.5 -30t-152.5 30t-128 84z" />
    <glyph glyph-name="daxingkeche" unicode="&#xe727;" 
d="M603 557h91v-115h-91v115zM466 557h92v-115h-92v115zM194 487v-46h91v116h-46q-13 0 -29 -19.5t-16 -50.5zM330 557h91v-115h-91v115zM512 896q-139 0 -257 -68.5t-186.5 -186.5t-68.5 -257t68.5 -257t186.5 -186.5t257 -68.5t257 68.5t186.5 186.5t68.5 257t-68.5 257
t-186.5 186.5t-257 68.5zM296 165q-23 0 -40 18.5t-17 44.5t17 44t40.5 18t40.5 -18t17 -44q-1 -26 -17.5 -44.5t-40.5 -18.5zM728.5 165q-23.5 0 -40.5 18.5t-17 44.5t17 44t40.5 18t40.5 -18t17 -44t-17 -44.5t-40.5 -18.5zM808 235v11q0 33 -23 56.5t-56 23.5
t-56.5 -23.5t-23.5 -56.5v-11h-274v12q0 33 -23.5 56.5t-56.5 23.5t-56 -23.5t-23 -56.5v-12h-68v281q0 45 26 66t65 21h615q9 0 15.5 -6.5t6.5 -15.5v-346h-68zM740 557h91v-115h-91v115z" />
    <glyph glyph-name="wangfan" unicode="&#xe603;" 
d="M636 683l37 -159h-609v-103h896zM388 85l-37 159h609v103h-896z" />
    <glyph glyph-name="gongjiaochechezhan" unicode="&#xe849;" 
d="M835 9v0v-64q0 -14 -9.5 -23t-22.5 -9h-97q-14 0 -23 9t-9 23v64h-323v-64q0 -14 -9.5 -23t-22.5 -9h-97q-14 0 -23 9t-9 23v64q-27 0 -46 18.5t-19 45.5v647q0 25 33.5 44.5t63.5 19.5q5 3 15 7.5t41 15.5t63 19.5t79 15t92 6.5q72 0 153 -16t125 -32l45 -16
q27 0 45.5 -18.5t18.5 -45.5v-647q0 -27 -18.5 -45.5t-45.5 -18.5v0v0zM270 105q34 0 57.5 23.5t23.5 56.5t-23.5 56.5t-57 23.5t-57 -23.5t-23.5 -56.5t23.5 -56.5t56.5 -23.5v0v0zM641 784h-258q-13 0 -22.5 -9t-9.5 -22.5t9.5 -23t22.5 -9.5h258q14 0 23.5 9.5t9.5 23
t-9.5 22.5t-23.5 9v0v0zM835 605q0 13 -9.5 22.5t-22.5 9.5h-581q-13 0 -22.5 -9.5t-9.5 -22.5v-192q0 -14 9 -23t23 -9h581q13 0 22.5 9t9.5 23v192v0zM754 265q-33 0 -56.5 -23.5t-23.5 -56.5t23.5 -56.5t57 -23.5t57 23.5t23.5 56.5t-23.5 56.5t-57.5 23.5v0v0zM754 265z
" />
    <glyph glyph-name="date" unicode="&#xe64b;" 
d="M944 801h-50v15q0 33 -23.5 56.5t-56.5 23.5h-1q-33 0 -56.5 -23.5t-23.5 -56.5v-15h-442v15q0 33 -23.5 56.5t-56.5 23.5h-1q-33 0 -56.5 -23.5t-23.5 -56.5v-15h-50q-33 0 -56.5 -23.5t-23.5 -56.5v-769q0 -33 23.5 -56.5t56.5 -23.5h864q33 0 56.5 23.5t23.5 56.5v769
q0 33 -23.5 56.5t-56.5 23.5v0zM765 816q0 20 14 34t34 14h1q20 0 34 -14t14 -34v-143q0 -20 -14 -34t-34 -14h-1q-20 0 -34 14t-14 34v143zM162 816q0 20 14 34t34 14h1q20 0 34 -14t14 -34v-143q0 -20 -14 -34t-34 -14h-1q-20 0 -34 14t-14 34v143zM944 -64h-864
q-6 0 -11 5t-5 11v565h896v-565q0 -6 -5 -11t-11 -5v0zM182 402h147v-73h-147v73zM439 402h147v-73h-147v73zM696 402h144v-73h-144v73zM182 255h147v-72h-147v72zM439 255h147v-72h-147v72zM696 255h144v-72h-144v72zM182 110h147v-75h-147v75zM439 110h147v-75h-147v75z
M696 110h144v-75h-144v75zM696 110z" />
    <glyph glyph-name="goupiao" unicode="&#xe607;" 
d="M114 615l632 131q38 8 71 -13.5t41 -60.5l16 -78l3 -17l-1 -1h-74q7 12 15 21l-13 64q-3 16 -17 25t-30 6l-559 -116h-9q-25 0 -48 -10q-3 -1 -9 -4l-7 -1q-16 -4 -25 -17q-3 -5 -5 -10q-14 -16 -23 -36q-9 -24 -9 -48v-54l-23 107q-8 38 13.5 71t60.5 41v0zM659 384
l-60 -93h47v-20h-55v-29h55v-20h-55v-41h-29v41h-58v20h58v29h-58v20h49l-60 93h33q41 -69 51 -88h1q3 8 16 31l35 57h30v0zM574 465q76 0 129.5 -53.5t53.5 -129t-53.5 -129.5t-129 -54t-129 53.5t-53.5 129.5t53.5 129.5t128.5 53.5v0zM672 380q-40 41 -97.5 41t-98 -40.5
t-40.5 -98t40.5 -98t98 -40.5t98 40.5t40.5 98t-41 97.5v0zM293 476h-45v28h-59q-15 0 -23 -2t-10.5 -4t-7.5 -7q-8 -8 -8 -31v-345q0 -28 13 -41t31 -13h64v9h45v-9h594q18 0 31 13t13 31v80q-20 15 -33 35q-17 29 -17 62.5t17 61.5q13 21 33 35v81q0 18 -13 31t-31 13
h-594v-28v0zM293 135h-45v55h45v-55zM293 245h-45v55h45v-55zM293 355h-45v56h45v-56zM189 548h688q41 0 70 -29t29 -69v-86v-17l-15 -8q-16 -8 -26 -23q-9 -16 -9 -34t9 -33q10 -16 26 -24l15 -8v-17v-85q0 -41 -29 -70t-70 -29h-688q-41 0 -70 29t-29 70v335q0 40 29 69
t70 29v0zM484 611q70 14 130 -25q9 -6 17 -13h-224q33 29 77 38v0z" />
    <glyph glyph-name="riqi" unicode="&#xe629;" 
d="M903 743h-220v55q0 11 -8 19t-19.5 8t-19.5 -8t-8 -19v-55h-220v55q0 11 -8 19t-19.5 8t-19.5 -8t-8 -19v-55h-220q-23 0 -39 -16t-16 -39v-688q0 -22 16 -38.5t39 -16.5h770q23 0 39 16.5t16 38.5v688q0 23 -16 39t-39 16zM903 0h-770v688h220v-28q0 -11 8 -19t19.5 -8
t19.5 8t8 19v28h220v-28q0 -11 8 -19t19.5 -8t19.5 8t8 19v28h220v-688zM711 385h55q11 0 19 8.5t8 19.5v55q0 11 -8 19t-19 8h-55q-12 0 -20 -8t-8 -19v-55q0 -11 8 -19.5t20 -8.5zM711 165h55q11 0 19 8.5t8 19.5v55q0 11 -8 19t-19 8h-55q-12 0 -20 -8t-8 -19v-55
q0 -11 8 -19.5t20 -8.5zM546 275h-55q-12 0 -20 -8t-8 -19v-55q0 -11 8 -19.5t20 -8.5h55q11 0 19 8.5t8 19.5v55q0 11 -8 19t-19 8zM546 495h-55q-12 0 -20 -8t-8 -19v-55q0 -11 8 -19.5t20 -8.5h55q11 0 19 8.5t8 19.5v55q0 11 -8 19t-19 8zM326 495h-55q-12 0 -20 -8
t-8 -19v-55q0 -11 8 -19.5t20 -8.5h55q11 0 19 8.5t8 19.5v55q0 11 -8 19t-19 8zM326 275h-55q-12 0 -20 -8t-8 -19v-55q0 -11 8 -19.5t20 -8.5h55q11 0 19 8.5t8 19.5v55q0 11 -8 19t-19 8z" />
    <glyph glyph-name="yiwen" unicode="&#xe601;" 
d="M932 562q-34 81 -97.5 144.5t-144.5 97.5q-85 36 -178 36t-178 -36q-81 -34 -144.5 -97.5t-97.5 -144.5q-36 -85 -36 -178t36 -178q34 -81 97.5 -144.5t144.5 -97.5q85 -36 178 -36t178 36q81 34 144.5 97.5t97.5 144.5q36 85 36 178t-36 178zM512 -12q-107 0 -198.5 53
t-144.5 144.5t-53 198.5t53 198.5t144.5 144.5t198.5 53t198.5 -53t144.5 -144.5t53 -198.5t-53 -198.5t-144.5 -144.5t-198.5 -53zM630 610q-41 38 -112 38q-77 0 -122 -48q-43 -46 -43 -122h58q0 53 24 84q26 36 80 36q47 0 72 -26q24 -24 24 -67q0 -30 -21 -58
q-9 -11 -25 -26q-60 -53 -73 -84q-14 -27 -14 -63v-17h59v17q0 30 14 53q11 21 33 40q49 43 60 56q27 37 27 85q0 65 -41 102zM508 206q-20 0 -31 -12q-13 -12 -13 -31q0 -18 13 -31q12 -12 31 -12q17 0 31 12q13 12 13 31q0 18 -12.5 30.5t-31.5 12.5z" />
  </font>
</defs>
</svg>
