<?xml version="1.0" standalone="no"?>
<!DOCTYPE svg PUBLIC "-//W3C//DTD SVG 1.1//EN" "http://www.w3.org/Graphics/SVG/1.1/DTD/svg11.dtd" >
<svg xmlns="http://www.w3.org/2000/svg">
<metadata>
Created by FontForge 20120731 at Sat Jan 23 16:37:00 2016
 By Ads
</metadata>
<defs>
<font id="iconfont" horiz-adv-x="1024" >
  <font-face 
    font-family="iconfont"
    font-weight="500"
    font-stretch="normal"
    units-per-em="1024"
    panose-1="2 0 6 3 0 0 0 0 0 0"
    ascent="896"
    descent="-128"
    x-height="792"
    bbox="0 -212 1392 896"
    underline-thickness="50"
    underline-position="-100"
    unicode-range="U+0078-E61B"
  />
<missing-glyph horiz-adv-x="374" 
d="M34 0v682h272v-682h-272zM68 34h204v614h-204v-614z" />
    <glyph glyph-name=".notdef" horiz-adv-x="374" 
d="M34 0v682h272v-682h-272zM68 34h204v614h-204v-614z" />
    <glyph glyph-name=".null" horiz-adv-x="0" 
 />
    <glyph glyph-name="nonmarkingreturn" horiz-adv-x="341" 
 />
    <glyph glyph-name="x" unicode="x" horiz-adv-x="1001" 
d="M281 543q-27 -1 -53 -1h-83q-18 0 -36.5 -6t-32.5 -18.5t-23 -32t-9 -45.5v-76h912v41q0 16 -0.5 30t-0.5 18q0 13 -5 29t-17 29.5t-31.5 22.5t-49.5 9h-133v-97h-438v97zM955 310v-52q0 -23 0.5 -52t0.5 -58t-10.5 -47.5t-26 -30t-33 -16t-31.5 -4.5q-14 -1 -29.5 -0.5
t-29.5 0.5h-32l-45 128h-439l-44 -128h-29h-34q-20 0 -45 1q-25 0 -41 9.5t-25.5 23t-13.5 29.5t-4 30v167h911zM163 247q-12 0 -21 -8.5t-9 -21.5t9 -21.5t21 -8.5q13 0 22 8.5t9 21.5t-9 21.5t-22 8.5zM316 123q-8 -26 -14 -48q-5 -19 -10.5 -37t-7.5 -25t-3 -15t1 -14.5
t9.5 -10.5t21.5 -4h37h67h81h80h64h36q23 0 34 12t2 38q-5 13 -9.5 30.5t-9.5 34.5q-5 19 -11 39h-368zM336 498v228q0 11 2.5 23t10 21.5t20.5 15.5t34 6h188q31 0 51.5 -14.5t20.5 -52.5v-227h-327z" />
    <glyph glyph-name="uniE600" unicode="&#xe600;" 
d="M948 -152q0 -10 -5.5 -19.5t-14.5 -14.5t-19 -5q-17 0 -28.5 11.5t-11.5 27.5v4v3v1q-18 130 -118 215.5t-235 86.5h-2h-2h-2h-2q-134 -1 -233 -84.5t-119 -211.5q0 -2 0.5 -5t0.5 -5v-4q0 -5 -1 -10.5t-4 -9.5t-6.5 -8t-8 -6.5t-9.5 -4t-11 -1.5q-16 0 -27.5 12
t-11.5 28l-1 1v1v2q0 4 1 9q16 119 89.5 210.5t183.5 133.5q-64 41 -102 110t-38 149q0 128 87.5 217.5t213.5 89.5t213.5 -89.5t87.5 -217.5q0 -80 -38 -149t-102 -110q72 -27 129.5 -77t94.5 -117.5t48 -145.5q3 -7 3 -13v-4zM743 464q0 96 -67.5 164t-163.5 68t-164 -68
t-68 -164q0 -63 31 -116t84.5 -84t116.5 -31q96 0 163.5 67.5t67.5 163.5z" />
    <glyph glyph-name="uniE601" unicode="&#xe601;" 
d="M518 102q-10 11 -27.5 29.5t-61.5 74t-78 110t-61.5 128t-27.5 136t26 108t64 66.5t75.5 33t64.5 14l26 1q5 0 14.5 -0.5t36 -5t51 -12t54 -24t50.5 -39.5t36 -59.5t15 -82.5q0 -62 -28 -135.5t-61.5 -128t-78 -110t-62 -74.5t-27.5 -29zM698 609q-13 58 -68 96
q-1 0 -3.5 2t-3.5 2q-2 2 -4.5 3t-3.5 2l-5 2l-4 2l-5 2q-3 2 -5.5 3t-4.5 2q-1 1 -16 5q-16 4 -19 5q-19 3 -38 3v0h-12q-7 0 -13 -1l-12 -2q-18 -3 -34 -9t-31 -14v-1q-6 -3 -11 -7t-11 -8q-1 -1 -3 -2.5t-3 -2.5q-2 -2 -4 -3.5t-3 -2.5t-3 -4t-3 -3l-3 -3q-1 -2 -2 -3
l-2 -2q-2 -2 -3 -4t-4 -5q-1 -3 -2 -4q-2 -4 -3.5 -6t-3.5 -5.5t-4 -6.5q0 -2 -1 -4.5t-1 -3.5q-6 -14 -8 -21q-3 -16 -3 -31q0 -25 6 -54.5t17 -57.5t24.5 -57t29 -55t30.5 -50.5t28.5 -43.5t24.5 -33.5t17 -22.5l6 -7q8 9 20 25t43.5 63t56 91t44 101t19.5 101v5v6
q0 2 -1 4v6q-1 2 -1.5 4t-0.5 5zM448 592q0 19 9.5 35t25.5 25.5t35 9.5q29 0 49.5 -20.5t20.5 -49.5q0 -8 -2 -16t-5.5 -15t-8 -13t-10.5 -10.5t-13 -8t-15 -5.5t-16 -2q-11 0 -22 3.5t-19.5 10t-15 15t-10 19.5t-3.5 22zM821 312q-1 -2 -2 -6.5t-3.5 -15.5t-3.5 -20
t1 -17.5t8 -10.5q9 -2 20.5 -1t24 5t23.5 8.5t18 7.5l8 4v-304l-188 -73q-60 -21 -69 -20q-6 1 -73 27.5t-132 48.5t-75 17q-23 -11 -256 -70v304q108 26 116 46q5 11 5 23t-6.5 23t-23 12t-45.5 -11q-21 -10 -41 -21t-33.5 -19t-23 -15t-14.5 -11l-4 -4v-373q0 -2 1 -4
t4.5 -8.5t7 -11t10 -11.5t13 -9.5t15.5 -4.5t19 2q46 16 256 93q249 -89 280 -93q28 -3 177 46.5t150 70.5q2 80 2 241t-2 179q-2 9 -34 5.5t-67.5 -12t-62.5 -17.5z" />
    <glyph glyph-name="uniE602" unicode="&#xe602;" 
d="M230 296l503 -502l61 63l-441 439l441 441l-61 62z" />
    <glyph glyph-name="uniE603" unicode="&#xe603;" 
d="M512 812q-139 0 -257 -68.5t-186.5 -186.5t-68.5 -257t68.5 -257t186.5 -186.5t257 -68.5t257 68.5t186.5 186.5t68.5 257t-68.5 257t-186.5 186.5t-257 68.5zM512 -95q-100 0 -185 49.5t-134 134t-49 184.5q0 97 46.5 180t127.5 133t177 55v48q0 26 16 34.5t38 -5.5
l113 -73q15 -10 20 -22.5t0 -25t-20 -21.5l-114 -73q-22 -14 -37.5 -5t-15.5 35v43q-120 -6 -203.5 -94t-83.5 -209q0 -126 89 -215t215 -89t215 89t89 215q0 11 -1 21.5t-2 21.5l-1 4q0 3 1.5 8t4 9.5t9 8t15.5 3.5t16 -3.5t10.5 -8t5.5 -9.5t3 -8v-4q3 -22 3 -43
q0 -100 -49 -184.5t-134 -134t-185 -49.5z" />
    <glyph glyph-name="uniE604" unicode="&#xe604;" 
d="M509 749q-90 0 -171.5 -35t-140.5 -94t-94 -140.5t-35 -171.5q0 -71 22 -138.5t63 -121.5t95 -95t121.5 -63t139.5 -22q89 0 171 34.5t141 93.5t93.5 141t34.5 171q0 60 -15.5 117.5t-44 105.5t-69 89t-89 69t-105.5 44t-117 16zM678 399q-14 -14 -26.5 -26t-24.5 -25
q-9 -10 -19 -21l-20 -22q-10 -11 -21 -24q-74 -84 -132 -168l-178 175l100 80l85 -82q48 42 96 79q32 25 45 35q27 19 47 33q67 47 104 71l27 -36q-15 -9 -36.5 -27.5t-46.5 -41.5z" />
    <glyph glyph-name="uniE605" unicode="&#xe605;" 
d="M673 -145h-326q-44 0 -76.5 30t-32.5 69v652q0 52 31.5 85.5t77.5 33.5h326q30 0 54.5 -15t39.5 -42t15 -62v-652q0 -39 -32.5 -69t-76.5 -30zM748 616q0 25 -17 50t-38 25h-367q-14 0 -27 -12.5t-20 -29.5t-7 -33v-27h476v27zM748 555h-476v-476h476v476zM748 45h-476
v-91q0 -24 16.5 -44.5t37.5 -20.5h367q9 0 17.5 4t15 10.5t11.5 14.5t8 17.5t3 18.5v91zM510 -79q-4 0 -8.5 1t-8 2.5t-6.5 3.5t-6 5t-5 6.5t-3.5 7t-2.5 7.5t-1 8q0 17 12 29t29 12t29 -12t12 -29q0 -8 -3.5 -15.5t-9 -13t-13 -9t-15.5 -3.5z" />
    <glyph glyph-name="uniE606" unicode="&#xe606;" horiz-adv-x="1449" 
d="M725 729q-117 0 -216 -57.5t-156.5 -156.5t-57.5 -215.5t57.5 -215.5t156.5 -157t216 -58q87 0 167 34.5t137.5 92t91.5 137t34 167t-34 167t-91.5 137t-137.5 91.5t-167 34zM725 -77q-102 0 -188.5 50.5t-137 137t-50.5 188.5t50.5 189t137 137.5t188.5 50.5
q77 0 146.5 -30t120 -80.5t80 -120t29.5 -146.5q0 -102 -50 -188.5t-137 -137t-189 -50.5zM819 278q17 12 30.5 26.5t23 32t15 38t5.5 41.5q0 69 -49 118t-118.5 49t-119 -49t-49.5 -118q0 -42 20 -78.5t54 -59.5q-65 -27 -105.5 -86.5t-40.5 -131.5h48q0 78 56.5 134
t136 56t135.5 -56t56 -134h48q0 72 -40.5 131.5t-105.5 86.5zM605 416q0 33 16 60t44 43t60 16q50 0 85 -34.5t35 -84t-35 -84.5t-85 -35t-85 35t-35 84z" />
    <glyph glyph-name="uniE607" unicode="&#xe607;" 
d="M464 28q0 13 6.5 24t17.5 17.5t24 6.5q20 0 34 -14t14 -34t-14 -34t-34 -14t-34 14t-14 34zM512 -148q-73 0 -141 22.5t-123.5 64t-97 97t-64 123.5t-22.5 141q0 91 35.5 174t95.5 143t143 95.5t174 35.5t174 -35.5t143 -95.5t95.5 -143t35.5 -174q0 -73 -22.5 -141
t-64 -123.5t-97 -97t-123.5 -64t-141 -22.5zM512 684q-104 0 -192.5 -51.5t-140 -140t-51.5 -192.5t51.5 -192.5t140 -140t192.5 -51.5t192.5 51.5t140 140t51.5 192.5t-51.5 192.5t-140 140t-192.5 51.5zM512 138q-13 0 -22.5 9.5t-9.5 22.5v54q0 19 6 36.5t19 35t22.5 28
t27.5 28.5q18 17 26.5 26.5t17.5 23.5t9 24q0 40 -28 68.5t-68 28.5t-68 -27.5t-28 -67.5q0 -4 -1 -8t-3 -7.5t-5 -6.5t-6.5 -5t-8 -3.5t-8.5 -1.5q-13 0 -22.5 9.5t-9.5 22.5q0 66 47 112.5t113 46.5q43 0 80 -21.5t58.5 -58.5t21.5 -81q0 -14 -4.5 -28t-10 -24.5t-17 -24
t-18.5 -21t-21 -21.5q-12 -11 -17.5 -17t-14.5 -16.5t-13.5 -17.5t-8 -15.5t-3.5 -16.5v-54q0 -13 -9.5 -22.5t-22.5 -9.5z" />
    <glyph glyph-name="uniE608" unicode="&#xe608;" 
d="M855 619h-37q-1 0 -3.5 0.5t-9 1t-14.5 2t-20.5 4.5t-25.5 6.5t-30 9.5t-35 13t-36 15.5t-32 15.5t-27 14t-22 12.5t-16.5 10.5t-10 6.5t-3.5 2.5l-23 16l-22 -16q-54 -40 -147 -77q-14 -6 -28 -10.5t-25 -8t-21.5 -6.5t-18.5 -4.5t-16 -2.5l-12 -3q-5 -1 -9 -1
t-5.5 -0.5t-2.5 -0.5h-38v-377q0 -34 13.5 -71t35.5 -70t51 -65.5t59.5 -59.5t61 -50.5t56 -39.5t44 -25t24.5 -9q12 0 49.5 22t87.5 61.5t97 87t79 106.5t32 113v377zM470 134l-161 136l49 57l103 -86l197 222l58 -49z" />
    <glyph glyph-name="uniE609" unicode="&#xe609;" 
d="M741 301l-449 449v-119l330 -330l-330 -330v-119zM741 301z" />
    <glyph glyph-name="uniE60A" unicode="&#xe60a;" 
d="M692 326q4 3 7 6.5t6 6.5q13 -5 28.5 -9.5t43 -8t54.5 -2t62 12.5t66 31q-7 -1 -18 -2.5t-41.5 -2t-56.5 3t-53 15.5t-39 31v1v0h-1l-6 -7l-8 -8l-10 -10q-3 -3 -10.5 -10t-13 -11.5t-14.5 -11t-17 -12t-18 -11t-21 -10.5q-37 -17 -85.5 -25.5t-94.5 -8.5q-50 0 -93.5 14
t-65 28t-48 35.5t-30.5 24.5q-6 3 -15.5 9t-13 7t-11 2.5t-15 -1t-19.5 -8.5q-23 -11 -42.5 -33t-26.5 -39l-8 -16q35 14 69 15t51 -5t27 -13l2 -1v0q17 -12 36 -23q-5 -17 -19 -32t-25 -21l-11 -6q61 10 90 42q36 -14 75 -21.5t81 -7.5q30 0 58.5 3t53.5 10q30 -44 113 -52
q-3 1 -7 2.5t-14.5 7.5t-18.5 13.5t-14 20t-6 26.5q7 3 13.5 6.5t13.5 7.5q11 -10 28.5 -19.5t63.5 -18t103 -4.5l-13 3q-7 1 -27.5 7.5t-37.5 15.5t-33.5 26t-23.5 37z" />
    <glyph glyph-name="uniE60B" unicode="&#xe60b;" 
d="M780 446h-512v98q0 92 68.5 155.5t167.5 63.5q98 0 162.5 -63t64.5 -156v-49q0 -10 7.5 -17t17.5 -7t17 7t7 17v49q0 114 -78.5 190.5t-195.5 77.5h-3q-79 -1 -144 -36.5t-102.5 -97t-37.5 -134.5v-100q-62 -9 -104 -57t-42 -111v-317q0 -71 50 -121t121 -50h536
q47 0 86 23t62 62t23 86v317q0 46 -23 85.5t-62.5 62t-85.5 22.5zM902 -41q0 -51 -35.5 -86.5t-86.5 -35.5h-536q-51 0 -86.5 35.5t-35.5 86.5v317q0 33 16.5 61t44.5 44.5t61 16.5h536q51 0 86.5 -36t35.5 -86v-317zM512 300q-30 0 -57 -11.5t-46.5 -31t-31 -47
t-11.5 -56.5q0 -54 35 -94.5t87 -49.5v-1v-1v-74q0 -3 0.5 -6t2 -6t4 -5t5 -3.5t6 -2.5t6.5 -1q5 0 9.5 2t7.5 5t5 7.5t2 9.5v74v1v1q52 9 87 49.5t35 94.5q0 60 -43 103t-103 43zM512 56q-40 0 -69 28.5t-29 69t29 69t69 28.5t68.5 -28.5t28.5 -68.5q0 -12 -2.5 -23
t-7 -20.5t-11.5 -18t-15.5 -15t-18 -11.5t-20.5 -7.5t-22 -2.5z" />
    <glyph glyph-name="uniE60C" unicode="&#xe60c;" 
d="M873 -148h-640q-18 0 -30.5 12.5t-12.5 30.5v149h-85v171h85v170h-85v171h85v149q0 12 5.5 21.5t15.5 15.5t22 6h640q11 0 21 -6t15.5 -15.5t5.5 -21.5v-810q0 -12 -5.5 -21.5t-15.5 -15.5t-21 -6zM873 663q0 8 -3.5 16t-9.5 13.5t-13.5 9t-16.5 3.5h-555q-11 0 -21 -5.5
t-15.5 -15.5t-5.5 -21v-726q0 -17 12.5 -29.5t29.5 -12.5h555q9 0 16.5 3.5t13.5 9t9.5 13.5t3.5 16v726zM318 108h469v-43h-469v43zM318 321h469v-42h-469v42zM318 535h299v-43h-299v43z" />
    <glyph glyph-name="uniE60D" unicode="&#xe60d;" 
d="M588 209h1q26 17 56 29l6 2l-5 4q-22 11 -43 19l-12 5l11 7q25 17 45 39.5t33.5 48.5t21 55.5t7.5 59.5q0 103 -73.5 176t-176.5 73q-102 0 -175 -72.5t-73 -174.5q0 -31 7.5 -60t21 -55t33.5 -48.5t45 -39.5l11 -7l-12 -5q-112 -44 -180 -143q-67 -96 -70 -213v-4h58v3
q4 122 85 213q85 95 210 110h1h1h1q5 0 9.5 0.5t14.5 0.5h19h14q6 0 12 -0.5t11 -0.5h4q41 -6 79 -22h2zM459 282q-82 0 -140 58t-58 140t58 140t140.5 58t140.5 -58t58 -140t-58 -140q-19 -19 -41.5 -32t-47.5 -19.5t-52 -6.5zM435 -18h308l-3 -109l217 158l-214 165v-125
h-314zM957 31z" />
    <glyph glyph-name="uniE60E" unicode="&#xe60e;" horiz-adv-x="1336" 
d="M1211 -128h-1086q-52 0 -88.5 37.5t-36.5 91.5v766q0 35 17 64.5t45.5 47t62.5 17.5h1086q17 0 33 -4.5t30 -13t25.5 -20.5t19.5 -26t12.5 -30.5t4.5 -34.5v-766q0 -35 -17 -64.5t-45.5 -47t-62.5 -17.5zM1252 767q0 8 -2 14.5t-6 11.5t-9 9t-11 6.5t-13 2.5h-1086
q-4 0 -7 -1l-8 -2q-3 -1 -6 -3t-5.5 -4.5t-5 -5.5t-4 -6t-3 -6.5t-2 -7.5t-0.5 -8v-127h1168v127zM1252 469h-1168v-468q0 -18 12 -31t29 -13h1086q17 0 29 13t12 31v468zM543 43h-334q-18 0 -30 12.5t-12 29.5q0 18 12.5 30.5t29.5 12.5h334q17 0 29 -12.5t12 -30.5
q0 -17 -12 -29.5t-29 -12.5z" />
    <glyph glyph-name="uniE60F" unicode="&#xe60f;" 
d="M323 446zM282 446q0 17 12 29t29 12q11 0 20.5 -5.5t15 -14.5t5.5 -21q0 -27 -25 -37q-8 -3 -16 -4q-17 0 -29 12t-12 29zM510 446zM469 446q0 12 5.5 21t15 14.5t20.5 5.5q17 0 29 -12t12 -29t-12 -29t-29 -12t-29 12t-12 29zM698 446zM657 446q0 12 5.5 21t14.5 14.5
t21 5.5q17 0 29 -12t12 -29t-12 -29t-29 -12q-9 0 -16.5 3.5t-13 9t-8.5 13t-3 15.5zM843 113h-333q-8 0 -14 6t-6 14.5t6 14.5t14 6h333q40 0 68 28.5t28 68.5v391q0 40 -28 68.5t-68 28.5h-665q-19 0 -37 -8t-31 -21t-21 -30.5t-8 -37.5v-391q0 -40 28.5 -68.5t68.5 -28.5
h43q4 0 7.5 -1.5t6.5 -4t4.5 -6.5t1.5 -8q0 -9 -6 -15t-14 -6h-43q-57 0 -97.5 40.5t-40.5 97.5v391q0 57 40.5 97.5t97.5 40.5h665q57 0 97 -40.5t40 -97.5v-391q0 -37 -18.5 -69t-50 -50.5t-68.5 -18.5zM256 -45q-23 0 -39.5 16t-16.5 40v123q0 4 1.5 8t4.5 6.5t6.5 4
t8.5 1.5q8 0 14 -6t6 -14v-123q0 -9 7.5 -13.5t15.5 0.5l235 153q4 2 8 3t7.5 0t7 -3.5t6.5 -5.5q4 -7 2.5 -15.5t-8.5 -12.5l-235 -153q-4 -2 -7.5 -4t-7.5 -3t-8 -1.5t-8 -0.5z" />
    <glyph glyph-name="uniE610" unicode="&#xe610;" 
d="M512 834q82 -64 169.5 -96t214.5 -32v-332q0 -58 -35 -134.5t-88.5 -143t-124.5 -113t-136 -46.5t-136 46.5t-124.5 113t-88.5 143t-35 134.5v332q126 0 214 32t170 96zM512 759q-45 -34 -86.5 -56t-101.5 -36.5t-132 -14.5v-276q0 -39 18.5 -88.5t51 -97t72.5 -88
t87 -65.5t90.5 -25t91 25t87.5 65.5t72.5 88t51 97t18.5 88.5v276q-105 0 -178.5 27t-141.5 80zM737 518l-24 24q-5 5 -12.5 4t-13.5 -7l-229 -230l-122 116q-4 4 -9 6t-9.5 1t-7.5 -4l-24 -25q-5 -5 -3.5 -12.5t7.5 -13.5l153 -145q4 -5 10 -6q4 -2 10 -0.5t11 6.5l260 260
q6 6 7 13.5t-4 12.5z" />
    <glyph glyph-name="uniE611" unicode="&#xe611;" horiz-adv-x="1392" 
d="M795 493h402v-69h-402v69zM918 -17l-4 4h-788q-16 0 -29 7t-20 20t-7 28v729q0 24 16 41.5t40 17.5h1123q15 0 28 -7.5t20.5 -20t7.5 -28.5v-437l3 -3q14 -9 26.5 -19.5t22.5 -22.5l14 -17v513q0 45 -32 76.5t-76 31.5h-1155q-44 0 -76 -31.5t-32 -76.5v-763
q0 -45 32 -76.5t76 -31.5h855l-11 14q-14 17 -34 52zM795 341h119v-70h-119v70zM795 643h402v-70h-402v70zM1162 330q-97 0 -164 -66.5t-67 -162.5q0 -94 68.5 -161.5t162.5 -67.5q63 0 116 30.5t83.5 83t30.5 115.5q0 47 -18.5 90t-49.5 73t-73.5 48t-88.5 18zM1158 -38
q-2 -2 -5.5 -4t-7.5 -3t-8 -1t-8.5 1t-8.5 3t-7 4l-98 97q-8 8 -8 21t8 21t21.5 8t24.5 -8l76 -76l150 146q3 2 5.5 3.5t6 2.5t7 1.5t7 0t7 -1.5t7 -2.5t6.5 -3.5q8 -8 8 -21t-8 -21zM563 413q62 55 62 138q0 77 -54 131t-131 54t-131 -54t-54 -131q0 -83 62 -138
q-78 -36 -125.5 -108.5t-47.5 -160.5h74q0 92 65 157t157 65t157 -65t65 -157h74q0 88 -47.5 160.5t-125.5 108.5zM440 662q46 0 78.5 -32.5t32.5 -78.5t-32.5 -78.5t-78.5 -32.5t-78.5 32.5t-32.5 78.5q0 15 4 29.5t11 26.5t17.5 22.5t22.5 17.5t26.5 11t29.5 4z" />
    <glyph glyph-name="uniE612" unicode="&#xe612;" 
d="M512 737q-89 0 -170 -34.5t-139.5 -93t-93 -139.5t-34.5 -170t34.5 -170t93 -139.5t139.5 -93t170 -34.5t170 34.5t139.5 93t93 139.5t34.5 170t-34.5 170t-93 139.5t-139.5 93t-170 34.5zM743 101l-32 -32l-199 199l-199 -199l-32 32l199 199l-199 199l32 32l199 -199
l199 199l32 -32l-199 -199z" />
    <glyph glyph-name="uniE613" unicode="&#xe613;" 
d="M333 7q-75 0 -138.5 20t-101 55.5t-37.5 76.5v-60q0 -64 81 -109t196 -45q76 0 140 20.5t101 56t37 77.5v61q0 -64 -81 -108.5t-197 -44.5zM333 -100q-114 0 -195.5 44.5t-81.5 108.5v-61q0 -63 81 -108t196 -45q76 0 140 20.5t101 55.5t37 77v61q0 -65 -85 -111
q-82 -42 -193 -42zM689 78h-5h-4h-4h-4h-5h-4q-1 -1 -1 -3v-5q3 -8 3 -17v-36h24q76 0 140 20.5t101 55.5t37 77v61q0 -25 -14 -48.5t-40 -42.5t-60 -33t-76.5 -21.5t-87.5 -7.5zM689 184q-4 0 -8.5 0.5t-8.5 0.5h-9q-1 -1 -1 -3v-5q3 -8 3 -17v-36q6 0 12 -0.5t12 -0.5
q76 0 140 20.5t101 56t37 77.5v61q0 -42 -37 -77.5t-101 -56t-140 -20.5zM689 398q-32 0 -63.5 4t-58.5 11.5t-51 18t-43 23.5t-33 28t-21.5 32t-7.5 35v-29v-23v-8q0 -27 16 -51.5t45 -44.5q58 -16 101 -43q18 -5 36.5 -8t39 -4.5t40.5 -1.5q57 0 108.5 12t88.5 32.5t59 49
t22 59.5v61q0 -64 -81.5 -108.5t-196.5 -44.5zM689 291q-9 0 -18.5 0.5t-18.5 1t-17 1.5q10 -15 17 -31t10 -32q14 -1 27 -1q76 0 140 20.5t101 56t37 76.5v61q0 -63 -81.5 -108t-196.5 -45zM689 750q-115 0 -196.5 -45t-81.5 -108.5t81.5 -108.5t196.5 -45t196.5 45
t81.5 108.5t-81.5 108.5t-196.5 45zM333.5 359q-115.5 0 -196.5 -45t-81 -108.5t81 -108.5t196.5 -45t196.5 45t81 108.5t-81 108.5t-196.5 45z" />
    <glyph glyph-name="uniE614" unicode="&#xe614;" 
d="M700 386l78 -131l95 33l-269 209l-24 -7zM518 334l-252 196l-61 -102l303 -242zM502 159l-266 213l-91 -25l281 -214zM660 388l-230 199l-145 -40l251 -195zM543 328l-10 -158l220 76l-71 122zM62 209l339 -260l4 169l-273 207zM685 65l10 134l-99 -34zM145 347zM890 267
l-169 -59l-11 -152l250 78zM679 35l-109 121l-140 -48l-4 -155l255 80z" />
    <glyph glyph-name="uniE615" unicode="&#xe615;" 
d="M512 -169q-217 0 -316 78t-99 241q0 133 90 256t218 167h214q128 -44 218 -167t90 -256q0 -163 -99 -241t-316 -78zM627 184q10 0 18 5t12.5 13t4.5 17q0 15 -10 25.5t-25 10.5h-71v1v1l83 85q17 19 -7 42q-10 11 -24.5 12.5t-22.5 -7.5l-72 -76l-78 77q-3 3 -7 4.5
t-8.5 1.5t-9 -1.5t-9 -4.5t-8.5 -7q-11 -10 -13 -22.5t6 -20.5l79 -79q-1 -1 -2 -2.5t-1 -3.5h-65v0q-14 0 -24.5 -10.5t-10.5 -25t10.5 -25t24.5 -10.5v0h71v-35h-71v0q-14 0 -24.5 -10.5t-10.5 -25t10.5 -25t24.5 -10.5v0h71v-36h1q-1 -2 -1 -4v-4q0 -18 13 -31t31 -13
t31 13t13 31q0 4 -1 8h1v36h71q15 0 25 10.5t10 25t-10 25t-25 10.5h-71v35h71zM680 714l-8 -9v-1l-63 -78h-212l-63 78q-1 1 -1 2l-7 8l2 3q-2 5 -2 6q0 18 17 25l1 1q87 18 159 18q34 0 73.5 -4.5t62.5 -8.5l23 -5l1 -1q17 -7 17 -25q0 -1 -1 -6zM680 714z" />
    <glyph glyph-name="uniE616" unicode="&#xe616;" 
d="M810 -1q0 -17 -12.5 -29.5t-29.5 -12.5h-576q-18 0 -30.5 12.5t-12.5 29.5v534q0 17 12.5 29.5t30.5 12.5h277v64h-320q-7 0 -14.5 -1.5t-13.5 -4.5t-12 -7.5t-10 -10t-7.5 -12t-5 -13.5t-1.5 -15v-618q0 -27 19 -45.5t45 -18.5h661q27 0 45.5 18.5t18.5 45.5v213h-64
v-171zM930 523l-173 172q-6 6 -14 8t-16.5 0t-14.5 -8t-8 -14.5t0 -16.5t8 -14l99 -99q-167 3 -308 -101.5t-196 -267.5l59 -29q32 96 106 176t174 123t199 32l-132 -132q-4 -4 -6 -8.5t-3 -9t0 -9.5t3 -9.5t6 -8.5q9 -9 22 -9t23 9l167 167l2 2q2 1 3 1q9 10 9 23t-9 23z
" />
    <glyph glyph-name="uniE617" unicode="&#xe617;" 
d="M459 480q0 23 16 38.5t39 15.5q22 0 38 -15.5t16 -38.5v-188q0 -23 -16 -38.5t-38 -15.5q-15 0 -28 7t-20 19.5t-7 27.5v188zM451 130q0 25 18.5 43.5t44.5 18.5q24 0 42.5 -18.5t18.5 -43.5t-18.5 -43.5t-42.5 -18.5q-7 0 -13 1t-11.5 3.5t-10.5 6t-9.5 7.5t-7.5 9
t-5.5 10.5t-4 12t-1.5 12.5v0zM512 658q-97 0 -179.5 -48t-130.5 -130.5t-48 -179.5q0 -49 12.5 -95.5t36 -85.5t56.5 -72t72 -56.5t85.5 -36t95.5 -12.5q97 0 179.5 48t130.5 130.5t48 179.5q0 73 -28 139.5t-76 114.5t-114.5 76t-139.5 28zM512 658z" />
    <glyph glyph-name="uniE618" unicode="&#xe618;" 
d="M346 138l221 64l-157 158zM939 569l-158 158l-350 -346l158 -158zM898 -9q0 -42 -29 -70t-69 -28h-597q-42 0 -70 28.5t-28 69.5v597q0 41 28.5 69.5t69.5 28.5h392l98 105h-529q-74 0 -125 -65q-39 -51 -39 -112v-662q0 -67 48.5 -115.5t115.5 -48.5h668q69 0 119 48.5
t50 115.5v529l-103 -98v-392zM1011 701l-98 98q-13 13 -31 12t-31 -14l-47 -47l158 -158l49 49q13 13 13 31t-13 29z" />
    <glyph glyph-name="uniE619" unicode="&#xe619;" 
d="M61 344h897v-87h-897v87zM466 749h87v-897h-87v897z" />
    <glyph glyph-name="uniE61A" unicode="&#xe61a;" 
d="M768 -32h-96v672h-96v-672h-128v672h-96v-672h-96v672h512v-672zM416 800h192v-64h-192v64zM880 736h-176v96q0 26 -19 45t-45 19h-256q-26 0 -45 -19t-19 -45v-96h-176q-20 0 -34 -14t-14 -34t14 -34t34 -14h16v-704q0 -26 19 -45t45 -19h576q26 0 45 19t19 45v704h16
q20 0 34 14t14 34t-14 34t-34 14zM880 736z" />
    <glyph glyph-name="uniE61B" unicode="&#xe61b;" 
d="M399 -156l-388 323l73 88l294 -245l533 746l93 -66z" />
  </font>
</defs>
</svg>
