<?xml version="1.0" standalone="no"?>
<!DOCTYPE svg PUBLIC "-//W3C//DTD SVG 1.1//EN" "http://www.w3.org/Graphics/SVG/1.1/DTD/svg11.dtd" >
<svg xmlns="http://www.w3.org/2000/svg">
<metadata>
Created by FontForge 20120731 at Fri Aug 19 14:53:34 2016
 By admin
</metadata>
<defs>
<font id="iconfont" horiz-adv-x="1024" >
  <font-face 
    font-family="iconfont"
    font-weight="500"
    font-stretch="normal"
    units-per-em="1024"
    panose-1="2 0 6 3 0 0 0 0 0 0"
    ascent="896"
    descent="-128"
    x-height="792"
    bbox="0 -224 1570 896"
    underline-thickness="50"
    underline-position="-100"
    unicode-range="U+0078-E62F"
  />
<missing-glyph horiz-adv-x="374" 
d="M34 0v682h272v-682h-272zM68 34h204v614h-204v-614z" />
    <glyph glyph-name=".notdef" horiz-adv-x="374" 
d="M34 0v682h272v-682h-272zM68 34h204v614h-204v-614z" />
    <glyph glyph-name=".null" horiz-adv-x="0" 
 />
    <glyph glyph-name="nonmarkingreturn" horiz-adv-x="341" 
 />
    <glyph glyph-name="x" unicode="x" horiz-adv-x="1001" 
d="M281 543q-27 -1 -53 -1h-83q-18 0 -36.5 -6t-32.5 -18.5t-23 -32t-9 -45.5v-76h912v41q0 16 -0.5 30t-0.5 18q0 13 -5 29t-17 29.5t-31.5 22.5t-49.5 9h-133v-97h-438v97zM955 310v-52q0 -23 0.5 -52t0.5 -58t-10.5 -47.5t-26 -30t-33 -16t-31.5 -4.5q-14 -1 -29.5 -0.5
t-29.5 0.5h-32l-45 128h-439l-44 -128h-29h-34q-20 0 -45 1q-25 0 -41 9.5t-25.5 23t-13.5 29.5t-4 30v167h911zM163 247q-12 0 -21 -8.5t-9 -21.5t9 -21.5t21 -8.5q13 0 22 8.5t9 21.5t-9 21.5t-22 8.5zM316 123q-8 -26 -14 -48q-5 -19 -10.5 -37t-7.5 -25t-3 -15t1 -14.5
t9.5 -10.5t21.5 -4h37h67h81h80h64h36q23 0 34 12t2 38q-5 13 -9.5 30.5t-9.5 34.5q-5 19 -11 39h-368zM336 498v228q0 11 2.5 23t10 21.5t20.5 15.5t34 6h188q31 0 51.5 -14.5t20.5 -52.5v-227h-327z" />
    <glyph glyph-name="uniE600" unicode="&#xe600;" 
d="M714 -148q18 17 56 54q-72 70 -206 201t-191 188l1 1l1 1l1 1l1 1l1 1l1 1l1 1l1 1l1 1l1 1l1 1l1 1l1 1l1 1l1 1l1 1l1 1l1 1l1 1l1 1l1 1l1 1l1 1l1 1l1 1l1 1l1 1l1 1l1 1l1 1l1 1l1 1l1 1l1 1h1l1 1l1 1l1 1l1 1l1 1l1 1l1 1l1 1l1 1l1 1l1 1l1 1l1 1l2 1l1 1l1 1
l1 1l1 1l1 1l1 1l1 1l1 1l1 1l1 1l1 1l1 1l1 1l1 1l1 1l1 1l1 1l1 1l1 1l1 1l1 1l1 1l1 1l1 1l1 1l1 1l1 1l1 1l1 1l1 1l1 1l1 1l1 1l1 1l1 1l1 1l1 1l1 1l1 1l1 1l1 1l1 1l1 1l1 1l1 1l1 1l1 1l1 1l1 1l1 1l1 1l1 1l1 1l1 1l1 1l1 1l1 1l1 1l1 1l1 1l1 1l1 1l1 1l1 1l1 1
l1 1l1 1l1 1l1 1l1 1l1 1l1 1l1 1h1l1 1l1 1l1 1l1 1l1 1l1 1l1 1l1 1l1 1l1 1l1 1l1 1l1 1l1 1l1 1l1 1l1 1l1 1l1 1l1 1l1 1l1 1l1 1l1 1l1 1l2 2l1 1l1 1l1 1l1 1l1 1l1 1l1 1l1 1l1 1l1 1l1 1l1 1l1 1l1 1l1 1l1 1l1 1l1 1l1 1l1 1l1 1l1 1l1 1l1 1l1 1l1 1l1 1l1 1l1 1
l1 1l1 1l1 1l1 1l1 1l1 1l1 1l1 1l1 1l1 1l1 1l1 1l1 1l1 1l1 1l1 1l1 1l1 1l1 1l1 1l1 1l1 1l1 1l1 1l1 1l1 1l1 1l1 1l1 1l1 1l1 1l1 1h1l1 1l1 1l1 1l1 1l1 1l1 1l1 1l1 1l1 1l1 1l1 1l1 1l1 1l1 1l1 1l1 1l1 1l1 1l1 1l1 1l1 1l1 1l1 1l1 1l1 1l1 1l1 1l1 1l1 1l1 1l1 1
l1 1l1 1l1 1l1 1l1 1l1 1l1 1l1 1l1 1l1 1l1 1l1 1l1 1l1 1l1 1l1 1l1 1l1 1l1 1l1 1l1 1l1 1l1 1l1 1l1 1l1 1l1 1l1 1l1 1l1 1l1 1l1 1l1 1l1 1l1 1l1 1l1 1l1 1l1 1l1 1l1 1l1 1l1 1l1 1l1 1l1 1l1 1l1 1h1l1 1l1 1l1 1l1 1l1 1l1 1l1 1l1 1l1 1l1 1l1 1l1 1l1 1l1 1l1 1
l1 1l1 1l1 1l1 1l1 1l1 1l1 1l1 1l1 1l1 1l1 1l1 1l1 1l1 1l1 1l1 1l1 1l1 1l1 1l1 1l1 1l1 1l1 1l1 1l1 1l1 1l1 1l1 1l1 1l1 1l1 1l1 1l1 1l1 1l1 1l1 1l1 1l1 1l1 1l1 1l1 1l1 1l1 1l1 1l1 1l1 1l1 1l1 1l1 1l1 1l1 1l1 1h1l1 1l1 1l1 1l1 1l1 1l1 1l1 1l1 1l1 1l1 1l1 1
l1 1l1 1l1 1l1 1l1 1l1 1l1 1l1 1l1 1l1 1l1 1l1 1l1 1l1 1l1 1l1 1l1 1l1 1l1 1l1 1l1 1l1 1l1 1l1 1l1 1l2 1q-11 10 -32.5 31t-31.5 30l-1 -1l-1 -1l-1 -1h-1l-1 -1l-1 -1l-1 -1l-1 -1l-1 -1l-1 -1l-1 -1l-1 -1l-1 -1l-1 -1l-1 -1l-1 -1l-1 -1l-1 -1l-1 -1l-1 -1l-1 -1
l-1 -1l-1 -1l-1 -1l-1 -1l-1 -1l-1 -1l-1 -1l-1 -1l-1 -1l-1 -1l-1 -1l-1 -1l-1 -1l-1 -1l-1 -1l-1 -1l-1 -1l-1 -1l-1 -1l-1 -1l-1 -1l-1 -1l-1 -1l-1 -1l-1 -1l-1 -1l-1 -1l-1 -1h-1l-1 -1l-1 -1l-1 -1l-1 -1l-1 -1l-1 -1l-1 -1l-1 -1l-1 -1l-1 -1l-1 -1l-1 -1l-1 -1
l-1 -1l-1 -1l-1 -1l-1 -1l-1 -1l-1 -1l-1 -1l-1 -1l-1 -1l-1 -1l-1 -1l-1 -1l-1 -1l-1 -1l-1 -1l-1 -1l-1 -1l-1 -1l-1 -1l-1 -1l-1 -1l-1 -1l-1 -1l-1 -1l-1 -1l-1 -1l-1 -1l-1 -1l-1 -1l-1 -1l-1 -1l-1 -1l-1 -1l-1 -1l-1 -1l-1 -1l-1 -1l-1 -1l-1 -1h-1l-1 -1l-1 -1
l-1 -1l-1 -1l-1 -1l-1 -1l-1 -1l-1 -1l-1 -1l-1 -1l-1 -1l-1 -1l-1 -1l-1 -1l-1 -1l-1 -1l-1 -1l-1 -1l-1 -1l-1 -1l-1 -1l-1 -1l-1 -1l-1 -1l-1 -1l-1 -1l-1 -1l-1 -1l-1 -1l-1 -1l-1 -1l-1 -1l-1 -1l-1 -1l-1 -1l-1 -1l-1 -1l-1 -1l-1 -1l-1 -1l-1 -1l-1 -1l-1 -1l-1 -1
l-1 -1l-1 -1l-1 -1l-1 -1l-1 -1l-1 -1l-1 -1l-1 -1l-1 -1l-1 -1l-1 -1l-1 -1l-1 -1l-1 -1l-1 -1l-1 -1l-1 -1l-1 -1l-1 -1l-1 -1l-1 -1l-1 -1l-1 -1l-1 -1l-1 -1h-1l-1 -1l-1 -1l-1 -1l-1 -1l-1 -1l-1 -1l-1 -1l-1 -1l-1 -1l-1 -1l-1 -1l-1 -1l-1 -1l-1 -1l-1 -1l-1 -1
l-1 -1l-1 -1l-1 -1l-1 -1l-1 -1l-1 -1l-1 -1l-1 -1l-1 -1l-1 -1l-1 -1l-1 -1l-1 -1l-1 -1l-1 -1l-1 -1l-1 -1l-1 -1l-1 -1l-1 -1h-1l-1 -1l-1 -1l-1 -1l-1 -1l-1 -1l-1 -1l-1 -1l-1 -1l-1 -1l-1 -1l-1 -1l-1 -1l-1 -1l-1 -1l-1 -1l-1 -1l-1 -1l-1 -1l-1 -1l-1 -1l-1 -1
l-1 -1l-1 -1l-1 -1l-1 -1l-1 -1l-1 -1l-1 -1l-1 -1l-1 -1l-1 -1l-1 -1l-1 -1l-1 -1l-1 -1l-1 -1l-1 -1h-1l-1 -1l-1 -1l-1 -1l-1 -1l-1 -1l-1 -1l-1 -1l-1 -1l-1 -1l-1 -1l-1 -1l-1 -1l-1 -1l-1 -1l-1 -1l-1 -1l-1 -1l-1 -1l-1 -1l-1 -1l-1 -1l-1 -1l-1 -1l-1 -1l-1 -1
l-1 -1l-1 -1l-1 -1l-1 -1l-1 -1l-1 -1l-1 -1l-1 -1l-1 -1l-1 -1l-1 -1l-1 -1l-1 -1l-1 -1h-1l-1 -1l-1 -1l-1 -1l-1 -1l-1 -1v-1l-1 -1l-1 -1l-1 -1l-1 -1l-1 -1l-1 -1l-1 -1l-1 -1l-1 -1l-1 -1l-1 -1l-1 -1l-1 -1l-1 -1l-1 -1l-1 -1l-1 -1l-1 -1l-1 -1l-1 -1l-1 -1l-1 -1
l-1 -1l-1 -1l-1 -1l-1 -1l-1 -1l-1 -1l-1 -1l-1 -1l-1 -1l-1 -1l-1 -1l-1 -1l-1 -1h-1l-1 -1l-1 -1l-1 -1l-1 -1l-1 -1l-1 -1l-1 -1l-1 -1l-1 -1l-1 -1l-1 -1l-1 -1l-1 -1l-1 -1l-1 -1l-1 -1l-1 -1l-1 -1l-1 -1l-1 -1l-1 -1l-1 -1l-1 -1l-1 -1l-1 -1l-1 -1l-1 -1l-1 -1
l-1 -1l-1 -1l-1 -1l-1 -1l-1 -1l-1 -1l-1 -1l-1 -1l-1 -1l-1 -1l-1 -1l-1 -1l-1 -1l-1 -1l-1 -1h-1l-1 -1l-1 -1l-1 -1l-1 -1l-1 -1l-1 -1l-1 -1l-1 -1l-1 -1l-1 -1l-1 -1l-1 -1l-1 -1l-1 -1l-1 -1l-1 -1l-1 -1l-1 -1l-1 -1l-1 -1l-1 -1l-1 -1l-1 -1l-1 -1l-1 -1l-1 -1
l-1 -1l-1 -1l-1 -1l-1 -1l-1 -1l-1 -1l-1 -1l-1 -1l-1 -1l-1 -1l-1 -1l-1 -1l-1 -1l-1 -1l-1 -1l-1 -1l-1 -1l-1 -1l-1 -1h-1l-1 -1l-1 -1l-1 -1l-1 -1l-1 -1l-1 -1l-1 -1l-1 -1l-1 -1l-1 -1l-1 -1l-1 -1l-1 -1l-1 -1l-1 -1l-1 -1l-1 -1l-1 -1l-1 -1l-1 -1l-1 -1l-1 -1
l-1 -1l-1 -1l-1 -1l-1 -1l-1 -1l-1 -1l-1 -1l-1 -1l-1 -1l-1 -1l-1 -1l-1 -1l-1 -1l-2 -1l1 -1l1 -1l1 -1l1 -1l1 -1l1 -1l1 -1l1 -1l1 -1l1 -1l1 -1l1 -1l1 -1l1 -1l1 -1l1 -1l1 -1l1 -1l2 -1l1 -1l1 -1l1 -1l1 -1l1 -1l1 -1l1 -1l1 -1l1 -1l1 -1l1 -1l1 -1l1 -1l1 -1l1 -1
h1l1 -1l1 -1l1 -1l1 -1l1 -1l1 -1l1 -1l1 -1l1 -1l1 -1l1 -1l1 -1l1 -1l1 -1l1 -1l1 -1l1 -1l1 -1l1 -1l1 -1l1 -1l1 -1l1 -1l1 -1l1 -1l1 -1l1 -1l1 -1l1 -1l1 -1l1 -1l1 -1l1 -1l1 -1l1 -1l1 -1l1 -1l1 -1l1 -1l1 -1l1 -1l1 -1l1 -1l1 -1h1l1 -1l1 -1l1 -1l1 -1l1 -1l1 -1
l1 -1l1 -1l1 -1l1 -1l1 -1l1 -1l1 -1l1 -1l1 -1l1 -1l1 -1l1 -1l1 -1l1 -1l1 -1l1 -1l1 -1l1 -1l1 -1l1 -1l1 -1l1 -1l1 -1l1 -1l1 -1l1 -1l1 -1l1 -1l1 -1l1 -1l1 -1l1 -1l1 -1l1 -1l1 -1h1l1 -1l1 -1l1 -1l1 -1l1 -1l1 -1l1 -1l1 -1l1 -1l1 -1l1 -1l1 -1l1 -1l1 -1l1 -1
l1 -1l1 -1l1 -1l1 -1l1 -1l1 -1l1 -1l1 -1l1 -1l1 -1l1 -1l1 -1l1 -1l1 -1l1 -1l1 -1l1 -1l1 -1l1 -1l1 -1l1 -1l1 -1l1 -1l1 -1l1 -1h1l1 -1l1 -1l1 -1l1 -1l1 -1l1 -1l1 -1l1 -1l1 -1l1 -1l1 -1l1 -1l1 -1l1 -1l1 -1l1 -1l1 -1l1 -1l1 -1l1 -1l1 -1l1 -1l1 -1l1 -1l1 -1
l1 -1l1 -1l1 -1l1 -1l1 -1l1 -1l1 -1l1 -1l1 -1l1 -1l1 -1l1 -1l1 -1h1l1 -1l1 -1l1 -1l1 -1l1 -1l1 -1l1 -1l1 -1l1 -2l1 -1l1 -1l1 -1l1 -1l1 -1l1 -1l1 -1l1 -1l1 -1h1l1 -1l1 -1l1 -1l1 -1l1 -1l1 -1l1 -1l1 -1l1 -1l1 -1l1 -1l1 -1l1 -1l1 -1l1 -1l1 -1l1 -1l1 -1l1 -1
l1 -1l1 -1l1 -1l1 -1l1 -1l1 -1l1 -1l1 -1l1 -1l1 -1l1 -1l1 -1l1 -1l1 -1l1 -1l1 -1l1 -1l1 -1l1 -1h1l1 -1l1 -1l1 -1l1 -1l1 -1l1 -1l1 -1l1 -1l1 -1l1 -1l1 -1l1 -1l1 -1l1 -1l1 -1l1 -1l1 -1l1 -1l1 -1l1 -1l1 -1l1 -1l1 -1l1 -1l1 -1l1 -1l1 -1l1 -1l1 -1l1 -1l1 -1
l1 -1l1 -1l1 -1l1 -1l1 -1l1 -1h1l1 -1l1 -1l1 -1l1 -1l1 -1l1 -1l1 -1l1 -1l1 -1l1 -1l1 -1l1 -1l1 -1l1 -1l1 -1l1 -1l1 -1l1 -1l1 -1l1 -1l1 -1l1 -1l1 -1l1 -1l1 -1l1 -1l1 -1l1 -1l1 -1l1 -1l1 -1l1 -1l1 -1l1 -1l1 -1l1 -1l1 -1h1l1 -1l1 -1l1 -1l1 -1l1 -1l1 -1l1 -1
l1 -1l1 -1l1 -1l1 -1l1 -1l1 -1l1 -1l1 -1l1 -1l1 -1l1 -1l1 -1l1 -1l1 -1l1 -1l1 -1l1 -1l1 -1l1 -1l1 -1l1 -1l1 -1l1 -1l1 -1l1 -1l1 -1l1 -1l1 -1l1 -1l1 -1h1l1 -1l1 -1l1 -1l1 -1l1 -1l1 -1l1 -1l1 -1l1 -1l1 -1l1 -1l1 -1l1 -1l1 -1l1 -1l1 -1l1 -1l1 -1l1 -1l1 -1
l1 -1l1 -1l1 -1l1 -1l1 -1l1 -1l1 -1l1 -1l1 -1l1 -1l1 -1l1 -1l1 -1l1 -1l1 -1l1 -1l1 -1h1l1 -1l1 -1l1 -1l1 -1l1 -1l1 -1l1 -1l1 -1l1 -1l1 -1l1 -1l1 -1l1 -1l1 -1l1 -1l1 -1l1 -1l1 -1l1 -1l1 -1l1 -1l1 -1l1 -1l1 -1l1 -1l1 -1l1 -1l1 -1l1 -1l1 -1l1 -1l1 -1l1 -1
l1 -1l1 -1l1 -1l1 -1h1l1 -1l1 -1l1 -1l1 -1l1 -1l1 -1l1 -1l1 -1l1 -1l1 -1z" />
    <glyph glyph-name="uniE601" unicode="&#xe601;" 
d="M804 396v128q0 119 -84.5 203.5t-203.5 84.5t-203.5 -84.5t-84.5 -203.5v-128q-40 0 -68 -28t-28 -68v-224q0 -119 84.5 -203.5t203.5 -84.5h192q119 0 203.5 84.5t84.5 203.5v224q0 40 -28 68t-68 28zM292 524q0 93 65.5 158.5t158.5 65.5t158.5 -65.5t65.5 -158.5v-128
h-64v128q0 66 -47 113t-113 47t-113 -47t-47 -113v-128h-64v128zM644 524v-128h-256v128q0 53 37.5 90.5t90.5 37.5t90.5 -37.5t37.5 -90.5zM836 204v-128q0 -93 -65.5 -158.5t-158.5 -65.5h-192q-93 0 -158.5 65.5t-65.5 158.5v224q0 13 9.5 22.5t22.5 9.5h64h448h64
q13 0 22.5 -9.5t9.5 -22.5v-96zM516 204q27 0 45.5 -18.5t18.5 -45.5q0 -28 -21 -86q-8 -21 -17 -31.5t-26 -10.5q-27 0 -43 42q-21 59 -21 86t18.5 45.5t45.5 18.5z" />
    <glyph glyph-name="uniE602" unicode="&#xe602;" 
d="M568 747h-112v-391h-391v-112h391v-391h112v391h391v112h-391v391z" />
    <glyph glyph-name="uniE603" unicode="&#xe603;" 
d="M752 -212h-480q-53 0 -89.5 37.5t-36.5 88.5v768q0 54 36.5 92t89.5 38h480q53 0 89.5 -37.5t36.5 -88.5v-768q0 -54 -36.5 -92t-89.5 -38v0zM815 682q0 27 -18 45t-45 18h-480q-27 0 -45 -18t-18 -45v-31h606v31v0zM815 588h-606v-512h606v512v0zM815 12h-606v-94
q0 -27 18 -45t45 -18h480q27 0 45 18t18 45v94v0zM512 -117q-21 0 -34 13t-13 33.5t13 34t34 13.5t34 -13.5t13 -34t-13 -33.5t-34 -13v0zM512 -117z" />
    <glyph glyph-name="uniE604" unicode="&#xe604;" 
d="M281 736q-11 -11 -11 -26.5t11 -26.5l384 -380l-383 -386q-10 -11 -10 -26.5t11 -26.5t26 -11t26 11l407 410q0 1 0.5 1.5t0.5 1.5v0q11 11 11 26q0 16 -11 26l-410 407q-11 11 -26.5 11t-25.5 -11v0z" />
    <glyph glyph-name="uniE605" unicode="&#xe605;" 
d="M83 -1q-26 0 -44 18t-18 44v659q0 26 18 44.5t44 18.5h589q26 0 44.5 -18.5t18.5 -44.5v-157v-8q-1 -11 -9 -19t-19 -8t-19 8t-8 19v8v110q0 33 -11.5 44t-43.5 11h-495q-32 0 -43.5 -11t-11.5 -44v-565q0 -32 11.5 -43.5t43.5 -11.5h495q32 0 43.5 11.5t11.5 43.5v46v1
q0 12 8 20t19 8t19 -8t9 -20v-1v-93q0 -26 -18.5 -44t-44.5 -18h-589zM704 257q-11 0 -19 8l-165 165q-8 8 -8 19.5t8 19t19.5 7.5t19.5 -8l145 -145l264 264q8 8 19 8t19 -8t8 -19.5t-8 -19.5l-283 -283q-8 -8 -19 -8zM189 281q-11 0 -19 8t-8 19.5t8 19.5t19 8h212
q11 0 19 -8t8 -19.5t-8 -19.5t-19 -8h-212zM189 446q-11 0 -19 8t-8 19t8 19.5t19 8.5h212q11 0 19 -8.5t8 -19.5t-8 -19t-19 -8h-212z" />
    <glyph glyph-name="uniE606" unicode="&#xe606;" 
d="M512 858q-96 0 -184 -37.5t-151.5 -101t-101 -151.5t-37.5 -184t37.5 -184t101 -151.5t151.5 -101t184 -37.5q93 0 180 36t154 102q23 11 39 21q-45 98 -151 192q-61 -45 -196 75q-132 123 -92 187q-105 97 -206 132q-19 -35 -29 -86q0 -7 0.5 -19.5t11 -53t30 -81
t63.5 -98.5t104 -112q57 -53 115.5 -90.5t106 -53.5t78.5 -22.5t58 -7.5q-119 -89 -266 -89q-90 0 -171.5 35t-141 94.5t-94.5 141t-35 171.5t35 171.5t94.5 141t141 94.5t171.5 35t171.5 -35t141 -94.5t94.5 -141t35 -171.5q0 -7 4.5 -11.5t11.5 -4.5t11.5 4.5t4.5 11.5
q0 96 -37.5 184t-101 151.5t-151.5 101t-184 37.5zM250 672q102 -36 207 -133q8 9 14 20.5t10.5 29t-4.5 38t-33 38.5q-5 5 -13.5 12t-33.5 20.5t-48 18.5t-51 -4.5t-48 -39.5zM875 273q-20 22 -41.5 29.5t-38.5 1t-27.5 -13.5t-19.5 -16q107 -95 153 -193q20 16 29 36
t8.5 38t-6.5 36t-16 32.5t-19 26t-15.5 18t-6.5 5.5z" />
    <glyph glyph-name="uniE607" unicode="&#xe607;" 
d="M605 813q-3 0 -6 1q-15 0 -26.5 -9t-14.5 -24q-4 -16 5.5 -30t25.5 -17q64 -13 117 -49t89 -91q74 -112 47 -244q-4 -16 5.5 -30t25.5 -17q3 -1 7 -1q12 -1 23 6q14 10 18 26q22 108 -12.5 210t-115 174.5t-188.5 94.5zM675 207q57 -37 96 -77q41 -43 41 -74
q-1 -31 -37 -64q-8 -8 -21 -18t-49 -24t-74 -14q-35 0 -71 11q-38 12 -76 35q-75 44 -135 103t-114 143q-44 66 -73 134t-39.5 121t-13.5 81.5t-3 48.5q0 40 13 75t29.5 56t38 39t32.5 24t19 10q28 12 50 12q11 0 21 -3q28 -8 43 -40q26 -57 43 -141q2 -12 2 -22t-1.5 -17
t-6 -13.5t-8.5 -11t-11.5 -9t-12 -7t-12.5 -6.5l-1 -1q-54 -22 -63 -26q-7 -3 -10.5 -10t-0.5 -14q33 -100 95 -196q61 -94 138 -165q5 -5 13 -5h1q9 1 14 7q17 23 34 38q37 36 69 36q8 0 16.5 -2.5t24.5 -13.5zM505 482q-16 4 -25 18t-6 30q3 15 14.5 24t26.5 8q3 0 7 -1
q70 -14 109.5 -74t24.5 -130q-3 -17 -17 -26q-11 -7 -24 -7q-3 1 -6 1q-17 4 -26 17.5t-6 30.5q8 37 -13 69.5t-59 39.5zM547 609q-16 3 -25 17t-6 30q3 15 14.5 24t26.5 8h7q117 -25 183 -125t42 -218q-3 -16 -17 -25q-11 -8 -24 -7q-3 0 -7 1q-16 3 -25 17t-6 30
q18 85 -30 157.5t-133 90.5z" />
    <glyph glyph-name="uniE608" unicode="&#xe608;" 
d="M512 806q-102 0 -195.5 -40t-161 -107.5t-107.5 -161t-40 -195.5t40 -195.5t107.5 -161t161 -107.5t195.5 -40t195.5 40t161 107.5t107.5 161t40 195.5t-40 195.5t-107.5 161t-161 107.5t-195.5 40zM650 270l131 -131q14 -14 14 -33.5t-14 -33.5l-37 -37
q-14 -14 -33.5 -14t-33.5 14l-131 131q-13 13 -33 13t-33 -13l-131 -131q-14 -14 -33.5 -14t-33.5 14l-37 37q-14 14 -14 33.5t14 33.5l131 131q13 13 13 33t-13 33l-131 131q-14 14 -14 33.5t14 33.5l37 37q14 14 33.5 14t33.5 -14l131 -131q13 -13 33 -13t33 13l131 131
q14 14 33.5 14t33.5 -14l37 -37q14 -14 14 -33.5t-14 -33.5l-131 -131q-13 -13 -13 -33t13 -33z" />
    <glyph glyph-name="uniE609" unicode="&#xe609;" 
d="M0 288q0 -139 68.5 -257t186.5 -186.5t257 -68.5t257 68.5t186.5 186.5t68.5 257t-68.5 257t-186.5 186.5t-257 68.5t-257 -68.5t-186.5 -186.5t-68.5 -257zM43 288q0 95 37 182t100 150t150 100t182 37t182 -37t150 -100t100 -150t37 -182q0 -157 -94 -282
q-22 104 -95 182t-174 107q49 28 78 77t29 108q0 88 -62.5 150.5t-150.5 62.5t-150.5 -62.5t-62.5 -150.5q0 -59 29 -108t78 -77q-101 -29 -174 -107t-95 -182q-94 125 -94 282zM855 -32q-65 -70 -154 -109.5t-189 -39.5t-189 39.5t-154 109.5h4q16 127 112.5 213t226.5 86
t226.5 -86t112.5 -213h4zM341 480q0 71 50 121t121 50t121 -50t50 -121t-50 -121t-121 -50t-121 50t-50 121z" />
    <glyph glyph-name="uniE60A" unicode="&#xe60a;" 
d="M712 -174h-371q-5 0 -9 3.5t-4 9.5v263h-263q-5 0 -9 3.5t-4 9.5v370q0 6 4 9.5t9 3.5h263v263q0 6 4 9.5t9 3.5h371q5 0 9 -3.5t4 -9.5v-263h262q6 0 10 -3.5t4 -9.5v-370q0 -6 -4 -9.5t-10 -3.5h-262v-263q0 -6 -4 -9.5t-9 -3.5zM354 -148h345v263q0 5 3.5 9t9.5 4h262
v344h-262q-6 0 -9.5 4t-3.5 9v263h-345v-263q0 -5 -3.5 -9t-9.5 -4h-263v-344h263q6 0 9.5 -4t3.5 -9v-263z" />
    <glyph glyph-name="uniE60B" unicode="&#xe60b;" 
d="M849 895h-690q-69 0 -113.5 -55.5t-44.5 -128.5v-683q0 -70 43.5 -112t114.5 -42h690q73 0 124 42.5t51 111.5v683q0 72 -52.5 128t-122.5 56zM956 28q0 -41 -31.5 -65.5t-75.5 -24.5h-690q-43 0 -66.5 23.5t-23.5 66.5v683q0 45 24.5 80t65.5 35h690q42 0 74.5 -36
t32.5 -79v-683zM647 657h-509v-68h509v68zM138 352h749v68h-749v-68zM760.5 554q28.5 0 48.5 20t20 48.5t-20 48.5t-48.5 20t-48.5 -20t-20 -48.5t20 -48.5t48.5 -20z" />
    <glyph glyph-name="uniE60C" unicode="&#xe60c;" 
d="M878 603l2 -27v-48q0 -190 -135 -311t-345 -121h-96q123 -120 288 -120q43 0 77 6l179 -110v181q75 51 117.5 125.5t42.5 160.5q0 77 -34.5 145.5t-95.5 118.5zM325 168q42 -8 107 -8q112 0 201 51t136 135.5t47 184.5q0 74 -33 142t-86.5 116.5t-123.5 77.5t-141 29
q-113 0 -209 -48.5t-151.5 -132.5t-55.5 -182q0 -177 128 -288v-181zM608 576q20 0 34 -14t14 -34t-14 -34t-34 -14t-34 14t-14 34t14 34t34 14zM416 576q20 0 34 -14t14 -34t-14 -34t-34 -14t-34 14t-14 34t14 34t34 14zM224 576q20 0 34 -14t14 -34t-14 -34t-34 -14
t-34 14t-14 34t14 34t34 14z" />
    <glyph glyph-name="uniE60D" unicode="&#xe60d;" 
d="M512 717q-71 0 -142 -29.5t-124 -73t-95.5 -91t-64.5 -85.5t-22 -54t22 -54t64.5 -85.5t95.5 -91t124 -73t141.5 -29.5t142 31t124.5 75.5t95.5 92.5t64.5 84.5t22 49.5t-22.5 49.5t-65.5 84.5t-96.5 92.5t-124 75.5t-139.5 31zM781 230q-142 -128 -269 -128
q-70 0 -147 39q-47 20 -128 89q-50 45 -83 89t-39 65q0 4 32 58q1 0 12 15.5t16 21.5t16 19t22 24t24 22q142 128 268.5 128t268.5 -128q13 -11 24.5 -22t22 -24t15.5 -19t16 -21.5t12 -15.5q26 -32 38 -58q-12 -26 -32 -51q-38 -51 -89 -103zM505.5 525q-57.5 0 -99 -41.5
t-41.5 -99.5t41.5 -99.5t99 -41.5t99 41.5t41.5 99.5t-41.5 99.5t-99 41.5zM506 294q-35 0 -62.5 26.5t-27.5 63.5q0 38 25.5 64t64 26t64 -26t25.5 -64t-25.5 -64t-63.5 -26z" />
    <glyph glyph-name="uniE60E" unicode="&#xe60e;" horiz-adv-x="1570" 
d="M1249 391q87 30 177 35v0q48 3 91 -2v0q-10 -43 -29 -86v0q-41 -93 -113 -173q61 -9 119 -29v0q40 -14 76 -32q-2 -3 -4 -7q-17 -34 -47 -65v0q-72 -76 -196 -121t-250 -38q-101 5 -169.5 42.5t-89.5 95.5q74 -60 206 -67q111 -6 221.5 28.5t187.5 96.5q-62 20 -127 28v0
q-53 6 -103 4q-4 -1 -10 -1q130 92 202 237q-150 -14 -273 -88l-36 -24q59 87 88.5 193t21.5 200q-78 -40 -148.5 -111t-115.5 -158q-10 -30 -25 -55v0q-8 -14 -17 -26q24 80 18 174q-5 89 -35.5 171t-79.5 143q-52 -61 -84.5 -145.5t-37.5 -177.5q-3 -49 2 -96v0
q5 -41 16 -78q-41 56 -57 138q-53 71 -117.5 132.5t-124.5 97.5q-5 -39 -3 -79q4 -83 32 -152q-46 31 -76.5 102t-34.5 159q-2 47 4 91q20 -8 40 -18q8 -3 16 -5q20 -7 40 -17v0q126 -61 217 -197q1 17 3 33q16 154 100 275v0q30 44 66 77v0q62 -60 104.5 -151t52.5 -193
q2 -13 3 -28q98 128 223 183v0q42 19 82 25v0v0q16 -37 22 -83v0q18 -120 -28 -258zM1082 225zM871 352q-16 45 -50 69q-27 19 -37 16t-12 -33q-2 -42 10 -95.5t24.5 -96.5t17 -89.5t-16 -91t-71.5 -83.5q-70 -54 -178.5 -67.5t-214.5 9.5t-201 77t-142 127q86 53 197 74
q-110 125 -119 256q140 8 258.5 -29t221.5 -128q97 -86 153 -192q-44 64 -138 126t-198.5 101t-185.5 45q-7 1 -13 1l2 -3q32 -71 91.5 -136.5t139.5 -115.5l-98 2q-114 -1 -185 -22q69 -52 164.5 -81.5t202.5 -29.5q45 0 79.5 3.5t71.5 16t60.5 33.5t38 59t12.5 89
q-1 36 -22.5 107.5t-21.5 113.5q-2 91 46 117q39 21 75 -13q47 -45 39 -136z" />
    <glyph glyph-name="uniE60F" unicode="&#xe60f;" 
d="M672 -88q-61 0 -104.5 6t-61.5 12t-47 20q-67 31 -154 43v-25h-137q-37 0 -61 35q-20 31 -20 74v336q0 42 20 73q24 36 61 36h137v-19q143 49 242 124q57 44 85 88q27 44 21 84q-4 23 13 42q14 17 34 17q25 0 51.5 -13.5t42.5 -42.5q27 -47 13 -120q-14 -69 -64 -160h125
q41 0 62 -33q16 -26 16 -64q0 -60 -31 -97q1 -1 1 -2q11 -20 11 -51q0 -45 -20 -87q-13 -26 -31 -40v-12q0 -41 -20 -84q-20 -40 -49 -52q-8 -39 -44 -63q-38 -25 -91 -25zM309 42q45 -5 80.5 -14t51 -15.5t39.5 -17.5q26 -12 42 -17.5t55 -10.5t95 -5q35 0 61 15t26 44v25
h25q8 0 18 14q14 19 21 49q6 26 3 35q3 -8 14 -8v50q10 0 22 25q15 31 15 64q0 18 -4 26q-2 3 -5 3v50q7 0 16 17q12 24 12 54q0 24 -8 37q-7 10 -20 10h-212l23 38q35 59 55 107t24 79.5t2 50t-9 30.5q-16 29 -48 31v-2q17 -109 -126 -218q-112 -86 -272 -137zM168 472
q-12 0 -21.5 -17.5t-9.5 -41.5v-336q0 -24 9.5 -41.5t21.5 -17.5h87v454h-87z" />
    <glyph glyph-name="uniE610" unicode="&#xe610;" 
d="M512 896q-104 0 -199 -35t-163.5 -93.5t-109 -139.5t-40.5 -170q0 -109 58.5 -204t162.5 -157v-204q0 -13 12 -19q4 -2 9 -2q8 0 14 5l181 147q40 -5 75 -5q104 0 199 35t163.5 93.5t109 140t40.5 170.5t-40.5 170t-109 139.5t-163.5 93.5t-199 35zM512 62q-36 0 -78 6
q-9 1 -17 -5l-153 -125v171q0 13 -11 19q-99 55 -154.5 142.5t-55.5 187.5q0 107 63 198t171 144t235 53t235.5 -53t171 -144t62.5 -198.5t-62.5 -198.5t-171 -144t-235.5 -53zM512 458zM463 457.5q0 20.5 14.5 35t34.5 14.5t34.5 -14.5t14.5 -35t-14.5 -34.5t-34.5 -14
t-34.5 14t-14.5 34.5zM267 458zM218 457.5q0 20.5 14 35t34.5 14.5t35 -14.5t14.5 -35t-14.5 -34.5t-35 -14t-34.5 14t-14 34.5zM757.5 507q-20.5 0 -35 -14.5t-14.5 -35t14.5 -34.5t35 -14t34.5 14t14 34.5t-14 35t-34.5 14.5z" />
    <glyph glyph-name="uniE611" unicode="&#xe611;" 
d="M874 746q-72 73 -165.5 111.5t-196 38.5t-196 -38.5t-166 -111t-111.5 -166t-39 -196.5t38.5 -196.5t111.5 -166t166 -111t196 -38.5t196.5 38.5t165.5 111.5q98 98 133 230t0 264t-133 230v0zM827 69q-63 -63 -144.5 -96.5t-170.5 -33.5t-170.5 33.5t-144.5 96.5
t-96.5 144.5t-33.5 170.5t33.5 170.5t96.5 144.5t144.5 96.5t170.5 33.5t170.5 -33.5t144.5 -96.5q85 -86 115.5 -200.5t0 -229t-115.5 -200.5v0zM733 259l-177 102v279q0 18 -12.5 30.5t-30 12.5t-30 -12.5t-12.5 -30.5v-299q0 -17 33 -36q2 -4 19 -14l176 -106
q15 -9 30 -4.5t24 19.5q8 16 2 32.5t-22 26.5v0zM733 259z" />
    <glyph glyph-name="uniE612" unicode="&#xe612;" 
d="M508 192q-79 0 -135 55.5t-56 135t56 135.5t135.5 56t135 -56t55.5 -135.5t-55.5 -135t-135.5 -55.5v0zM508 478q-39 0 -67 -28t-28 -67.5t28 -67.5t67.5 -28t67.5 28t28 67.5t-28 67.5t-68 28v0z" />
    <glyph glyph-name="uniE613" unicode="&#xe613;" 
d="M924 454h-42q-14 0 -27 9.5t-17 23.5l-24 57q-7 13 -4.5 29t12.5 26l29 29q10 10 10 24.5t-10 24.5l-48 48q-10 10 -24.5 10t-24.5 -10l-29 -29q-10 -10 -26 -12.5t-29 4.5l-57 24q-14 4 -23.5 17t-9.5 27v42q0 14 -10 24t-24 10h-69q-14 0 -24 -10t-10 -24v-42
q0 -14 -10 -27t-23 -17l-58 -24q-12 -7 -28 -4.5t-26 12.5l-30 29q-10 10 -24 10t-24 -10l-49 -48q-10 -10 -10 -24.5t10 -24.5l30 -29q10 -10 12 -26t-4 -29l-24 -57q-4 -14 -17 -23.5t-28 -9.5h-41q-14 0 -24 -10t-10 -24v-69q0 -14 10 -24t24 -10h41q15 0 28 -10t17 -23
l24 -58q6 -12 4 -28t-12 -26l-30 -29q-10 -11 -10 -25t10 -24l49 -49q10 -10 24 -10t24 10l30 30q10 10 26 12t28 -5l58 -23q13 -4 23 -17.5t10 -27.5v-41q0 -14 10 -24t24 -10h69q14 0 24 10t10 24v41q0 14 9.5 27.5t23.5 17.5l57 23q13 7 29 5t26 -12l29 -30
q10 -10 24.5 -10t24.5 10l48 49q10 10 10 24t-10 25l-29 29q-10 10 -12.5 26t4.5 28l24 58q4 13 17 23t27 10h42q14 0 24 10t10 24v69q0 14 -10 24t-24 10zM683 385q0 -71 -50 -121t-121.5 -50t-121.5 50t-50 121.5t50 121.5t121.5 50t121.5 -50t50 -122z" />
    <glyph glyph-name="uniE614" unicode="&#xe614;" 
d="M938 249q-13 0 -24 -9t-11 -21v-122q0 -43 -30.5 -73.5t-73.5 -30.5h-574q-43 0 -73.5 30.5t-30.5 73.5v574q0 43 30.5 73.5t73.5 30.5h254h4q10 0 14 0.5t8 4t4 10.5q0 14 -9 29.5t-21 15.5h-298q-50 0 -85 -35.5t-35 -84.5v-662q0 -50 35 -85t85 -35h662q50 0 85 35
t35 85v166q0 13 -6.5 21.5t-18.5 8.5zM247 149q-4 -24 10.5 -38.5t39.5 -9.5l190 34l-211 213zM642 617q18 17 42.5 17t42.5 -17l42 -43q18 -17 18 -42t-18 -43l-190 -191q-17 -18 -42 -18t-42 18l-43 42q-17 18 -17 43t17 42zM537 170l359 362l-211 212l-359 -361zM941 592
q25 28 21.5 58.5t-31.5 58.5l-85 85q-26 27 -63 27t-63 -27l211 -212z" />
    <glyph glyph-name="uniE615" unicode="&#xe615;" 
d="M856 716q-2 13 -13.5 19.5t-23.5 2.5q-101 -32 -216 36q-59 35 -99 78q-10 12 -25 10q-15 2 -25 -10q-38 -42 -99 -78q-115 -68 -216 -36q-12 4 -23 -2.5t-13 -19.5q-4 -16 -7.5 -43.5t-3 -102t14.5 -143.5q28 -138 102 -242q94 -132 255 -201q9 -4 14 -4q8 0 16 4
q162 69 255 201q75 104 103 242q13 69 14 143.5t-3 102t-7 43.5zM797 438q-58 -281 -316 -397q-258 116 -315 397q-24 117 -10 238q56 -10 114 2q59 13 118 49q50 30 93 70q43 -40 93 -70q60 -36 119 -49q58 -12 113 -2q14 -121 -9 -238zM452 292q-12 0 -20 8l-100 100
q-8 9 -8 20.5t8.5 20t20 8.5t20.5 -8l80 -80l164 160q8 8 20 8t20.5 -8.5t8 -20.5t-8.5 -21l-185 -179q-8 -8 -20 -8z" />
    <glyph glyph-name="uniE616" unicode="&#xe616;" 
d="M372 63v-2h-9h-6h-3q-52 0 -89.5 36.5t-38.5 89.5q-2 53 35 92q36 39 89 40h2h2q41 0 75 -24q47 -17 93 45t19 96q-10 7 -19 17l-3 3q-31 35 -32 81q-2 53 34.5 91.5t89.5 40.5h2h2q45 0 80 -28.5t45 -71.5q5 -18 7.5 -43t-1 -68.5t-28.5 -101.5t-69 -118
q-42 -55 -86 -93t-82 -54.5t-63 -22t-46 -5.5zM367 127q10 0 21 1t36.5 9.5t50 23t58 44.5t64.5 72q39 52 60.5 102t24.5 86t1 55t-6 32q-5 23 -22.5 37.5t-39.5 14.5q-28 0 -46 -19.5t-18 -45.5q1 -23 17 -41h1q6 -7 11 -11q4 -2 7 -5q9 -11 16 -25t11.5 -37t-6 -54
t-35.5 -64q-55 -75 -125 -75q-24 0 -48 10q-4 1 -7 4q-18 14 -39 14q-28 -1 -46 -20t-17 -45q0 -26 18.5 -44t44.5 -18h3q6 0 10 -1zM516 -71q-92 0 -175 35q-13 5 -18 17.5t0.5 24.5t17.5 17t25 0q71 -30 150 -30q105 0 194 52t141 141t52 194t-52 194.5t-141 141.5
t-194 52t-194.5 -52t-141.5 -141.5t-52 -194.5q0 -111 60 -205q7 -12 4 -25t-14.5 -20t-24.5 -4t-20 14q-69 110 -69 240q0 92 36 175.5t96.5 144t144 96.5t175 36t175.5 -36t144.5 -96.5t96 -144t35.5 -175t-35.5 -175.5t-96 -144.5t-144.5 -96t-175 -35.5z" />
    <glyph glyph-name="uniE617" unicode="&#xe617;" 
d="M504.5 -127q-102.5 0 -196.5 39q-90 38 -159.5 108t-108.5 160q-39 94 -39 196t39 196q39 90 108.5 160t159.5 108q94 40 196 40q99 0 190 -37t162 -107q9 -9 9.5 -22t-9 -22t-22.5 -9.5t-22 8.5q-62 61 -141.5 93.5t-166.5 32.5q-89 0 -170.5 -35t-140.5 -94t-94 -140.5
t-35 -171t35 -171.5t94 -141t140.5 -93.5t171 -34.5t171 34.5t140.5 93.5t94 141t35 171q0 39 -7 78q-2 13 5.5 23.5t20 13t23.5 -5t13 -20.5q8 -44 8 -89q0 -102 -40 -196q-38 -90 -107.5 -160t-160.5 -108q-93 -39 -195.5 -39zM443 92q-13 0 -22 9l-224 223q-9 10 -9 23
t9 22t22.5 9t22.5 -9l201 -201l448 448q9 9 22 9t22.5 -9t9.5 -22t-9 -23l-471 -470q-9 -9 -22 -9z" />
    <glyph glyph-name="uniE618" unicode="&#xe618;" 
d="M770 222q-38 0 -71.5 -16.5t-55.5 -46.5l-249 125q7 21 7 43q0 25 -8 48l248 124q22 -31 56 -48.5t73 -17.5q65 0 111.5 46.5t46.5 112t-46.5 111.5t-112 46t-112 -46t-46.5 -112q0 -9 1 -18l-261 -131q-46 44 -109 44q-65 0 -111.5 -46.5t-46.5 -112t46.5 -112
t112 -46.5t111.5 47l259 -130q-2 -11 -2 -22q0 -65 46.5 -111.5t112 -46.5t112 46.5t46.5 112t-46.5 111.5t-111.5 46z" />
    <glyph glyph-name="uniE619" unicode="&#xe619;" horiz-adv-x="1025" 
d="M755.5 665q84.5 0 144.5 -60t60 -145t-60 -144l-47 -48l-167 -166l-166 -166q-1 -1 -2 -1h-6h-5q-2 0 -2 1l-167 166l-214 214q-60 60 -60 144.5t60 144.5t145 60t145 -60l48 -47l5 -6l45 -45l45 45l6 6l47 47q61 60 145.5 60zM755 729q-111 0 -190 -79l-47 -47l-6 -6
l-5 6l-48 47q-79 79 -190 79t-190 -78.5t-79 -190t79 -190.5l214 -213l166 -167q20 -19 48 -19h5h6q28 0 47 19l167 167l166 166l47 47q79 79 79 190.5t-78.5 190t-190.5 78.5z" />
    <glyph glyph-name="uniE61A" unicode="&#xe61a;" 
d="M515 667l121 -245l271 -40l-196 -191l47 -269l-243 127l-242 -127l47 269l-196 191l270 40z" />
    <glyph glyph-name="uniE61B" unicode="&#xe61b;" 
d="M767 -148q-8 0 -15 4l-242 134l-242 -133q-17 -10 -33.5 1.5t-13.5 31.5l47 285l-196 202q-14 14 -8 32.5t25 21.5l156 26q13 3 23.5 -5t13 -21t-5.5 -23.5t-21 -13.5l-95 -16l166 -170q11 -12 8 -28l-39 -235l200 110q15 8 31 -1l199 -110l-38 236q-3 16 9 27l164 169
l-225 34q-17 3 -24 18l-100 213l-100 -212q-5 -12 -17.5 -16.5t-24.5 1t-16.5 18t0.5 24.5l130 274q8 18 29 18q20 0 29 -18l120 -259l271 -42q19 -3 25 -21.5t-7 -32.5l-197 -201l46 -285q3 -20 -14 -31q-8 -6 -18 -6z" />
    <glyph glyph-name="uniE61C" unicode="&#xe61c;" 
d="M527 608h342q46 0 67.5 -20.5t20.5 -66.5v-209v-210q-1 -58 -26.5 -82.5t-85.5 -24.5q-355 -1 -655 0q-59 0 -92 33t-34 91v376q0 61 26 86.5t89 26.5h348zM518 49h328q32 -1 45 11t12 44q-1 59 -1 157v157q0 4 1 13.5t1 15t-3.5 12t-11.5 9.5q-7 1 -11 2t-10 -2.5
t-8.5 -6t-8.5 -7.5t-9 -8q-12 -10 -123 -97t-168 -134q-23 -20 -41 -20t-41 20q-54 45 -155.5 125.5t-139.5 111.5q-1 1 -6.5 5.5t-6.5 5t-6.5 4.5t-7 3.5t-7 1.5t-8.5 -1q-7 -2 -10.5 -7.5t-3.5 -10t0.5 -13t0.5 -11.5q0 -34 0.5 -150t-1.5 -150q0 -42 19 -61t60 -19h321z
M140 549q32 -29 32 -30q159 -126 183 -144q31 -24 44 -34t35.5 -24.5t30 -19.5t26 -10t24.5 -4.5t24 5t25.5 10t29.5 20t35 25t43 34.5q16 12 211 172h-743z" />
    <glyph glyph-name="uniE61D" unicode="&#xe61d;" 
d="M131 543q0 17 11.5 29t28.5 12t28 -12l311 -310l315 314q11 12 28 12t28.5 -11.5t11.5 -28.5t-12 -28l-343 -344q-12 -12 -28.5 -12t-28.5 12l-338 339q-12 12 -12 28zM131 543z" />
    <glyph glyph-name="uniE61E" unicode="&#xe61e;" 
d="M511 833q-91 0 -174 -35.5t-143 -95.5t-95.5 -143t-35.5 -174t35.5 -174t95.5 -143t143 -95.5t174 -35.5t174 35.5t143 95.5t96 143t36 174t-36 174t-96 143t-143 95.5t-174 35.5zM511 -23q-111 0 -205 54.5t-148.5 148.5t-54.5 205t54.5 205t148.5 149t205 55t205 -55
t149 -149t55 -205t-55 -205t-149 -148.5t-205 -54.5zM511.5 306q16.5 0 28 11.5t11.5 28.5v241q0 16 -11.5 27.5t-28 11.5t-28 -11.5t-11.5 -27.5l1 -241q0 -17 11 -28.5t27.5 -11.5zM511.5 230q-17.5 0 -30 -12.5t-12.5 -29.5v-2q0 -17 12.5 -29.5t30 -12.5t30 12.5
t12.5 29.5v2q0 17 -12.5 29.5t-30 12.5z" />
    <glyph glyph-name="uniE61F" unicode="&#xe61f;" 
d="M512 662q-41 61 -96 94t-110.5 36t-110.5 -17.5t-96.5 -59.5t-67.5 -98t-26 -126q0 -39 10.5 -77.5t25 -69.5t41.5 -66t48 -58t57.5 -55.5t56 -48.5t57.5 -46q41 -32 81.5 -63t59 -45t37 -30t33.5 -31q11 11 22 21t20.5 18.5t29.5 24t33.5 25.5t47.5 36t58 44
q48 37 81.5 65t77.5 72.5t71 85t46.5 93.5t19.5 107q0 67 -26 125t-67.5 97.5t-96.5 60t-110.5 17t-110.5 -36.5t-96 -94z" />
    <glyph glyph-name="uniE620" unicode="&#xe620;" 
d="M641 384l299 299q17 17 19.5 38.5t-10.5 34.5l-65 65q-13 13 -34.5 10.5t-38.5 -19.5l-299 -299l-299 299q-17 17 -38.5 19.5t-34.5 -10.5l-65 -65q-13 -13 -10.5 -34.5t19.5 -38.5l299 -299l-299 -299q-17 -17 -19.5 -38.5t10.5 -34.5l65 -65q13 -13 34.5 -10.5
t38.5 19.5l299 299l299 -299q17 -17 38.5 -19.5t34.5 10.5l65 65q13 13 10.5 34.5t-19.5 38.5z" />
    <glyph glyph-name="uniE621" unicode="&#xe621;" 
d="M512 896q-139 0 -257 -68.5t-186.5 -186.5t-68.5 -257t68.5 -257t186.5 -186.5t257 -68.5t257 68.5t186.5 186.5t68.5 257t-68.5 257t-186.5 186.5t-257 68.5zM768 352h-224v-224q0 -13 -9.5 -22.5t-22.5 -9.5t-22.5 9.5t-9.5 22.5v224h-224q-13 0 -22.5 9.5t-9.5 22.5
t9.5 22.5t22.5 9.5h224v224q0 13 9.5 22.5t22.5 9.5t22.5 -9.5t9.5 -22.5v-224h224q13 0 22.5 -9.5t9.5 -22.5t-9.5 -22.5t-22.5 -9.5z" />
    <glyph glyph-name="uniE622" unicode="&#xe622;" 
d="M270 556h342q14 0 24 10t10 24t-10 24t-24 10h-342q-15 0 -25 -10t-10 -24t10 -24t25 -10zM749 419h-479q-15 0 -25 -10t-10 -24.5t10 -24.5t25 -10h479q14 0 24 10t10 24.5t-10 24.5t-24 10zM852 830h-685q-29 0 -49 -20t-20 -49v-753q0 -29 20 -49t49 -20h685
q28 0 48.5 20t20.5 49v753q0 29 -20.5 49t-48.5 20zM852 42q0 -14 -10 -24t-24 -10h-617q-14 0 -24 10t-10 24v685q0 14 10 24t24 10h617q14 0 24 -10t10 -24v-685zM407 213h-137q-15 0 -25 -10t-10 -24t10 -24t25 -10h137q14 0 24 10t10 24t-10 24t-24 10z" />
    <glyph glyph-name="uniE623" unicode="&#xe623;" 
d="M701 647q-78 79 -189 79t-189.5 -78.5t-78.5 -189.5q0 -85 48 -154q41 -57 103 -87l-42 -144q-3 -10 2 -19t15 -12t19 2t12 15l55 187l-22 8q-62 24 -101 79q-39 56 -39 125q0 90 64 154t154 64t154 -64t64 -154q0 -69 -39 -125q-39 -55 -101 -79l-22 -8l55 -187
q6 -18 24 -18q4 0 7 1q10 3 15 12t2 19l-42 144q62 30 103 87q48 69 48 154q0 111 -79 189zM701 647zM637 410zM179 294q-24 34 -24 76q0 33 15.5 62t42.5 47q8 6 10 16t-3.5 18.5t-16 10.5t-18.5 -4q-38 -25 -59 -65t-21 -85q0 -58 33 -105q25 -35 62 -55l-47 -136
q-3 -9 1.5 -18.5t14.5 -12.5q4 -2 8 -2q18 0 23 17l62 179l-22 9q-38 15 -61 48zM179 294zM886 265q33 47 33 105q0 45 -21 84.5t-58 65.5q-9 6 -19 4t-16 -10.5t-4 -18.5t11 -16q27 -19 42 -48t15 -61q0 -42 -24 -76q-23 -33 -61 -48l-22 -9l62 -179q5 -17 23 -17q4 0 8 2
q10 3 14.5 12.5t1.5 18.5l-47 136q37 20 62 55zM886 265z" />
    <glyph glyph-name="uniE624" unicode="&#xe624;" horiz-adv-x="1088" 
d="M85 -212q-35 0 -60 24.5t-25 58.5v662q0 35 25 59t60 24h212v-63h-212q-9 0 -15 -6t-6 -14v-662q0 -8 6 -13.5t15 -5.5h860q9 0 15.5 5.5t6.5 13.5v238h64v-238q0 -34 -25 -58.5t-61 -24.5h-860zM448 18q-2 6 -3.5 21.5t0 56t9 82t29.5 97t56 104.5q128 184 413 249
l-231 124l33 60l333 -181l-195 -309l-57 36l128 203q-256 -60 -368 -220q-65 -92 -79 -213q-7 -61 -1 -107l2 -10l-68 -1zM457 19q-1 8 -2.5 24t0 55.5t9 80t29 94t53.5 100.5q141 201 471 258l8 -48q-310 -53 -438 -237q-30 -42 -49 -92t-26 -86.5t-8 -76t0 -50.5t2 -21
l-49 -1v0zM889 335l-41 26l157 249l-271 146l23 43l317 -171zM889 335z" />
    <glyph glyph-name="uniE625" unicode="&#xe625;" 
d="M845 425q0 90 -44.5 167t-121.5 121.5t-167.5 44.5t-167 -44.5t-121.5 -121.5t-45 -167q0 -115 71 -206l263 -379l262 379q71 90 71 206zM511.5 245q-74.5 0 -127 52.5t-52.5 127t52.5 127t127 52.5t127 -52.5t52.5 -127t-52.5 -127t-127 -52.5z" />
    <glyph glyph-name="uniE626" unicode="&#xe626;" 
d="M219 -1q-10 0 -17.5 7.5t-7.5 17.5v69q0 103 55 187t146 122l14 6l-12 10q-34 28 -53 68.5t-19 85.5q0 82 55 139.5t132.5 57.5t132 -57.5t54.5 -139.5q0 -45 -18.5 -85.5t-52.5 -68.5l-12 -10l14 -6q91 -38 145.5 -122t54.5 -187v-69q0 -10 -7 -17.5t-17 -7.5h-587v0z
M88 102q-10 0 -17 7.5t-7 17.5v53q0 75 36.5 138t99.5 97l10 6l-8 8q-40 47 -40 109q0 64 43 111.5t104 50.5q-10 -15 -14 -35q-51 -7 -78.5 -43t-27.5 -86q0 -44 12 -65t40 -37q10 -8 11 -18q0 -10 -8 -13l-10 -4q-66 -17 -104.5 -79.5t-38.5 -138.5v-49l52 1
q-3 -17 -5 -31h-50v0zM886 102q-2 19 -5 28h52v50q-2 82 -40 144t-106 78l-6 2q-5 3 -6 12q0 7 3 9.5t12 6.5q26 28 36 50.5t10 55.5q-8 63 -31 88t-72 40q-2 5 -2.5 7t-1.5 5.5t-1.5 4t-2 3t-2 3.5t-3.5 5t-5 6q61 -3 104 -50.5t43 -111.5q0 -62 -40 -109l-8 -8l10 -6
q63 -34 99.5 -97t36.5 -138v-53q0 -10 -7 -17.5t-17 -7.5h-50v0zM886 102z" />
    <glyph glyph-name="uniE627" unicode="&#xe627;" 
d="M129 388q1 69 51 122q2 3 20 25q62 79 154 155q3 3 21 18t28 22q37 30 85 35q86 11 151 -49q9 -9 28.5 -24.5t22.5 -18.5q81 -69 149 -156q3 -4 11.5 -14t12.5 -16q40 -59 30 -131q-8 -54 -49 -98q-9 -9 -23.5 -27t-18.5 -23q-55 -63 -98 -101q-9 -8 -57 -48
q-28 -23 -33 -26q-58 -40 -130 -29q-56 8 -98 48q-2 2 -23 19q-69 53 -134 129q-26 31 -46 55q-21 25 -26 33q-28 42 -28 100zM448 320v-6v-145q0 -27 26 -28h76q7 0 12 5q14 15 14 36v133q0 5 5 5h144h7q9 1 15.5 7.5t7.5 15.5v80q0 9 -5 15q-8 10 -23 10h-146h-5v6v145
q0 28 -28 28h-72q-8 0 -14 -3q-14 -6 -14 -25v-45v-55v-46v-5h-6h-66h-40h-39q-28 0 -28 -27v-37v-37q0 -10 6 -17q7 -10 23 -10h144h6z" />
    <glyph glyph-name="uniE628" unicode="&#xe628;" 
d="M871 817h-718q-37 0 -63 -26.5t-26 -63.5v-469q0 -37 26 -63t63 -26h584l212 -216q2 -2 5 -2q1 0 2 1q4 2 4 6v769q0 37 -26 63.5t-63 26.5zM120 727q0 14 9.5 24t23.5 10h718q14 0 23.5 -10t9.5 -24v-649l-142 145q-2 2 -4 2h-605q-14 0 -23.5 9.5t-9.5 23.5v469z
M326.5 408q32.5 0 55.5 22.5t23 55t-23 55.5t-55.5 23t-55 -23t-22.5 -55.5t22.5 -55t55 -22.5zM513.5 408q32.5 0 55.5 22.5t23 55t-23 55.5t-55.5 23t-55.5 -23t-23 -55.5t23 -55t55.5 -22.5zM695.5 409q32.5 0 55 23t22.5 55t-22.5 55t-55 23t-55 -23t-22.5 -55t22.5 -55
t55 -23z" />
    <glyph glyph-name="uniE629" unicode="&#xe629;" 
d="M1009 -95l-67 535q-2 39 -31 67t-69 28h-135v67q0 83 -59 142.5t-142 59.5t-142.5 -59.5t-59.5 -142.5v-67h-134q-40 0 -69 -28t-31 -67l-67 -535q-1 -4 -1 -8q0 -42 29.5 -71.5t71.5 -29.5h806q41 0 71 29.5t30 71.5q0 4 -1 8zM372 602q0 56 39 95t95 39t95 -39t39 -95
v-67h-268v67zM909 -136h-806q-14 0 -24 9.5t-10 23.5l68 537q0 14 9.5 24t23.5 10h672q14 0 23.5 -10t9.5 -24l67 -537q0 -14 -9.5 -23.5t-23.5 -9.5zM674 401q-14 0 -24 -10t-10 -24v-33q0 -14 10 -24t24 -10t23.5 10t9.5 24v33q0 14 -9.5 24t-23.5 10zM338 401
q-14 0 -24 -10t-10 -24v-33q0 -14 10 -24t24 -10t24 10t10 24v33q0 14 -10 24t-24 10z" />
    <glyph glyph-name="uniE62A" unicode="&#xe62a;" 
d="M721 367q-9 -10 -22.5 -10t-22.5 10l-132 132v-339q0 -13 -9.5 -22.5t-22.5 -9.5t-22.5 9.5t-9.5 22.5v339l-132 -132q-9 -10 -22.5 -10t-22.5 10q-10 9 -10 22.5t10 22.5l181 181q11 12 28 8q17 4 28 -8l181 -181q10 -9 10 -22.5t-10 -22.5zM512 896q-139 0 -257 -68.5
t-186.5 -186.5t-68.5 -257t68.5 -257t186.5 -186.5t257 -68.5t257 68.5t186.5 186.5t68.5 257t-68.5 257t-186.5 186.5t-257 68.5z" />
    <glyph glyph-name="uniE62B" unicode="&#xe62b;" 
d="M782.5 257.5q9.5 9.5 9.5 22.5t-9 23q-79 80 -185 113q55 36 87 94t32 126q0 107 -75.5 183.5t-182.5 76.5t-183 -76.5t-76 -183.5q0 -68 32.5 -126t87.5 -94q-141 -45 -230.5 -166t-89.5 -274v-38q1 -18 1 -34q0 -13 9.5 -22.5t22.5 -9.5t22.5 9.5t9.5 22.5q0 19 -1 35
v37q0 108 53 200t144 145t198 53q79 0 151 -30t128 -86q9 -10 22 -10t22.5 9.5zM264 635.5q0 81.5 57 139t137.5 57.5t137.5 -57.5t57 -139t-57 -139t-137.5 -57.5t-137.5 57.5t-57 139zM992 91h-117v114q0 13 -9.5 22.5t-23 9.5t-22.5 -9.5t-9 -22.5v-114h-118
q-13 0 -22.5 -9t-9.5 -22.5t9.5 -23t22.5 -9.5h118v-123q0 -13 9 -22.5t22.5 -9.5t23 9.5t9.5 22.5v123h117q13 0 22.5 9.5t9.5 23t-9.5 22.5t-22.5 9z" />
    <glyph glyph-name="uniE62C" unicode="&#xe62c;" 
d="M584 92h-152q-16 0 -27 -11t-11 -26t11 -26t27 -11h152q15 0 26.5 11t11.5 26t-11.5 26t-26.5 11zM584 92zM889 754h-457q-16 0 -27 -10.5t-11 -26t11 -26t27 -10.5h457q16 0 27 10.5t11 26t-11 26t-27 10.5zM889 754zM735 422h-303q-16 0 -27 -11t-11 -26t11 -26t27 -11
h303q15 0 26.5 11t11.5 26t-11.5 26t-26.5 11zM735 422zM259 719q-7 4 -20 7q16 9 24 20t8 25q0 24 -19.5 39.5t-62.5 15.5q-38 0 -58.5 -14.5t-27.5 -41.5l58 -10q2 16 9 22.5t18 6.5q10 0 16.5 -6t6.5 -15q0 -11 -8.5 -18.5t-20.5 -7.5q-3 0 -8 1l-3 -42q13 3 20 3
q14 0 21.5 -8t7.5 -23t-8 -23.5t-20 -8.5t-19.5 7t-11.5 25l-61 -8q6 -20 17 -33.5t28.5 -20t47.5 -6.5q31 0 50 9t29 26t10 36q0 15 -6 25.5t-17 17.5zM259 719zM200 328q6 5 25 17q31 22 43 39.5t12 37.5q0 18 -10.5 33t-28.5 22t-50 7q-31 0 -49 -7.5t-27.5 -21.5
t-13.5 -39l62 -5q3 18 10.5 25t18.5 8q12 0 19.5 -7t7.5 -17q0 -9 -8 -19t-35 -30q-44 -31 -60 -54.5t-19 -50.5h184v49h-96q9 8 15 13zM200 328zM163 126q-18 -14 -49 -24v-48q21 6 35 13t30 18v-143h62v218h-51q-10 -20 -27 -34zM163 126z" />
    <glyph glyph-name="uniE62D" unicode="&#xe62d;" horiz-adv-x="1126" 
d="M507 699q-43 29 -48 78.5t28 82.5q31 33 76.5 33.5t76.5 -32.5q21 -22 27 -52t-6 -60.5t-41 -49.5l1 -1l1 -1l1 -1l1 -1l1 -1l1 -1l1 -1l1 -1l1 -1l1 -1v-1l1 -1l1 -1l1 -1l1 -1l1 -1l1 -1l1 -1l1 -1l1 -1l1 -1v-1l1 -1l1 -1l1 -1l1 -1l1 -1l1 -1l1 -1l1 -1l1 -1l1 -1v-1
l1 -1l1 -1l1 -1l1 -1l1 -1l1 -1l1 -1l1 -1l1 -1l1 -1v-1l1 -1l1 -1l1 -1l1 -1l1 -1l1 -1l1 -1l1 -1l1 -1l1 -1v-1l1 -1l1 -1l1 -1l1 -1l1 -1l1 -1l1 -1l1 -1l1 -1l1 -1v-1l1 -1l1 -1l1 -1l1 -1l1 -1l1 -1l1 -1l1 -1l1 -1l1 -1v-1l1 -1l1 -1l1 -1l1 -1l1 -1l1 -1l1 -1l1 -1
l1 -1l1 -1v-1l1 -1l1 -1l1 -1l1 -1l1 -1l1 -1l1 -1l1 -1l1 -1v-1l1 -1l1 -1l1 -1l1 -1l1 -1l1 -1l1 -1l1 -1l1 -1l1 -1v-1l1 -1l1 -1l1 -1l1 -1l1 -1l1 -1l1 -1l1 -1l1 -1l1 -1v-1l1 -1l1 -1l1 -1l1 -1l1 -1l1 -1l1 -1l1 -1l1 -1l1 -1v-1l1 -1l1 -1l1 -1l1 -1l1 -1l1 -1
l1 -1l1 -1l1 -1l1 -1v-1l1 -1l1 -1l1 -1l1 -1l1 -1l1 -1l1 -1l1 -2l1 -1l1 -1l1 -1l1 -1v-1l1 -1l1 -1l1 -1l1 -1l1 -1l1 -1l1 -1l1 -1l1 -1v-1l1 -1l1 -1l1 -1l1 -1l1 -1l1 -1l1 -1l1 -1h1l1 -1v-1l1 -1l1 -1l1 -1l1 -1l1 -1l1 -1l1 -1l1 -1l1 -1l1 -1v-1l1 -1l1 -1l1 -1
l1 -1l1 -1l1 -1l1 -1l1 -1l1 -1l1 -1v-1l1 -1l1 -1l1 -1l1 -1l1 -1l1 -1l1 -1l1 -1l1 -1l1 -1v-1l1 -1l1 -1l1 -1l1 -1l1 -1l1 -1l1 -1l1 -1l1 -1l1 -1v-1l1 -1l1 -1l1 -1l1 -1l1 -1l1 -1l1 -1l1 -1l1 -1l1 -1v-1l1 -1l1 -1l1 -1l1 -1l1 -1l1 -1l1 -1l1 -1l1 -1v-1l1 -1
l1 -1l1 -1l1 -1l1 -1l1 -1l1 -1l1 -1l1 -1l1 -1l8 5q161 106 211 139q16 11 32 6q13 -4 20 -15t5 -24q-8 -45 -25.5 -154t-26.5 -168q-9 -58 -26 -165t-21 -131q-1 -5 -3 -16t-3 -17q-5 -33 -38 -33h-105h-729q-35 0 -41 36q-12 79 -27 166q-3 19 7.5 31.5t29.5 12.5h34h688
q10 0 16 -2q12 -3 19 -13.5t6 -22.5q-2 -13 -10.5 -22t-21.5 -10h-49h-199h-236h-200h-8q9 -55 17 -106h8h766q8 0 10 8q14 95 50 318q7 40 19 114.5t16 98.5v7q-7 -5 -8 -5q-32 -21 -91.5 -60.5t-75.5 -49.5q-30 -20 -54 6q-46 51 -130 143.5t-114 125.5l-5 6
q-4 -5 -11.5 -13.5t-13.5 -15t-12 -12.5q-33 -37 -209 -230q-1 -2 -3 -4q-25 -26 -54 -7q-33 22 -94 62t-74 49l-8 5q4 -21 10 -60q26 -161 29 -183q2 -14 -6.5 -25t-23.5 -14q-14 -2 -25.5 6.5t-13.5 22.5q-3 20 -19 117q-24 151 -31 197q-3 14 0 23q4 17 21 23t32 -5
q8 -4 81 -53q44 -30 140 -93zM564 753q15 0 25 10.5t10 25t-10.5 24.5t-24.5 10q-15 0 -25 -10t-10 -25t10.5 -25t24.5 -10z" />
    <glyph glyph-name="uniE62E" unicode="&#xe62e;" 
d="M484 848q-123 0 -228 -52.5t-165.5 -143.5t-60.5 -198q0 -99 52.5 -184.5t142.5 -141.5v-122q0 -12 7 -19t18 -7q6 0 13 3l124 83q39 -9 95 -9q124 0 228.5 53t165 144t60.5 198q1 108 -59.5 199t-165 144t-227.5 53zM484 124q-38 0 -84 8l-13 3q-13 3 -25 -5l-12 -8
l-59 -40v65q0 19 -17 28l-16 10q-77 45 -120.5 116.5t-43.5 150.5q0 89 52 165t141.5 119.5t195 43.5t195 -43.5t141 -119.5t51.5 -165q1 -88 -51 -164t-141 -120t-194 -44zM226 442.5q0 -22.5 16 -38.5t39 -16t38.5 16t15.5 38.5t-15.5 38.5t-38.5 16t-39 -16t-16 -38.5z
M433 442.5q0 -22.5 16 -38.5t38.5 -16t38.5 16t16 38.5t-16 38.5t-38.5 16t-38.5 -16t-16 -38.5zM633 442.5q0 -22.5 15.5 -38.5t38.5 -16t39 16t16 38.5t-16 38.5t-39 16t-38.5 -16t-15.5 -38.5zM945 357q0 1 -1 2t-2 1q-10 -40 -30 -77q0 -1 1 -2t1 -2q13 -30 13 -63
q0 -45 -24.5 -85t-67.5 -66l-9 -5q-9 -5 -9 -16v-36l-34 22l-6 5q-7 4 -14 3l-7 -2q-26 -5 -48 -5q-55 0 -104 23q-47 -11 -96 -13q84 -72 201 -72q36 0 61 5l77 -52q5 -2 9 -2q6 0 10.5 4.5t4.5 11.5v77q57 35 90 89t33 116q0 76 -49 139z" />
    <glyph glyph-name="uniE62F" unicode="&#xe62f;" horiz-adv-x="1026" 
d="M513.5 860q-102.5 0 -198.5 -36.5t-164 -94t-108.5 -129t-40.5 -140.5q0 -93 65.5 -177t172.5 -139q-41 -126 -131 -217q-12 -12 -8 -21q3 -6 11.5 -6t21.5 4q4 1 7 1q134 32 316 173q31 -3 57 -3q92 0 185.5 32.5t165 85t116 124t44.5 143.5q0 68 -40.5 139t-108 129
t-164 95t-199 37zM302.5 340q-40.5 0 -69.5 29t-29 69t29 69t69.5 29t69 -29t28.5 -69t-28.5 -69t-69 -29zM525 340q-40 0 -69 29t-29 69t29 69t69 29t69 -29t29 -69t-29 -69t-69 -29zM742.5 340q-40.5 0 -69 29t-28.5 69t28.5 69t69 29t69.5 -29t29 -69t-29 -69t-69.5 -29z
" />
  </font>
</defs>
</svg>
