<?xml version="1.0" standalone="no"?>
<!DOCTYPE svg PUBLIC "-//W3C//DTD SVG 1.1//EN" "http://www.w3.org/Graphics/SVG/1.1/DTD/svg11.dtd" >
<svg xmlns="http://www.w3.org/2000/svg">
<metadata>
Created by FontForge 20120731 at Sat Apr  8 09:22:27 2017
 By admin
</metadata>
<defs>
<font id="iconfont" horiz-adv-x="1024" >
  <font-face 
    font-family="iconfont"
    font-weight="500"
    font-stretch="normal"
    units-per-em="1024"
    panose-1="2 0 6 3 0 0 0 0 0 0"
    ascent="896"
    descent="-128"
    x-height="792"
    bbox="-0.25 -224 1025 896"
    underline-thickness="0"
    underline-position="0"
    unicode-range="U+0078-E83E"
  />
<missing-glyph 
 />
    <glyph glyph-name=".notdef" 
 />
    <glyph glyph-name=".notdef" 
 />
    <glyph glyph-name=".null" horiz-adv-x="0" 
 />
    <glyph glyph-name="nonmarkingreturn" horiz-adv-x="341" 
 />
    <glyph glyph-name="x" unicode="x" horiz-adv-x="1001" 
d="M281 543q-27 -1 -53 -1h-83q-18 0 -36.5 -6t-32.5 -18.5t-23 -32t-9 -45.5v-76h912v41q0 16 -0.5 30t-0.5 18q0 13 -5 29t-17 29.5t-31.5 22.5t-49.5 9h-133v-97h-438v97zM955 310v-52q0 -23 0.5 -52t0.5 -58t-10.5 -47.5t-26 -30t-33 -16t-31.5 -4.5q-14 -1 -29.5 -0.5
t-29.5 0.5h-32l-45 128h-439l-44 -128h-29h-34q-20 0 -45 1q-25 0 -41 9.5t-25.5 23t-13.5 29.5t-4 30v167h911zM163 247q-12 0 -21 -8.5t-9 -21.5t9 -21.5t21 -8.5q13 0 22 8.5t9 21.5t-9 21.5t-22 8.5zM316 123q-8 -26 -14 -48q-5 -19 -10.5 -37t-7.5 -25t-3 -15t1 -14.5
t9.5 -10.5t21.5 -4h37h67h81h80h64h36q23 0 34 12t2 38q-5 13 -9.5 30.5t-9.5 34.5q-5 19 -11 39h-368zM336 498v228q0 11 2.5 23t10 21.5t20.5 15.5t34 6h188q31 0 51.5 -14.5t20.5 -52.5v-227h-327z" />
    <glyph glyph-name="shanchu" unicode="&#xe600;" 
d="M344.5 105q11.5 0 19.5 8t8 20v306q0 12 -8 20t-19.5 8t-19.5 -8t-8 -20v-306q0 -12 8 -20t19.5 -8zM511.5 105q11.5 0 20 8t8.5 20v306q0 12 -8.5 20t-20 8t-19.5 -8t-8 -20v-306q0 -12 8 -20t19.5 -8zM679.5 105q11.5 0 19.5 8t8 20v306q0 12 -8 20t-19.5 8t-20 -8
t-8.5 -20v-306q0 -12 8.5 -20t20 -8zM819 746h-116q-9 37 -39 60.5t-68 23.5h-168q-38 0 -68 -23.5t-39 -60.5h-116q-46 0 -79 -32.5t-33 -78.5v-28h28v-28h56v-530q0 -46 32.5 -79t79.5 -33h446q46 0 79 33t33 79v530h55v28h28v28q0 46 -32.5 78.5t-78.5 32.5zM428 774h168
q31 0 48 -28h-264q16 28 48 28zM791 49q0 -23 -16.5 -39.5t-39.5 -16.5h-446q-24 0 -42 16.5t-18 39.5l4 530h558v-530zM149 635q0 23 16.5 39.5t39.5 16.5h614q23 0 39.5 -16.5t16.5 -39.5h-726z" />
    <glyph glyph-name="shopping-cart" unicode="&#xe626;" 
d="M1024 605l-109 -354q-31 -50 -73 -50h-538l13 -75h574q14 0 19.5 -19t0 -37.5t-19.5 -18.5h-603q-3 0 -9.5 2.5t-19 15t-19.5 32.5l-108 624h-109q-15 0 -20.5 19t0 37.5t20.5 18.5h120q12 0 17.5 -0.5t16.5 -2t16.5 -7t6.5 -13.5l95 -501h547l106 299v0h-612
q-14 0 -20 19t0 37.5t20 18.5h651q4 0 12 -2.5t17 -14t8 -28.5zM336 -24q40 0 68 -29.5t28 -70.5t-28 -70.5t-68 -29.5t-68 29.5t-28 70.5t28 70.5t68 29.5zM336 -162q15 0 25.5 11t10.5 26.5t-10.5 26.5t-25.5 11t-25.5 -11t-10.5 -26.5t10.5 -26.5t25.5 -11zM746 -124
q0 41 28 70.5t68 29.5t68.5 -29.5t28.5 -70.5t-28.5 -70.5t-68.5 -29.5t-68 29.5t-28 70.5zM879 -124.5q0 15.5 -11 26.5t-26 11t-25.5 -11t-10.5 -26.5t10.5 -26.5t25.5 -11t26 11t11 26.5z" />
    <glyph glyph-name="fenxiang" unicode="&#xe617;" 
d="M841 274q-44 0 -82 -19.5t-64 -53.5l-264 124q8 30 8 59t-8 59l264 124q26 -34 64 -53.5t82 -19.5q76 0 129.5 53.5t53.5 129t-53.5 129t-129.5 53.5t-129.5 -53.5t-53.5 -128.5q0 -20 6 -43l-264 -125q-31 44 -78.5 69t-102.5 25q-90 0 -154.5 -64t-64.5 -155t64.5 -155
t154.5 -64q55 0 102.5 25t78.5 69l264 -125q-6 -23 -6 -43q0 -75 53.5 -128.5t129.5 -53.5t129.5 53.5t53.5 129t-53.5 129t-129.5 53.5zM841.5 786q45.5 0 77.5 -32t32 -77.5t-32 -77.5t-77.5 -32t-78 32t-32.5 77.5t32.5 77.5t78 32zM219.5 238q-60.5 0 -103.5 43t-43 103
t43 103t103.5 43t103.5 -43t43 -103t-43 -103t-103.5 -43zM841.5 -18q-45.5 0 -78 32t-32.5 77.5t32.5 77.5t78 32t77.5 -32t32 -77.5t-32 -77.5t-77.5 -32z" />
    <glyph glyph-name="gengduo" unicode="&#xe766;" 
d="M512 569q37 0 63.5 26t26.5 63.5t-26.5 63.5t-63.5 26t-63.5 -26t-26.5 -63.5t26.5 -63.5t63.5 -26zM512 390q-37 0 -63.5 -26.5t-26.5 -63.5t26.5 -63.5t63.5 -26.5t63.5 26.5t26.5 63.5t-26.5 63.5t-63.5 26.5zM512 31q-37 0 -63.5 -26t-26.5 -63.5t26.5 -63.5
t63.5 -26t63.5 26t26.5 63.5t-26.5 63.5t-63.5 26z" />
    <glyph glyph-name="shoucang" unicode="&#xe611;" 
d="M512 806q-103 0 -196 -40.5t-160 -108t-106.5 -161t-39.5 -196.5t40 -196.5t107.5 -161t161.5 -108t196.5 -40.5t196 40.5t161 108t108 161t40.5 196.5q-1 103 -42 196.5t-109 161t-161.5 108t-196.5 40.5zM730 -20l-218 131l-218 -131l55 246l-189 170l253 22l99 234
l99 -234l253 -22l-192 -166z" />
    <glyph glyph-name="iconfontpraise" unicode="&#xe608;" 
d="M841 403h-210q61 225 -18 296q-19 18 -38 20q-20 0 -31.5 -7.5t-14 -16t-3.5 -18.5t-2 -12q0 -41 -16 -83t-38.5 -73t-45.5 -56t-39 -38l-16 -12v-418q0 -27 27 -41.5t51 -14.5h315q13 0 26.5 19.5t20.5 39.5l7 19q34 118 53.5 204.5t21.5 113.5l3 27q0 25 -13.5 37.5
t-26.5 12.5zM282 402h-125q-12 0 -18.5 -6t-7.5 -13l-1 -6l26 -421q0 -12 7 -18.5t14 -7.5l6 -1h109q10 0 15.5 4.5t6.5 9.5v4v424q0 14 -8 22t-16 9h-8z" />
    <glyph glyph-name="shouc01" unicode="&#xe61f;" 
d="M955 383l-316 46l-142 286l-158 -305q3 -4 11.5 -12t12.5 -12l134 256l120 -243l268 -39l-194 -189l46 -267l-240 126l-240 -126l46 267l-194 189l148 20l-28 28l-190 -25l229 -223l-54 -315l283 148l283 -148l-54 315z" />
    <glyph glyph-name="guanbi" unicode="&#xe637;" 
d="M926 458q-36 86 -102.5 152.5t-152.5 102.5q-90 38 -187.5 38t-186.5 -38q-86 -36 -152.5 -102.5t-103.5 -152.5q-37 -90 -37 -187.5t37 -186.5q37 -86 103.5 -152.5t152.5 -103.5q89 -37 186.5 -37t187.5 37q86 37 152.5 103.5t102.5 152.5q38 89 38 186.5t-38 187.5z
M483.5 -143q-112.5 0 -207.5 55.5t-150.5 150.5t-55.5 207.5t55.5 208t150.5 151t207.5 55.5t208 -55.5t151 -151t55.5 -208t-55.5 -207.5t-151 -150.5t-208 -55.5zM633 472v0l-154 -154l-154 154q-10 10 -24 10t-24 -10v0q-10 -10 -10 -24.5t10 -24.5l154 -153l-154 -155
q-10 -10 -10 -24t10 -24t24.5 -10t24.5 10v0l153 154l155 -154q10 -10 24 -10t24 10v1q10 10 10 24t-10 24l-154 154l154 154q10 10 10 24t-10.5 24t-24.5 10t-24 -10z" />
    <glyph glyph-name="daifahuo" unicode="&#xe61e;" 
d="M330 514q-9 -8 -20 -8h-86q-12 0 -20 8t-8 20v114q0 12 8 20.5t20 8.5t20.5 -8.5t8.5 -20.5v-85h57q11 0 19.5 -8.5t8.5 -20.5t-8 -20v0zM378 608q-12 28 -33.5 49.5t-50 34t-60.5 12.5q-33 0 -61.5 -12.5t-50 -34t-34 -50t-12.5 -60.5q0 -33 12.5 -61.5t34 -49.5
t50 -33.5t61.5 -12.5q32 0 60.5 12.5t50 33.5t34 49.5t12.5 61.5q0 32 -13 61v0zM938 174h-20h-176q-7 0 -14 6.5t-7 11.5v1q-1 47 -1 85v87q0 11 9 20t21 9q1 0 14.5 1t33 -1.5t41.5 -10.5t41 -26q30 -31 42.5 -74.5t22.5 -90.5q0 -2 0.5 -3t0.5 -3q0 -11 -8 -12v0z
M1013 163q-7 54 -25.5 110.5t-54.5 106.5q-20 27 -49.5 47t-63 32.5t-68 18t-66.5 2.5q-11 -1 -18 -15t-7 -24v-462q0 -17 12.5 -29.5t29.5 -12.5h17q0 24 9.5 45.5t25 38t36.5 26t46 9.5t47.5 -7t39.5 -21t27 -37t10 -56h39q6 0 9.5 6t5.5 14t3 16t1 14q0 30 1 77
q0 47 -7 101v0zM842 -4q25 0 43 -18.5t18 -43.5q0 -26 -18 -44t-43 -18q-26 0 -43.5 18t-17.5 44q0 25 17.5 43.5t43.5 18.5v0zM183 -3q-26 0 -43.5 -18.5t-17.5 -44.5q0 -25 17.5 -43t43.5 -18t44 18t18 43q0 26 -18 44.5t-44 18.5v0zM428 597q7 -26 7 -53q0 -42 -16 -78
t-43 -63.5t-63.5 -43t-77.5 -15.5q-42 0 -78.5 15.5t-63.5 43t-43 63.5t-16 78v9q-13 -17 -21 -37q-9 -22 -9 -45v-497q0 -19 10.5 -28.5t27.5 -9.5h22q0 61 31 91.5t89 30.5q62 0 90.5 -32.5t28.5 -89.5h261q16 0 27 10.5t11 27.5l-2 623h-172z" />
    <glyph glyph-name="gouwuche" unicode="&#xe613;" 
d="M429 -137q-33 0 -57 24t-24 57t24 57t57 24t57 -24t24 -57t-24 -57t-57 -24zM429 -26q-12 0 -21 -9t-9 -21t9 -21t21 -9t21 9t9 21t-9 21t-21 9zM765.5 -137q-33.5 0 -57 24t-23.5 57t23.5 57t57 24t57 -24t23.5 -57t-23.5 -57t-57 -24zM765.5 -26q-12.5 0 -21 -9
t-8.5 -21t8.5 -21t21 -9t21 9t8.5 21t-8.5 21t-21 9zM895 85h-576q-18 0 -22 17l-123 495h-112q-9 0 -16 7t-7 16.5t7 16t16 6.5h130q18 0 22 -17l123 -495h538l50 404h-603q-10 0 -16.5 7t-6.5 16.5t6.5 16t16.5 6.5h629q10 0 17 -7.5t6 -18.5l-56 -450q-1 -9 -7.5 -14.5
t-15.5 -5.5z" />
    <glyph glyph-name="fenlei1" unicode="&#xe66f;" 
d="M112 655q24 4 41.5 -11.5t17.5 -38.5q1 -23 -15 -38t-36 -15q-22 0 -37 14.5t-16 34.5q-2 21 11 36.5t34 17.5v0zM251 630h705v-52h-706v49q0 3 1 3v0zM111 341q21 3 37 -7q9 -6 16 -18.5t7 -25.5q1 -24 -15.5 -38t-35.5 -15q-22 0 -37 15t-16 34q-2 22 11 37t33 18v0z
M251 316h705v-52h-706v49q0 3 1 3v0zM113 53q24 3 41 -12.5t17 -37.5q1 -24 -16 -39t-38.5 -14t-35.5 16.5t-14 36.5t13 34.5t33 15.5v0zM251 28h705v-52h-706v49q0 3 1 3v0zM251 28z" />
    <glyph glyph-name="fenlei" unicode="&#xe633;" 
d="M865 -146h-220q-41 0 -70 29.5t-29 70.5v222q0 42 29 71t70 29h220q41 0 70.5 -29t29.5 -71v-222q0 -41 -29.5 -70.5t-70.5 -29.5zM645 240q-26 0 -44.5 -18.5t-18.5 -45.5v-222q0 -26 18.5 -45t44.5 -19h220q26 0 44.5 19t18.5 45v222q0 27 -18.5 45.5t-44.5 18.5h-220z
M389 -146h-220q-41 0 -70.5 29.5t-29.5 70.5v222q0 42 29.5 71t70.5 29h220q41 0 70.5 -29t29.5 -71v-222q0 -41 -29.5 -70.5t-70.5 -29.5zM169 240q-26 0 -44.5 -18.5t-18.5 -45.5v-222q0 -26 18.5 -45t44.5 -19h220q26 0 44.5 19t18.5 45v222q0 27 -18.5 45.5t-44.5 18.5
h-220zM389 330h-220q-41 0 -70.5 29t-29.5 71v222q0 41 29.5 70.5t70.5 29.5h220q41 0 70.5 -29.5t29.5 -70.5v-222q0 -42 -29.5 -71t-70.5 -29zM169 716q-26 0 -44.5 -19t-18.5 -45v-222q0 -27 18.5 -45.5t44.5 -18.5h220q26 0 44.5 18.5t18.5 45.5v222q0 26 -18.5 45
t-44.5 19h-220zM860 339h-209q-40 0 -68 28t-28 68v211q0 40 28 68.5t68 28.5h209q39 0 67.5 -28.5t28.5 -68.5v-211q0 -40 -28 -68t-68 -28zM651 706q-25 0 -42.5 -17.5t-17.5 -42.5v-211q0 -25 17.5 -42.5t42.5 -17.5h209q24 0 41.5 17.5t17.5 42.5v211q0 25 -17.5 42.5
t-41.5 17.5h-209z" />
    <glyph glyph-name="gouwuche1" unicode="&#xe618;" 
d="M875 1h-427q-36 0 -74.5 16t-67 46.5t-28.5 65.5l-43 640h-192q-43 0 -43 21.5t43 21.5h235l21 -299h725zM320 129q0 -26 49.5 -55.5t78.5 -29.5h384l128 427h-661zM448 -41q35 0 60 -25t25 -60.5t-25 -60.5t-60 -25t-60 25t-25 60.5t25 60.5t60 25zM448 -169
q18 0 30.5 12.5t12.5 30t-12.5 30t-30.5 12.5t-30.5 -12.5t-12.5 -30t12.5 -30t30.5 -12.5zM746.5 -41q35.5 0 60.5 -25t25 -60.5t-25 -60.5t-60.5 -25t-60.5 25t-25 60.5t25 60.5t60.5 25zM746.5 -169q17.5 0 30 12.5t12.5 30t-12.5 30t-30 12.5t-30 -12.5t-12.5 -30
t12.5 -30t30 -12.5z" />
    <glyph glyph-name="wo" unicode="&#xe60f;" 
d="M665 231q56 39 88.5 100.5t32.5 132.5q0 118 -83.5 201.5t-201.5 83.5t-201.5 -83.5t-83.5 -201.5q0 -74 34.5 -136.5t93.5 -101.5q-110 -48 -178.5 -148.5t-71.5 -224.5h41q3 120 74.5 215t182.5 132q52 -21 109 -21q61 0 117 25q116 -34 191 -130.5t78 -220.5h41
q-3 127 -75.5 229.5t-187.5 148.5zM501 220q-101 0 -172.5 71.5t-71.5 172.5t71.5 172.5t172.5 71.5t172.5 -71.5t71.5 -172.5t-71.5 -172.5t-172.5 -71.5z" />
    <glyph glyph-name="fanhui" unicode="&#xe774;" 
d="M277 339h596v-78h-596l294 -259l-56 -55l-366 353l29 27l337 326l56 -55z" />
    <glyph glyph-name="shouye" unicode="&#xe63f;" 
d="M809 764h-567l-162 -279v-111q0 -49 28 -84l1 -307q0 -46 33.5 -78.5t81.5 -32.5h604q47 0 81.5 32.5t34.5 78.5v307q28 33 28 84v111zM889 129v-34v-56v-32v-24q0 -22 -18.5 -38.5t-42.5 -16.5h-604q-24 0 -42 16.5t-18 38.5v24v0v120v135h54q24 0 54 19.5t44 48.5
q17 -30 46 -49t59 -19q32 0 62.5 17.5t42.5 44.5q11 -26 41 -44t62 -18q30 0 59.5 20.5t45.5 51.5q23 -38 43 -55t56 -17h56v-133v0zM917 374q-1 -27 -26 -41.5t-58 -14.5q-34 0 -59.5 17t-25.5 39h-27q0 -21 -30 -38.5t-63 -17.5q-31 0 -60 18t-29 38h-27q0 -21 -29 -38.5
t-61 -17.5q-35 0 -63.5 15t-28.5 41h-26q0 -21 -27 -39t-58 -18q-34 0 -58.5 15t-24.5 42v56h781v-56v0zM137 485l130 223h518l132 -223h-780z" />
    <glyph glyph-name="gengduo1" unicode="&#xe683;" 
d="M211 391q-38 0 -64.5 -26.5t-26.5 -64.5t26.5 -64.5t64.5 -26.5t65 26.5t27 64.5t-27 64.5t-65 26.5zM503 391q-38 0 -65 -26.5t-27 -64.5t27 -64.5t65 -26.5t64.5 26.5t26.5 64.5t-26.5 64.5t-64.5 26.5zM813 391q-38 0 -65 -26.5t-27 -64.5t27 -64.5t65 -26.5
t64.5 26.5t26.5 64.5t-26.5 64.5t-64.5 26.5z" />
    <glyph glyph-name="hricon33" unicode="&#xe636;" 
d="M454.5 20q-89.5 0 -166 44.5t-121 121t-44.5 166t44.5 166t121 121t166 44.5t166 -44.5t121 -121t44.5 -166t-44.5 -166t-121 -121t-166 -44.5zM454.5 619q-110.5 0 -189 -78.5t-78.5 -189t78.5 -189t189 -78.5t189 78.5t78.5 189t-78.5 189t-189 78.5zM855 -79
q-13 0 -22 9l-175 175q-9 9 -9 22.5t9 23t22.5 9.5t22.5 -10l175 -174q9 -10 9 -23t-9.5 -22.5t-22.5 -9.5z" />
    <glyph glyph-name="zuojiantou" unicode="&#xe621;" 
d="M738 646q12 12 12 29t-12.5 29t-30 12t-29.5 -12l-378 -367q-12 -12 -12 -29t12 -29l378 -367q12 -12 29.5 -12t30 12.5t12.5 29.5t-12 29l-347 337z" />
    <glyph glyph-name="xiaoxi" unicode="&#xe628;" horiz-adv-x="1025" 
d="M290 -212q-14 0 -24 10q-16 16 -8 37q32 77 39 115q-5 10 -5 19q0 14 10 24.5t24 10.5q21 0 33 -18q15 -23 -5 -88l-1 -6l5 3q98 56 109 86q8 22 32 22h6h3q3 1 4 1q120 0 222 49.5t161.5 134.5t59.5 185.5t-59.5 185.5t-161.5 134.5t-222 49.5t-222 -49.5t-161.5 -134.5
t-59.5 -185q0 -83 43.5 -158t123.5 -129q12 -8 14.5 -22t-5.5 -26q-10 -15 -28 -15q-11 0 -19 6q-95 64 -146.5 154t-51.5 190q0 89 40.5 170t109 139.5t163.5 93.5t199 35t199 -35t163.5 -93.5t109 -139.5t40.5 -170q0 -117 -67.5 -217.5t-183.5 -160t-252 -61.5h-2v-1
q-21 -29 -69 -62t-81.5 -50t-64.5 -31q-6 -3 -14 -3zM363 255q-15 0 -25.5 10t-10.5 23.5t10.5 23t25.5 9.5h229q14 0 24.5 -9.5t10.5 -23t-10.5 -23.5t-24.5 -10h-229zM362 396q-14 0 -24.5 9.5t-10.5 23t10.5 23.5t24.5 10h300q14 0 24.5 -10t10.5 -23.5t-10.5 -23
t-24.5 -9.5h-300z" />
    <glyph glyph-name="fankui" unicode="&#xe601;" 
d="M453 362h-219q-22 0 -22 -23q0 -12 5.5 -17.5t16.5 -5.5h219q22 0 22 23t-22 23zM783 316q-10 0 -16 -7.5t-6 -15.5v-346q0 -8 -7.5 -15.5t-14.5 -7.5h-571q-7 0 -14.5 7.5t-7.5 15.5v599q0 8 7 15.5t15 7.5h417q10 0 16 7t6 16q0 8 -7 15.5t-15 7.5h-417q-30 0 -48 -19
t-18 -51v-598q0 -31 18 -50t48 -19h571q30 0 48 19t18 50v346q0 23 -22 23zM212 131q0 -23 22 -23h461q22 0 22 23q0 12 -5.5 17.5t-16.5 5.5h-461q-22 0 -22 -23zM914.5 690.5q-6.5 6.5 -14.5 7.5t-14 -5l-319 -335q-5 -6 -4.5 -14.5t7 -15.5t15 -7.5t13.5 4.5l319 336
q6 5 5 14t-7.5 15.5z" />
    <glyph glyph-name="xiaoxi1" unicode="&#xe604;" 
d="M320 -69q-11 0 -19 7q-14 13 -7 32l32 76q9 19 10 31q-12 19 4 34q8 8 19.5 8t19.5 -8q27 -27 -2 -88l-1 -2l126 69q6 4 13 4q106 0 196.5 46t142.5 125.5t52 172.5q0 87 -53.5 163.5t-144 122t-193.5 45.5q-101 0 -190.5 -45t-143.5 -121.5t-57 -164.5q-2 -77 36 -147
t110 -121q10 -7 11.5 -18t-5 -20.5t-18 -11.5t-20.5 5q-83 59 -127.5 141t-41.5 173q3 103 64.5 192t163.5 141.5t218 52.5q119 0 222 -52.5t164 -142t61 -192.5q0 -107 -59 -198.5t-160 -145.5t-220 -56l-190 -103q-6 -4 -13 -4zM586 489h-250q-6 0 -10 4t-4 10t4 10t10 4
h250q6 0 10 -4t4 -10t-4 -10t-10 -4zM697 489h-42q-5 0 -9 4t-4 10t4 10t9 4h42q6 0 10 -4t4 -10t-4 -10t-10 -4zM503 350h-153q-6 0 -10 4.5t-4 10t4 9.5t10 4h153q5 0 9.5 -4t4.5 -9.5t-4.5 -10t-9.5 -4.5zM586 350h-28q-6 0 -10 4.5t-4 10t4 9.5t10 4h28q6 0 10 -4
t4 -9.5t-4 -10t-10 -4.5z" />
    <glyph glyph-name="yanjing" unicode="&#xe627;" 
d="M512 175q53 0 120 25t119.5 58.5t90.5 66t44 49.5q-3 18 -37.5 53.5t-86 72t-120.5 64t-130 27.5q-79 0 -168 -37t-147.5 -88.5t-58.5 -92.5q2 -16 37.5 -48t87 -65.5t121 -59t128.5 -25.5zM512 134q-62 0 -137.5 26.5t-135.5 64t-101 79t-41 69.5q0 57 67.5 119
t165.5 101t182 39q67 0 143.5 -29.5t135 -71t97.5 -86t39 -72.5q0 -24 -42 -64.5t-102.5 -79t-136 -67t-134.5 -28.5v0v0v0zM512 134zM512 279q43 0 73.5 30.5t30.5 73.5t-30.5 73.5t-73.5 30.5t-73.5 -30.5t-30.5 -73.5t30.5 -73.5t73.5 -30.5zM512 238q-60 0 -102.5 42.5
t-42.5 102.5t42.5 102.5t102.5 42.5t102.5 -42.5t42.5 -102.5t-42.5 -102.5t-102.5 -42.5v0v0v0zM512 238z" />
    <glyph glyph-name="xingxing" unicode="&#xe66a;" 
d="M510 868l156 -316l349 -51l-253 -246l60 -347l-312 164l-312 -164l59 347l-252 246l349 51z" />
    <glyph glyph-name="dizhi" unicode="&#xe622;" 
d="M856 548q0 95 -46.5 175t-126.5 126.5t-174.5 46.5t-174.5 -46.5t-126.5 -126.5t-46.5 -175q0 -81 35.5 -180t87 -183.5t102.5 -157t87 -113.5l35 -42q8 8 20.5 21.5t49 58t69.5 89.5t73 110.5t69 127.5t48.5 134t18.5 135zM507 -33q-11 13 -30 36.5t-68 93.5
t-86.5 136.5t-68 152t-30.5 154.5q0 122 83 208.5t200 86.5t200 -86.5t83 -208.5q1 -42 -8.5 -88.5t-26 -90t-37.5 -87t-44.5 -82t-47 -73t-45 -62.5t-38 -48t-26.5 -31.5t-10 -10.5zM512 723q-76 0 -130.5 -54t-54.5 -130.5t54.5 -130.5t130.5 -54t130.5 54t54.5 130.5
t-54.5 130.5t-130.5 54zM512 419q-50 0 -85 35t-35 85t35 85t85 35t85 -35t35 -85t-35 -85t-85 -35z" />
    <glyph glyph-name="xuanzhong" unicode="&#xe6b1;" 
d="M512 831q-91 0 -173.5 -35.5t-142.5 -95.5t-95.5 -142.5t-35.5 -173.5t35.5 -173.5t95.5 -142.5t142.5 -95.5t173.5 -35.5t173.5 35.5t142.5 95.5t95.5 142.5t35.5 173.5t-35.5 173.5t-95.5 142.5t-142.5 95.5t-173.5 35.5zM512 13q-101 0 -186.5 49.5t-135 135
t-49.5 186.5t49.5 186.5t135 135t186.5 49.5t186.5 -49.5t135 -135t49.5 -186.5t-49.5 -186.5t-135 -135t-186.5 -49.5zM658 514l-208 -207l-84 84q-11 11 -26.5 11t-26.5 -11v0q-11 -11 -11 -26.5t11 -26.5l111 -111q11 -11 26.5 -11t26.5 11v0l234 234q11 11 11 26.5
t-11 26.5v0q-11 11 -26.5 11t-26.5 -11z" />
    <glyph glyph-name="kefu" unicode="&#xe741;" 
d="M190.5 -65q-13.5 0 -22.5 9.5t-9 22.5q0 53 59 89t167 51v10q-28 21 -47.5 52.5t-29 59.5t-15 68t-6 61.5t-0.5 57.5q0 104 58.5 163.5t161.5 59.5h7q104 0 162 -59.5t58 -163.5v-32q-1 -13 -10.5 -22t-22.5 -8.5t-22.5 10t-8.5 22.5v30q0 159 -156 159h-7
q-156 0 -156 -159q0 -46 2.5 -78t10 -69t25.5 -64t45 -45q15 -9 15 -27v-54q0 -12 -8 -21.5t-21 -10.5q-91 -10 -144 -33t-53 -47q0 -13 -9.5 -22.5t-23 -9.5zM833.5 -65q-13.5 0 -22.5 9.5t-9 22.5q0 24 -53.5 47t-144.5 33q-12 1 -20.5 10.5t-8.5 21.5v55q0 13 9.5 22.5
t22.5 9.5t22.5 -9.5t9.5 -22.5v-27q109 -15 168 -51t59 -89q0 -13 -9.5 -22.5t-23 -9.5zM612 223q-54 0 -78 4q-11 4 -17.5 14.5t-4 22.5t12.5 19.5t23 6.5q69 -8 138.5 2t83.5 41q6 12 18.5 16.5t24.5 -1.5t16.5 -18.5t-1.5 -24.5q-40 -82 -216 -82zM896 256
q-13 0 -22.5 9.5t-9.5 22.5v112l-43 15q-21 8 -21 30q0 121 -84.5 206.5t-203.5 85.5t-203.5 -85.5t-84.5 -206.5q0 -16 -13 -26l-19 -13v-118q0 -13 -9.5 -22.5t-22.5 -9.5t-22.5 9.5t-9.5 22.5v134q0 17 13 26l19 14q5 93 52.5 170.5t127 122.5t172.5 45
q139 0 240.5 -96.5t110.5 -235.5l44 -15q21 -8 21 -31v-134q0 -13 -9.5 -22.5t-22.5 -9.5z" />
    <glyph glyph-name="jianjie" unicode="&#xe701;" 
d="M876 894q-12 2 -41 2h-68h-217h-234h-142h-8q-49 0 -78 -40q-26 -35 -26 -77v-10v-146v-240v-240v-144v-10q0 -44 28 -80q29 -37 76 -37h9h143h234h216h68q30 0 43 2q34 7 57 38q26 34 26 76v95v221v250v186v38q0 41 -24 75.5t-62 40.5zM141 -58v0v0zM899 -35v0v0z
M903 -19l-0.5 -1.5t-0.5 -3.5v-3q-1 -4 -3 -8v-1q-1 -3 -3 -6q-1 -1 -2.5 -3.5t-2.5 -3.5l-4 -4q0 -1 -4 -4l-1 -1q-3 -2 -7 -4l-1 -0.5t-2 -1.5q-3 -1 -9 -2h-3h-2h-3h-41h-190h-240h-182h-35h-1h-0.5h-1.5h-3h-2q-4 1 -9 3q-1 1 -3 2q-3 1 -6 4h-1q-2 2 -4 5q-1 0 -5 6
q-2 2 -3 5q-1 1 -3 5q0 2 -1 2q-1 4 -2 9q0 1 -1 5v8v1v107v225v250v177v31v1v7v3q1 2 2 7q0 1 1 4t1 4q2 2 3 5q1 1 2.5 3.5t2.5 3.5q2 3 5 6q1 1 3 2q3 3 8 5l1 0.5t2 1.5l6 2h4h4h1h114h225h228h122h2h3h2h2l9 -3l4 -2q1 -1 3.5 -2.5t2.5 -2.5q2 -1 4 -4l5 -6q2 -3 4 -7
q1 -1 2 -4q2 -4 3 -10q0 -1 1 -5v-8v-27v-171v-248v-229v-115v-2v-7zM244 293h150h210h23q12 0 20.5 8.5t8.5 20.5t-8.5 21t-20.5 9h-150h-210h-23q-12 0 -20.5 -9t-8.5 -21t8.5 -20.5t20.5 -8.5zM780 199h-119h-235h-170h-12q-12 0 -20.5 -9t-8.5 -21t8.5 -20.5t20.5 -8.5
h119h235h170h12q12 0 20.5 8.5t8.5 20.5t-8.5 21t-20.5 9zM273.5 515q23.5 0 40 16.5t16.5 40t-16.5 40t-40 16.5t-40 -16.5t-16.5 -40t16.5 -40t40 -16.5zM502.5 515q23.5 0 40 16.5t16.5 40t-16.5 40t-40 16.5t-40 -16.5t-16.5 -40t16.5 -40t40 -16.5zM732.5 515
q23.5 0 40 16.5t16.5 40t-16.5 40t-40 16.5t-40 -16.5t-16.5 -40t16.5 -40t40 -16.5z" />
    <glyph glyph-name="quanjuyoujian" unicode="&#xe607;" 
d="M595 384l-251 -243q-12 -12 -12 -28t11.5 -27t28 -11t28.5 11l276 267l1.5 1t2.5 2q10 10 11.5 24t-6.5 25q-3 4 -5 6q-279 271 -280 271q-11 11 -28 11t-28.5 -11t-11.5 -27t12 -28z" />
    <glyph glyph-name="kefu1" unicode="&#xe610;" 
d="M66 792v-21v-613q5 -2 16 -5.5t20 -5.5t16 -2h172q0 -110 1 -124q0 -7 3 -14t8.5 -16.5t7.5 -14.5h21q151 132 185 161q9 7 36 7q42 0 166 0.5t191 0.5q8 0 16 2t18 5.5t15 5.5v613v21h-892zM900 200h-81q-242 0 -286 -1q-29 0 -55 -20q-15 -12 -132 -111q0 82 1 87
q1 25 -9.5 35.5t-35.5 10.5q-16 -1 -176 -1v525h774v-525zM403 396q4 -39 37.5 -68.5t72.5 -29.5q40 0 74.5 31t35.5 70q0 5 -3.5 11.5t-10 14t-8.5 11.5q-4 -3 -12 -7.5t-13 -9t-6 -8.5q-15 -56 -58 -55q-38 0 -56 54q-2 5 -7 9t-14 9t-13 7q-2 -4 -7.5 -12t-8.5 -14.5
t-3 -12.5zM386 550zM353 550.5q0 13.5 9.5 23t23 9.5t23 -9.5t9.5 -23t-9.5 -23.5t-23 -10t-23 10t-9.5 23.5zM652 550zM620 550.5q0 13.5 9.5 23t23 9.5t23 -9.5t9.5 -23t-9.5 -23.5t-23 -10t-23 10t-9.5 23.5z" />
    <glyph glyph-name="nv" unicode="&#xe606;" 
d="M512 539zM352 538.5q0 66.5 47 113.5t113 47t113 -47t47 -113.5t-47 -113.5t-113 -47t-113 47t-47 113.5zM512 875q-100 0 -191 -39t-156.5 -104.5t-104.5 -156.5t-39 -191t39 -191t104.5 -156.5t156.5 -104.5t191 -39t191 39t156.5 104.5t104.5 156.5t39 191t-39 191
t-104.5 156.5t-156.5 104.5t-191 39zM686 212v-61h-143v-144h-62v144h-143v61h143v107q-81 11 -136 73.5t-55 146.5q0 92 65 157t157 65t157 -65t65 -157q0 -84 -55 -146.5t-136 -73.5v-107h143z" />
    <glyph glyph-name="tuikuan" unicode="&#xe747;" 
d="M504.5 880q-102.5 0 -196 -40t-161 -107.5t-107 -161t-39.5 -196t39.5 -195.5t107 -160.5t161 -107.5t196 -40t195.5 40t160.5 107.5t107.5 160.5t40 195.5t-40 196t-107.5 161t-160.5 107.5t-195.5 40zM852 229q-28 -68 -80.5 -120t-120.5 -81q-70 -30 -147 -30
q-63 0 -122 20q-57 20 -105 57q-48 36 -83 85q-34 50 -52 108l49 14q30 -103 118 -168t195 -65q89 0 164.5 43.5t119.5 119t44 164.5t-44 164t-119.5 119t-164.5 44q-128 0 -222 -87.5t-104 -214.5h125v-50h-151q-11 0 -18 7t-7 18q0 77 29 147q29 68 81.5 120t119.5 81
q71 29 147.5 29t146.5 -29q68 -29 120.5 -81t80.5 -120q30 -70 30 -147t-30 -147zM353 401v50h151q-10 0 -17 8l-101 100l35 36l83 -83l83 83l36 -36l-101 -100q-7 -8 -18 -8h151v-50h-125v-101h125v-50h-125v-126h-51v126h-126v50h126v101h-126z" />
    <glyph glyph-name="daifukuan" unicode="&#xe814;" 
d="M279 564l15 4l415 138l-96 132l-382 -274h48zM466 564h381l-16 49l-29 87l-21 -7l-389 -129h74v0zM919 564q7 0 12.5 -5.5t5.5 -12.5v-140l50 25l33 17v146q0 22 -15.5 37.5t-37.5 15.5h-110l28 -83h34v0zM937 -10h30q22 0 37.5 15.5t15.5 37.5v120l-83 -42v-131v0z
M808 341q-41 0 -71 -29.5t-30 -71.5t30 -72t71 -30h62l150 64l1 205l-156 -66h-57v0zM808 210q-12 0 -20.5 9t-8.5 21t8.5 21t21 9t21 -9t8.5 -21t-8.5 -21t-21.5 -9v0zM672 240q0 55 49.5 96t108.5 41h48l23 11v88q0 22 -15.5 37.5t-37.5 15.5h-751q-12 4 -12 17
q0 7 5 12.5t13 5.5h68l116 83h-185q-41 0 -71 -29.5t-30 -71.5v-514q0 -42 30 -72t71 -30h558q5 0 14 1h174q22 0 37.5 16t15.5 38v118h-71q-59 0 -108.5 41t-49.5 96v0z" />
    <glyph glyph-name="daifahuo1" unicode="&#xe612;" 
d="M484 366h55q12 0 20 9t8 22v61h-111v-61q0 -13 8.5 -22t19.5 -9zM445 624h-51q-11 0 -17 -1t-14.5 -7t-16.5 -18q-16 -30 -54 -103h128zM534 624h-52l-26 -129h107zM511 835q-91 0 -174 -35.5t-143 -95.5t-95.5 -143t-35.5 -174t35.5 -174t95.5 -143t143 -95.5t174 -35.5
t174 35.5t143 95.5t95.5 143t35.5 174t-35.5 174t-95.5 143t-143 95.5t-174 35.5zM806 200q0 -30 -21.5 -51.5t-51.5 -21.5h-442q-31 0 -52.5 21.5t-21.5 51.5v221q0 20 10 37q16 48 81 171q9 15 20 22.5t18 8.5t20 1h291q14 0 21 -1.5t18 -9.5t21 -24q29 -54 49 -96t25 -57
l5 -15q10 -17 10 -37v-221zM732 495q-28 53 -53 101q-12 19 -22.5 23.5t-26.5 4.5h-55l29 -129h128zM733 458h-129v-83q0 -19 -13.5 -32.5t-32.5 -13.5h-92q-19 0 -32.5 13.5t-13.5 32.5v83h-129q-16 0 -26.5 -10.5t-10.5 -26.5v-221q0 -15 10.5 -26t26.5 -11h442
q15 0 26 11t11 26v221q0 16 -11 26.5t-26 10.5zM714 210q0 -10 -9 -10h-166q-9 0 -9 10v18q0 9 9 9h166q9 0 9 -9v-18zM714 265q0 -9 -9 -9h-92q-9 0 -9 9v18q0 9 9 9h92q9 0 9 -9v-18z" />
    <glyph glyph-name="shouyeshouye" unicode="&#xe623;" 
d="M922 377l-413 386l-413 -385q-6 -5 -6.5 -13.5t5.5 -14.5t14 -6.5t14 5.5l386 359l385 -360q6 -5 14 -5q9 0 15 6q5 6 5 14t-6 14v0zM922 377zM796 369q-9 0 -14.5 -6t-5.5 -14v-306h-160v213h-214v-213h-160v306q0 8 -6 14t-14 6t-14 -6t-6 -14v-346h240v213h134v-213
h240v346q0 8 -6 14t-14 6v0zM796 369zM656 656h120v-107q0 -8 5.5 -14t14 -6t14.5 6t6 14v147h-160q-9 0 -14.5 -6t-5.5 -14.5t5.5 -14t14.5 -5.5v0zM656 656z" />
    <glyph glyph-name="sanjiaoxia" unicode="&#xe65a;" 
d="M82 548l457 -455l435 462z" />
    <glyph glyph-name="pingjia" unicode="&#xe61b;" 
d="M406 -36q-15 0 -24 11q-24 26 -55.5 45t-57.5 28t-53.5 14t-38 6t-16.5 1v0q-13 0 -22.5 9t-9.5 22.5t9 23t22 9.5q6 0 21 -1t47 -7t64 -17t70 -34.5t67 -56.5q9 -10 8.5 -23t-10.5 -22q-9 -8 -21 -8v0zM620 -36v0q-12 0 -22 8q-9 9 -9.5 22.5t8.5 23.5q30 32 68.5 56
t70 34.5t63.5 16.5t46 7t21 1q13 0 22 -9.5t9 -23t-9.5 -22.5t-22.5 -9v0q-6 0 -16 -0.5t-37.5 -6t-53.5 -14.5t-58 -28.5t-56 -45.5q-10 -10 -24 -10zM564 127h-102q-5 0 -9 1q-81 11 -148 56.5t-112 121.5q-51 87 -62 191t23 186q4 8 12 13.5t17 5.5h10q91 0 169 -34
q57 103 128 155q4 3 8 5q16 7 31 -2l4 -4q71 -51 127 -156q79 36 173 36h10q21 0 29 -19q34 -82 23 -186t-62 -192q-45 -75 -112 -121t-148 -56q-5 -1 -9 -1zM468 191h90h2q140 16 217 147q41 69 52.5 151.5t-9.5 148.5q-88 -3 -159 -42q-12 -7 -25 -3t-19 17
q-49 99 -106 148q-58 -50 -106 -146q-6 -13 -19 -17t-25 3q-70 38 -155 40q-21 -66 -9.5 -148.5t52.5 -151.5q77 -131 217 -147h2zM513 -64q-13 0 -22.5 9.5t-9.5 22.5v191q0 13 9.5 22.5t22.5 9.5t22.5 -9.5t9.5 -22.5v-191q0 -13 -9.5 -22.5t-22.5 -9.5z" />
    <glyph glyph-name="ji" unicode="&#xe83e;" 
d="M875 674q0 15 -11.5 26.5t-26.5 11.5t-26 -11.5t-11 -26.5t11 -26t26 -11t26.5 11t11.5 26zM912 572q22 6 54 7.5t45.5 6.5t13.5 23q0 8 -17.5 20t-36 27.5t-21.5 31.5q-8 46 -41 75q11 8 21 21.5t17.5 28t11.5 28t2.5 23.5t-8.5 12q-21 4 -37.5 1.5t-27.5 -7.5l-10 -5
q0 2 -0.5 4t-4.5 7t-10.5 9t-19.5 7.5t-30 3.5q-18 0 -32.5 -4t-22 -9.5t-12.5 -11t-6 -9.5l-2 -4q-3 3 -9 5.5t-28 3.5t-48 -9q-33 -10 -4 -51t58 -65q-26 -34 -55.5 -110t-39.5 -91q-27 -35 -48 -53t-56.5 -29.5t-86.5 -9.5q-25 1 -47 3.5t-43 8.5t-36 10t-35 15t-29.5 15
t-30 18.5t-26 18.5t-28 21t-26.5 20q-35 25 -57 37.5t-38 13.5t-21.5 -13.5t-2.5 -44.5q4 -27 7.5 -47.5t6 -35t7.5 -26t6.5 -17t9 -13l8.5 -8.5t12.5 -8.5t13.5 -8.5q33 -18 33 -20q0 -1 -29 -1q-4 0 -12.5 0.5t-11 0.5t-7.5 -1t-6 -3.5t-2.5 -6.5t-1 -11t2.5 -16
q1 -4 3 -16.5t2.5 -16.5t2.5 -14.5t3.5 -15t4.5 -13t5.5 -13.5t7 -10.5t9.5 -9.5q9 -9 17 -15.5t12 -9t6 -5.5t2 -8q3 -41 84.5 -97t182.5 -87l129 -41v-72q-30 -3 -36 -18q-4 -12 15 -15q2 -1 4 -1h154q25 0 23 12q-8 12 -27 15q-6 1 -17 1q-57 2 -67 6t-10 27q-1 9 -1 14
v10q-1 17 5 20.5t41 4.5q29 1 49 3q28 2 63 14.5t74 33.5t74 56.5t56 79.5q70 148 0 259q-13 20 -22 41.5t-12.5 43t5.5 38t32 21.5zM680 831q9 6 23 3.5t28 -7.5l14 -6q0 2 1.5 5t6 10.5t10.5 14t16.5 12t23.5 6.5q18 1 34.5 -8.5t23.5 -19.5l7 -10l32 15q25 9 19 -10
q-3 -7 -10 -19q-26 -41 -34 -30q-4 2 -11 4t-28 6.5t-40 -0.5q-27 -5 -42.5 -11.5t-17.5 -11.5l-1 -4l-37 29q-26 24 -18 32zM912 316q-3 -71 -26 -124t-86 -105q-123 -105 -308 -68q-54 10 -122 35.5t-117 53.5q83 -8 171 10q72 18 114.5 51t45.5 58q3 22 -4.5 46.5
t-22.5 31.5q-11 6 -17.5 2t-7.5 -11l-2 -8q0 -2 6 -9t9 -19.5t2 -32.5q-3 -22 -48 -48.5t-95 -36.5q-90 -21 -219 17q-9 12 -35 43t-40.5 50.5t-25.5 44t-5 39.5q2 5 10.5 5.5t18 -2t23 2t23.5 18.5q10 16 5 32.5t-18 22.5q-51 16 -83 74q-27 47 -13 67q19 26 96 -46
q76 -60 146 -83t168 -16q63 3 108 29.5t79 90.5q15 25 33 69t30 72.5t35 52.5t53 28q88 10 112 -75q6 -19 25.5 -38t30.5 -27.5t2 -10.5h-21t-33.5 -2t-33.5 -8.5t-30 -23t-15 -41.5q-1 -21 12 -49t29 -51.5t29 -54t12 -56.5z" />
    <glyph glyph-name="jinrongtubiao_xiangqing" unicode="&#xe60c;" 
d="M720 239q-24 0 -40 -17.5t-16 -44t16 -44t40 -17.5t40 17.5t16 43.5q1 26 -15.5 44t-40.5 18zM720 332q-70 0 -127 -43.5t-81 -112.5q25 -70 81.5 -113t126.5 -43t126.5 44t81.5 113q-25 69 -81.5 112t-126.5 43zM720 73q-39 0 -66.5 30t-27.5 73t27.5 73t66.5 30
t66.5 -30t27.5 -73q1 -43 -26.5 -73t-67.5 -30zM277 227q-11 0 -18.5 -7.5t-7.5 -18.5t7.5 -19t18.5 -8h183v1.5v0.5q0 26 5 51h-188zM515 17h-316q-23 0 -39.5 16.5t-16.5 39.5v622q0 23 16.5 39.5t38.5 16.5q295 0 370 -1l6 -4v-108q0 -26 18 -44t44 -18h109l4 -5v-137
q26 -3 49 -10v135q0 13 -6.5 29t-16.5 26l-162 162q-9 9 -25 16t-30 7l-359 1q-43 -1 -73 -31.5t-30 -73.5v-622v-1q0 -43 30.5 -73.5t73.5 -30.5h1h364q-28 21 -50 49zM548 371h-271q-11 0 -18.5 -7.5t-7.5 -19.5q0 -11 7.5 -18.5t18.5 -7.5h225q20 29 46 53zM643 488
q-1 11 -8.5 18.5t-19.5 7.5h-338q-11 0 -18.5 -7.5t-7.5 -18.5t7.5 -19t18.5 -8h340q11 0 18.5 8t7.5 19z" />
    <glyph glyph-name="nan" unicode="&#xe634;" 
d="M512 896q-138 0 -256 -69t-187 -187t-69 -256t69 -256t187 -187t256 -69t256 69t187 187t69 256t-69 256t-187 187t-256 69zM800 416q0 -14 -9 -23t-23 -9t-23 9t-9 23v147l-122 -121h-3q61 -61 61 -151q0 -93 -65 -158.5t-159 -65.5t-159 65.5t-65 159t65 158.5t159 65
q62 0 115 -32q0 7 7 7l121 118h-147q-14 0 -23 9t-9 23t9 23t23 9h224q14 0 23 -9t9 -23v-224zM448 448q-67 0 -113.5 -46.5t-46.5 -113.5t46.5 -113.5t113.5 -46.5t113.5 46.5t46.5 113.5t-46.5 113.5t-113.5 46.5z" />
    <glyph glyph-name="fankui1" unicode="&#xe602;" 
d="M800 -64h-576q-40 0 -68 28t-28 68v640q0 40 28 68t68 28h448q13 0 22.5 -9.5t9.5 -22.5t-9.5 -22.5t-22.5 -9.5h-448q-13 0 -22.5 -9.5t-9.5 -22.5v-640q0 -13 9.5 -22.5t22.5 -9.5h576q13 0 22.5 9.5t9.5 22.5v512q0 13 9.5 22.5t22.5 9.5t22.5 -9.5t9.5 -22.5v-512
q0 -40 -28 -68t-68 -28zM612 448q-13 0 -22.5 9.5t-9.5 22.5t9 23l318 318q10 9 23 9t22.5 -9.5t9.5 -22.5t-9 -23l-318 -318q-10 -9 -23 -9zM480 448h-192q-13 0 -22.5 9.5t-9.5 22.5t9.5 22.5t22.5 9.5h192q13 0 22.5 -9.5t9.5 -22.5t-9.5 -22.5t-22.5 -9.5zM672 256h-384
q-13 0 -22.5 9.5t-9.5 22.5t9.5 22.5t22.5 9.5h384q13 0 22.5 -9.5t9.5 -22.5t-9.5 -22.5t-22.5 -9.5z" />
    <glyph glyph-name="zhi-" unicode="&#xe603;" 
d="M511 880q-91 -71 -190 -107.5t-241 -36.5v-372q0 -53 25 -119.5t69 -131t97.5 -119.5t117.5 -88.5t122.5 -33.5t122.5 33.5t117.5 88.5t97.5 119.5t69 131t25 119.5v372q-142 0 -241 36.5t-191 107.5zM881 365q0 -56 -33.5 -129.5t-85 -138t-120 -109t-131 -44.5
t-131 44.5t-120 108.5t-85.5 138t-34 130v320q122 0 206.5 31t163.5 92q79 -61 164 -92t206 -31v-320zM513 734q-66 -50 -136.5 -76t-171.5 -26v-266q0 -47 28 -108t71 -114.5t100 -90.5t108.5 -37t108.5 37t100 90.5t71 114.5t28 108v266q-101 0 -171.5 26t-135.5 76z
M473 482h54v42q-97 -5 -116 -5v-37q-2 -73 -3 -109q-2 -35 -9 -72q-7 -36 -33 -83q-14 10 -37 14q26 34 36 70q9 34 11 94q3 64 3 89q0 34 -2 60q47 0 89 1q46 2 94 7q50 4 88 19q3 -15 21 -36q-17 0 -44 -3q-36 -3 -67 -6v-45h80q22 0 50 2v-30q-24 1 -50 1h-80v-41h99
q-1 -27 -1 -54.5t1 -54.5h-33v83h-149v-93h-33q2 31 2 61.5t-2 57.5h85v42h-54q-27 0 -54 -2v30q24 -2 54 -2zM556 306q-4 -32 -37 -57t-89 -43q-3 12 -22 25q47 13 71 26q27 15 37 34q11 20 13 43q1 22 0 34q19 -2 37 -5q-7 -30 -10 -57zM638 271q32 -17 56 -35
q-9 -7 -21 -26q-36 29 -107 64q5 8 16 28q21 -11 56 -31z" />
  </font>
</defs>
</svg>
