<?xml version="1.0" standalone="no"?>
<!DOCTYPE svg PUBLIC "-//W3C//DTD SVG 1.1//EN" "http://www.w3.org/Graphics/SVG/1.1/DTD/svg11.dtd" >
<!--
2013-9-30: Created.
-->
<svg>
<metadata>
Created by iconfont
</metadata>
<defs>

<font id="iconfont" horiz-adv-x="1024" >
  <font-face
    font-family="iconfont"
    font-weight="500"
    font-stretch="normal"
    units-per-em="1024"
    ascent="896"
    descent="-128"
  />
    <missing-glyph />
    
    <glyph glyph-name="icondl" unicode="&#58888;" d="M961.739-37.201c-21.162 45.673-52.179 89.563-89.7 126.928-42.945 42.765-93.397 76.567-149.955 100.467-34.258 14.477-70.419 25.126-108.176 31.899 111.494 38.444 182.515 141.032 182.515 262.461 0 154.606-117.467 283.058-282.401 283.058-167.208 0-285.315-127.179-285.315-283.385 0-122.132 72.231-223.448 183.667-261.841-38.394-6.751-75.186-17.483-110.054-32.157-56.713-23.868-107.383-57.605-150.602-100.275-37.781-37.301-69.052-81.066-90.43-126.565-20.232-43.059-30.926-85.74-30.926-123.427h65.492c0 47.426 26.681 129.148 101.876 203.387 56.41 55.691 156.781 122.078 314.608 122.078 275.948 0 414.44-209.313 414.44-326.489h65.492c0.001 37.921-10.557 80.75-30.531 123.861zM294.198 484.227c0 59.397 21.727 114.219 61.177 154.369 19.511 19.857 42.606 35.407 68.643 46.221 27.648 11.483 57.928 17.304 90.003 17.304 31.342 0 61.020-5.827 88.209-17.319 25.677-10.853 48.512-26.458 67.872-46.381 39.225-40.367 60.828-95.012 60.828-153.866 0-58.643-21.162-112.385-59.587-151.324-19.065-19.321-41.748-34.448-67.417-44.959-27.416-11.227-57.644-16.919-89.843-16.919-32.43 0-62.956 5.656-90.728 16.81-26.090 10.479-49.147 25.547-68.532 44.787-39.094 38.804-60.625 92.529-60.625 151.279z"  horiz-adv-x="1024" />

    
    <glyph glyph-name="icon19" unicode="&#58893;" d="M940.571-52.693l-214.475 214.722c44.778 60.855 69.263 134.077 69.263 211.012 0 95.732-37.354 185.78-104.889 253.311-67.781 67.536-157.825 104.889-253.557 104.889s-185.78-37.354-253.311-104.889c-139.518-139.518-139.518-366.859 0-506.626 67.536-67.536 157.579-104.889 253.311-104.889 77.18 0 150.155 24.487 211.257 69.263l214.475-214.722c21.52-21.52 56.403-21.52 77.676 0 21.77 21.52 21.77 56.403 0.25 77.921zM252.866 188.744c-101.425 101.673-101.425 266.916 0 368.342 49.227 49.227 114.535 76.192 184.295 76.192 69.511 0 134.819-26.966 184.047-76.192 49.227-49.227 76.443-114.535 76.443-184.295 0-69.762-27.211-135.065-76.443-184.295-49.227-49.227-114.535-76.192-184.047-76.192-69.762 0.25-135.065 27.211-184.295 76.443z"  horiz-adv-x="1024" />

    
    <glyph glyph-name="chongzhi" unicode="&#58885;" d="M693.095316 614.239143l-131.632817-223.935003 103.718481 0 0-49.478312-120.846571 0 0-68.193688 120.846571 0 0-50.115659-120.846571 0 0-99.276514-62.164435 0L482.169975 222.516481 356.88022 222.516481l0 50.115659 125.289755 0 0 68.193688L356.88022 340.825828l0 49.478312 106.893053 0-130.364204 223.935003 70.099647 0c60.895822-111.230417 97.898433-181.748475 111.012698-211.562689l1.268612 0c4.441967 12.262847 16.596562 37.002611 36.474732 74.219292l74.536749 137.343396L693.095316 614.239143 693.095316 614.239143zM693.095316 614.239143M784.470674 274.551478c-15.061578 0-27.247797-12.187435-27.247797-27.247797s12.187435-27.247797 27.247797-27.247797l71.98128 0c-61.204765-128.843816-192.338895-217.986027-344.464118-217.986027-210.6687 0-381.478892 170.782216-381.478892 381.475243 0 210.696675 170.810191 381.465512 381.478892 381.465512 192.121175 0 350.635679-142.189179 377.137878-326.968701l55.08064 0C917.333181 653.046759 734.255278 819.506206 511.987837 819.506206 271.197197 819.506206 76.012135 624.311414 76.012135 383.543883c0-240.762665 195.185062-435.972053 435.975702-435.972053 164.236031 0 307.128238 90.894915 381.475243 225.064956l0-61.57574c0-15.061578 12.187435-27.247797 27.276989-27.247797 15.004412 0 27.247797 12.187435 27.247797 27.247797L947.987865 247.302465c0 3.297419 0 27.247797-27.247797 27.247797L784.470674 274.550262 784.470674 274.551478zM784.470674 274.551478"  horiz-adv-x="1024" />

    
    <glyph glyph-name="yuanquanicon" unicode="&#58910;" d="M511.995395 64.31198c-192.414311 0-348.412225 155.988704-348.412225 348.413248 0 192.423521 155.997913 348.412225 348.412225 348.412225 192.430684 0 348.419388-155.989727 348.419388-348.412225C860.414783 220.299661 704.426079 64.31198 511.995395 64.31198zM511.995395 719.330278c-169.328523 0-306.606073-137.26834-306.606073-306.606073 0-169.32136 137.27755-306.59891 306.606073-306.59891 169.337733 0 306.60505 137.27755 306.60505 306.59891C818.600445 582.061938 681.333128 719.330278 511.995395 719.330278z"  horiz-adv-x="1024" />

    
    <glyph glyph-name="kefu" unicode="&#58977;" d="M825.2 419.7c-6.1 0-11.8-2.5-15.9-6.6-4.1-4-6.6-11.9-6.6-18v-213.9c0-6.1 2.5-11.7 6.6-15.8 4.1-4 9.7-6.6 15.8-6.6H891c6.1 0 11.7 2.6 15.8 6.7 4 4 6.7 9.7 6.7 15.7V397.3c0 5.7-2.2 11-5.8 15l-0.9 0.8c-4.1 4.1-9.7 6.6-15.8 6.6h-65.8zM587 94.3c-0.8 0.4-1.7 0.9-2.4 1.4-8.4 4.4-17.7 5.1-26.3 2.8-9-2.4-17.1-8.3-22.1-17-3.1-5.4-4.7-11.4-4.8-17.2v-1.7c0.1-3 0.5-5.9 1.2-8.7 2.3-8.6 7.6-16.3 15.5-21.3 1-0.4 1.9-1 2.8-1.6 8.4-4.3 17.7-5.1 26.3-2.8s16.4 7.8 21.5 15.9c0.5 0.9 1 1.7 1.5 2.5 4.3 8.3 5 17.7 2.8 26.2-2.4 8.7-7.9 16.4-16 21.5z m21.5 39.5c19.5-11.2 32.6-29.3 37.9-49.4 5.4-20 3.1-42.1-8.1-61.5l-0.1-0.1h0.1c-11.3-19.6-29.4-32.6-49.5-38s-42.2-3.1-61.7 8.1l-0.5 0.3c-18.8 11-31.6 28.3-37.1 47.6H345.1c-0.8 0-1.7 0-2.6 0.1-50.2 1.5-120.8 16.2-172 49-41.3 26.4-70.7 64.4-70.7 116.3V394.9c0 18.6 7.6 35.4 19.8 47.7 12.3 12.2 29.2 19.8 47.8 19.8h9.6c7.5 85.5 45.3 162.3 102.7 219.6 64.3 64.2 153.1 103.9 251.2 103.9s187-39.7 251.3-103.9c57.3-57.3 95.1-134.1 102.6-219.6h4.2c18.6 0 35.5-7.7 47.7-19.8 0.5-0.5 1-1 1.4-1.5 11.4-12.2 18.5-28.5 18.5-46.1v-211.7c0-18.4-7.7-35.3-20-47.5h0.1c-12.2-12.2-29.2-19.9-47.7-19.9h-61.4c-18.4 0-35.3 7.7-47.7 19.9v-0.1c-12.2 12.2-19.9 29.1-19.9 47.6V395c0 18.6 7.6 35.4 19.8 47.7 12.2 12.2 29.2 19.8 47.7 19.8h14.3c-7.4 73-42.3 143-91.6 192.2-56.2 56-133.7 90.7-219.4 90.7s-163.2-34.6-219.4-90.7c-49.2-49.2-84.2-119.2-91.5-192.2h8.9c18.6 0 35.5-7.7 47.7-19.8 0.5-0.5 1-1 1.4-1.5 11.5-12.2 18.5-28.5 18.5-46.1V204c0-12.4-10-22.5-22.5-22.5-12.4 0-20.4 10.1-20.4 22.5V395c0 5.7-2.2 11-5.9 15l-0.9 0.8c-4.1 4.1-9.7 6.7-15.8 6.7H165c-6.1 0-11.8-2.6-15.9-6.7-4-4-6.6-9.7-6.6-15.8v-188.7c0-34.1 20.8-59.9 49.9-78.5 43.9-28.2 107.4-40.8 151.2-42l1.4 0.1h144.5c1.8 6.2 4.4 12.2 7.7 18.1 11.2 19.5 29.3 32.5 49.4 37.9 20.1 5.3 42.3 3 61.8-8.2l0.1 0.1z"  horiz-adv-x="1024" />

    
    <glyph glyph-name="tuijian" unicode="&#58886;" d="M137.216 728.064l-116.736-283.648 43.008-193.536 102.912-97.28h65.024l256 270.336L747.52 696.32l30.72 87.04-81.92 47.104h-133.12l-133.12 29.696-146.432-29.696zM231.424 425.472l45.056 45.056 34.816-34.816-45.056-45.056-34.816 34.816zM279.552 378.88l45.056 45.056 37.888-37.888-45.056-45.056-37.888 37.888zM186.88 472.064l45.056 45.056 34.816-34.816-45.056-45.056-34.816 34.816zM0 896v-1024L1024 896h-1024z m315.392-190.464l12.288 12.288 18.432-18.432 63.488 65.536-18.432 18.432 12.288 12.288 18.432-18.432 53.248 53.248 12.288-12.288-53.248-53.248 16.384-16.384-12.288-12.288-18.432 18.432-63.488-63.488 18.432-18.432-12.288-12.288-18.432 18.432-53.248-53.248-12.288 12.288 53.248 53.248-16.384 14.336z m-135.168-135.168c18.432-8.192 34.816-14.336 47.104-22.528l-6.144-14.336c-18.432 8.192-34.816 16.384-49.152 22.528l8.192 14.336z m79.872-323.584l-20.48-20.48-14.336 8.192c10.24 8.192 16.384 14.336 20.48 18.432 6.144 6.144 6.144 12.288 2.048 18.432l-61.44 61.44c-6.144-14.336-12.288-26.624-20.48-40.96l-16.384 10.24 24.576 43.008-55.296 55.296-30.72-30.72-12.288 12.288 30.72 30.72-43.008 43.008 12.288 12.288 43.008-43.008 24.576 24.576 12.288-12.288-24.576-24.576 51.2-51.2c4.096 12.288 8.192 22.528 12.288 32.768l10.24-10.24c-4.096-14.336-8.192-24.576-12.288-32.768l69.632-69.632c10.24-12.288 10.24-22.528-2.048-34.816z m79.872 71.68l-12.288-12.288-139.264 139.264c4.096-16.384 6.144-32.768 8.192-49.152l-16.384 8.192c-6.144 45.056-20.48 86.016-43.008 122.88l14.336 10.24c10.24-16.384 18.432-34.816 24.576-51.2l96.256 96.256 12.288-12.288-40.96-40.96 34.816-34.816 36.864 36.864 12.288-12.288-36.864-36.864 34.816-34.816 36.864 36.864 12.288-12.288-36.864-36.864 36.864-36.864 43.008 43.008 12.288-12.288-102.4-98.304 12.288-12.288z m167.936 165.888L423.936 568.32c0-20.48-2.048-40.96-6.144-61.44l-18.432 2.048c10.24 47.104 10.24 90.112 0 129.024l-57.344-57.344-12.288 12.288 63.488 63.488c-4.096 10.24-6.144 18.432-10.24 26.624l14.336 10.24c2.048-6.144 6.144-14.336 10.24-22.528l112.64 112.64 12.288-12.288-118.784-118.784c6.144-18.432 8.192-38.912 10.24-59.392l96.256-96.256-12.288-12.288z m88.064 92.16l-26.624-26.624-16.384 8.192 24.576 24.576c6.144 6.144 6.144 12.288 0 18.432l-26.624 28.672-63.488-63.488-12.288 12.288 63.488 63.488-16.384 16.384c4.096 18.432 8.192 36.864 10.24 53.248l-79.872-79.872-12.288 12.288 96.256 96.256 8.192-8.192c-2.048-20.48-4.096-40.96-10.24-63.488l12.288-12.288 51.2 51.2 16.384-14.336-51.2-51.2 32.768-32.768c10.24-12.288 12.288-22.528 0-32.768z"  horiz-adv-x="1024" />

    
    <glyph glyph-name="jieguoye_chenggong" unicode="&#58906;" d="M531.328-127.36a509.44 509.44 0 0 0-363.392 151.488A506.944 506.944 0 0 0 18.688 387.776C20.672 667.648 250.688 895.296 531.328 895.296a513.28 513.28 0 0 0 449.152-264.704l7.424-13.44-400.512-421.376a82.56 82.56 0 0 0-60.032-25.984h-0.512a82.56 82.56 0 0 0-60.288 26.816L292.48 386.88a21.12 21.12 0 0 0 31.104 28.352l174.08-190.336c7.68-8.32 18.112-12.992 29.44-13.056a39.296 39.296 0 0 1 29.632 12.736l379.264 398.976A471.168 471.168 0 0 1 531.328 853.312C273.728 853.312 62.656 644.288 60.8 387.392a465.28 465.28 0 0 1 137.024-333.696 467.584 467.584 0 0 1 333.504-139.008 469.888 469.888 0 0 1 433.536 286.656 21.12 21.12 0 0 0 38.784-16.384 512 512 0 0 0-472.32-312.32z"  horiz-adv-x="1024" />

    
    <glyph glyph-name="shuaxin" unicode="&#58949;" d="M222.461757 673.538243C297.78748 749.191539 400.253794 793.733426 511.33287 793.733426c225.553723 0 409.066296-183.512573 409.066297-409.066296H1022.665741c0 281.96013-229.37274 511.33287-511.332871 511.33287-138.842853 0-266.923748-55.679356-361.104871-150.227999L51.133287 844.866713v-306.799722h306.799722L222.461757 673.538243zM800.203984 95.764058c-75.325723-75.629327-177.768068-120.171214-288.871114-120.171214-225.553723 0-409.066296 183.512573-409.066296 409.066296H0c0-281.976109 229.37274-511.33287 511.33287-511.33287 138.866822 0 266.947717 55.679356 361.104871 150.251968l99.094713-99.118681v306.799722H664.732732l135.471252-135.495221z"  horiz-adv-x="1024" />

    
    <glyph glyph-name="tuijian1" unicode="&#59380;" d="M3.825119-124.17488100000003V446.226227L449.773773 892.174881h570.401108L3.825119-124.17488100000003zM392.679427 428.980447c-6.104021-7.014764-10.682293-12.045337-13.733792-15.096836l-29.512151-29.512151-24.739451 24.739451 24.447809 24.446785c2.791579 2.791579 6.263657 5.54939 10.420327 8.277524-4.284583 2.597151-7.30436 4.773723-9.057283 6.525623-1.687432 1.687432-3.830235 4.673439-6.42841 8.961093-4.220115-6.039553-8.215102-10.942213-11.979846-14.70798l-20.453844-20.453845-25.421996 25.421996 24.446785 24.446785c0.975211 0.975211 2.598174 2.336208 4.870938 4.090155l4.674463 3.701299c-3.635807 2.857071-6.265704 5.096065-7.889691 6.720052-1.687432 1.687432-3.960195 4.350075-6.819313 7.986904-2.595105-4.025687-5.259794-7.401574-7.986905-10.128684l-24.056905-24.057929-25.130354 25.130354 25.712615 25.712614c1.233084 1.232061 3.895727 3.634784 7.987928 7.207146l6.720052 6.135744c-4.674463 3.634784-8.083096 6.525624-10.227945 8.668427-2.076288 2.078335-4.935406 5.452175-8.571213 10.130731l-5.745864-6.331195c-3.573385-4.092201-6.233981-7.012717-7.987928-8.765641l-69.931723-69.932746c-2.208295 5.842055-3.862981 10.225899-4.966105 13.148462-3.895727 10.388605-5.065366 20.387329-3.507893 29.999244-9.739828-6.754844-19.803022-12.142551-30.193673-16.169261 27.66099-43.895743 40.584324-82.20628 38.764885-114.928543 7.468089 4.476965 15.486716 8.016581 24.057929 10.615779-3.245927 7.92039-5.455245 16.490579-6.622838 25.712615l106.851587-106.845447c3.635807-3.634784 7.725962-8.246825 12.272511-13.831007 3.049452 4.481058 5.484921 7.628748 7.30436 9.448187 1.948375 1.948375 5.193279 4.414543 9.739828 7.401573a194.798615 194.798615 0 0 0-14.220886 12.856819l-6.525624 6.524601 75.289754 75.289753c4.154623 4.154623 9.608845 8.765641 16.361643 13.831007-4.998851 3.570315-8.603959 6.461155-10.810207 8.668427-1.816369 1.818415-4.284583 4.804423-7.401574 8.962115z m-190.511985 10.323113l30.290887 30.290887 25.128307-25.128307-30.290887-30.290887-25.128307 25.128307z m37.888936-37.886889l30.290887 30.290887 25.419949-25.420972-30.290887-30.290887-25.419949 25.420972z m63.113433-63.308884l-24.739451 24.738427 30.388101 30.388101 24.739451-24.738427-30.388101-30.388101z m-75.19254 185.835475c-12.466939 0.907673-24.932856 2.922563-37.399795 6.03853-1.169639-7.922437-3.149736-15.877619-5.941315-23.862477 12.141528-0.326435 23.959691-2.532683 35.45142-6.622838 0.715291 8.895601 3.345188 17.043165 7.88969 24.446785zM209.569016 333.918371c3.441379 8.374738 7.27366 16.361643 11.493775 23.960715-4.090155 3.570315-7.207146 6.427386-9.349948 8.571213-2.01182 2.010797-5.098111 5.420453-9.252735 10.225899-3.116991-9.221012-6.461155-17.759479-10.033517-25.615401l-34.868136 34.868135 10.130732 10.130732c1.816369 1.816369 6.03853 5.454222 12.661367 10.90742-4.222161 3.181459-7.30436 5.746888-9.252734 7.695263-2.142803 2.142803-5.096065 5.875824-8.862855 11.20111-3.832282-5.519714-7.729032-10.260691-11.688204-14.220887l-9.349948-9.349948-25.130354 25.128307c-5.584182 5.584182-8.831132 11.492752-9.738805 17.726733-7.339152-7.338129-14.9679-13.734816-22.889313-19.186991 4.284583-2.859118 8.506744-6.363941 12.661367-10.518565l29.121248-29.121248-14.804171-14.805194c-1.559519-1.557472-5.584182-4.870938-12.078083-9.934256 3.832282-3.181459 6.65763-5.682419 8.473999-7.498788 2.208295-2.208295 5.357008-5.941316 9.448186-11.20111 5.127787 6.297426 8.53642 10.290367 10.225899 11.979846l15.096836 15.096836 42.563398-42.563398c-5.90857-12.791327-12.532431-24.739451-19.868513-35.842323 9.479909-5.195326 17.433044-11.006681 23.862477-17.435091a252.700349 252.700349 0 0 0 12.564154 36.524869l44.023656-44.023656c4.414543-4.414543 6.590092-7.953136 6.525624-10.615779-0.065492-2.662643-2.468215-6.363941-7.207146-11.103895-2.987031-2.987031-7.695263-6.525624-14.123672-10.615779 9.219989-2.338255 18.083867-6.78452 26.590611-13.344936 12.853749 15.84385 20.159132 26.719548 21.914103 32.629141 1.7519 5.909593-0.487094 11.979846-6.720052 18.213827l-62.139246 62.137199z m129.497353 274.036284a242.171552 242.171552 0 0 0 22.205745 25.51921l23.279192 23.277146 7.401574-7.401574c2.402723-2.402723 5.290493-5.942339 8.668427-10.615778 3.246951 4.154623 5.90857 7.271614 7.986905 9.349948 1.88186 1.88186 5.228071 4.576225 10.03147 8.083096-4.935406 3.505847-9.023514 6.881734-12.271488 10.130731l-6.135744 6.135744 44.022633 44.023656 7.40362-7.401573c1.299599-1.300622 3.246951-3.443425 5.844102-6.42841l4.868891-5.649674c3.570315 4.350075 6.39464 7.565303 8.473999 9.642615 1.88186 1.88186 4.998851 4.608971 9.349948 8.18031-5.584182 4.284583-9.317203 7.368828-11.201109 9.254781l-8.473999 8.471952 30.777981 30.77798c4.544503 4.544503 11.653411 10.485819 21.329794 17.823948-4.219091 3.441379-7.238868 6.071276-9.057283 7.88969-2.078335 2.078335-4.870938 5.259794-8.376785 9.545401-6.754844-9.481955-13.020548-17.110703-18.798135-22.889313l-29.51215-29.512151-11.298324 11.298324c-4.54348 4.544503-6.817266 8.699126-6.817266 12.466939-2.532683-2.794649-4.611018-5.000897-6.233981-6.622838-2.921539-2.921539-7.986905-7.079232-15.194051-12.466939 2.989077-1.429559 6.65763-4.319375 11.006682-8.668427l12.466939-12.466939-43.927465-43.927465-10.615779 10.615778c-3.505847 3.50687-5.584182 7.337105-6.232958 11.493775-6.300496-6.29845-13.70207-12.078083-22.206767-17.336853 3.832282-1.88493 7.596002-4.676509 11.298323-8.376785l12.07706-12.078083-23.862477-23.862477c-9.221012-9.219989-17.336854-16.624632-24.349571-22.206768 4.090155-3.052522 7.046486-5.486968 8.863878-7.30436 1.752924-1.7519 4.157693-4.676509 7.208169-8.764617z m231.710292 29.511127l25.322736 25.322735c8.05035 8.05035 15.258519 14.479783 21.62246 19.286252-4.15667 2.725064-7.04444 4.900613-8.668427 6.525624-1.818415 1.816369-4.124947 4.836145-6.916527 9.057283-5.454222-7.143701-11.979846-14.512529-19.575847-22.10853l-24.933879-24.933879-5.746888 5.746887 3.116991 9.934257c5.973038 19.47761 12.855796 33.763988 20.648272 42.85504-4.481058 3.311419-7.628748 5.875824-9.447163 7.695263-2.01182 2.010797-4.611018 5.062296-7.792476 9.153474-8.18031-9.869788-13.602809-16.135492-16.266476-18.797112l-64.380286-64.380286c-2.142803-2.142803-5.745864-5.424546-10.810206-9.837042l-7.695263-6.720052c4.414543-3.119037 7.53358-5.585205 9.349949-7.401574 1.753947-1.753947 4.122901-4.579295 7.109931-8.473999 4.740978 6.557346 10.130731 12.855796 16.169261 18.894326l50.744732 50.745755-12.564154-35.940561 10.518564-10.518564-29.90203-29.901007c-7.143701-7.144724-14.997576-14.156418-23.568788-21.038152 4.219091-2.924609 7.1744-5.228071 8.862855-6.916527 1.883907-1.883907 4.251837-4.903683 7.109931-9.058307 8.439206 10.388605 15.647375 18.569938 21.62246 24.545023l29.218462 29.218462 21.135366-21.135366c6.752798-6.752798 7.953136-12.305257 3.604085-16.654309-1.819438-1.819438-5.098111-4.709255-9.837043-8.66945-1.883907-1.494027-4.676509-3.830235-8.376784-7.011694 12.141528-1.49505 21.654182-5.681396 28.53694-12.564153l2.338254 2.921539c11.167341 14.024411 17.513886 23.910573 19.041682 29.65746 1.524726 5.746888-0.601704 11.509125-6.380314 17.287735l-33.21038 33.213449z m-117.169583-43.147706c-0.38988 2.855024-0.584308 4.481058-0.584307 4.870938l-1.753947 22.790052c-0.065492 0.973164-0.973164 7.40362-2.727111 19.286252l-0.38988 2.921539 77.335343 77.335343c5.844102 5.844102 13.669324 12.82305 23.473621 20.938891-4.025687 3.505847-7.077186 6.29845-9.155521 8.376785-1.948375 1.948375-4.870938 5.192256-8.766664 9.739828-4.868891-7.338129-11.039427-14.740726-18.505469-22.206767l-71.003124-71.003124-1.070379 6.916526c-0.843204 4.738931-0.584308 9.349949 0.778736 13.831007-8.376785-6.170536-17.435091-10.877745-27.173896-14.123672 3.959172-6.947226 6.979972-15.292288 9.057283-25.031093l-42.270732-42.270733c-7.077186-7.077186-13.733792-13.085016-19.965727-18.018375 4.15667-3.508917 7.1744-6.201236 9.057283-8.085143 2.013867-2.01182 4.773723-5.098111 8.27957-9.252734l8.863879 10.422373c4.350075 4.998851 7.79043 8.766664 10.323113 11.298324l32.142047 32.142048a318.623781 318.623781 0 0 0 3.16611-62.675458c-1.00591-21.00643-3.880377-37.19104-8.619308-48.553833 8.439206 2.597151 17.499559 2.433422 27.173896-0.487093a368.601032 368.601032 0 0 0-0.097214 3.214204l1.265829 37.888936c0.064468 1.62194-0.162706 5.939269-0.681522 12.954033l60.48456-60.48456c1.557472-1.559519 3.764744-4.154623 6.622838-7.792476l5.454222-6.819313c3.243881 4.28663 5.77861 7.337105 7.598048 9.155521 1.88186 1.883907 4.867868 4.414543 8.960069 7.598048-6.16849 4.738931-11.004635 8.862855-14.512528 12.369726l-72.759118 72.754z"  horiz-adv-x="1024" />

    
    <glyph glyph-name="jiarushujia" unicode="&#59031;" d="M472.546941-81.702558h-91.430362c-37.813211 0-68.571748 30.759561-68.571748 68.572772v777.149892c0 37.813211 30.759561 68.571748 68.571748 68.571749h91.430362c37.812187 0 68.572772-30.759561 68.572772-68.571749v-777.149892c-0.002047-37.813211-30.760584-68.572772-68.572772-68.572772z m-91.430362 868.579232c-12.611226 0-22.856567-10.245342-22.856567-22.856568v-777.149892c0-12.610202 10.245342-22.857591 22.856567-22.857591h91.430362c12.611226 0 22.856567 10.247388 22.856567 22.857591v777.149892c0 12.611226-10.245342 22.856567-22.856567 22.856568h-91.430362zM198.256878-81.702558h-91.429339c-37.813211 0-68.571748 30.759561-68.571748 68.572772V718.304925c0 37.813211 30.759561 68.571748 68.571748 68.571749h91.429339c37.814234 0 68.573795-30.758538 68.573795-68.571749v-731.434711c0-37.813211-30.759561-68.572772-68.573795-68.572772z m-91.428316 822.865074c-12.611226 0-22.856567-10.245342-22.856567-22.857591v-731.434711c0-12.610202 10.245342-22.857591 22.856567-22.857591h91.429339c12.612249 0 22.857591 10.247388 22.857591 22.857591V718.304925c0 12.612249-10.245342 22.857591-22.857591 22.857591h-91.429339zM751.989351 264.014278L635.091968 700.269154c-3.25923 12.186554 3.994987 24.752754 16.161074 28.013007l88.325652 23.660886a22.668279 22.668279 0 0 0 5.958712 0.781806c10.29139 0 19.352767-6.964622 22.031782-16.942881l126.413108-471.767694h47.320749L811.722804 747.612415c-8.013511 29.933753-35.246759 50.826596-66.184375 50.826595-6.003737 0-11.985986-0.781806-17.790178-2.343371l-88.326675-23.660886c-36.517705-9.79918-58.280358-47.477314-48.481178-83.996042l113.726158-424.424433h47.322795zM989.693148 81.15867H875.406219V195.44253h-45.714158v-114.28386H715.405131v-45.716204h114.28693v-114.287953h45.714158V35.442466h114.286929z"  horiz-adv-x="1024" />

    
    <glyph glyph-name="xianmianjiao" unicode="&#58898;" d="M0-118.82985099999996v626.626866L388.202985 896h626.626866L0-118.82985099999996zM184.931343 509.325373c10.698507-21.397015 22.925373-47.379104 33.623881-76.41791 30.567164-3.056716 51.964179-10.698507 65.719403-24.453732 4.585075-4.585075 6.113433-7.641791 4.585074-12.226865-1.528358-4.585075-4.585075-9.170149-12.226865-16.811941-1.528358-1.528358-4.585075-4.585075-7.641791-6.113432l18.340298-9.17015c13.755224 13.755224 21.397015 25.98209 22.925373 36.680597 0 7.641791-3.056716 15.283582-12.226865 24.453732-15.283582 13.755224-36.680597 21.397015-67.247761 25.982089-10.698507 27.510448-21.397015 51.964179-33.623881 76.417911l-10.698508 10.698507-59.60597-59.60597 171.17612-171.176119 13.755224 13.755223L152.835821 477.229851l32.095522 32.095522z m201.743284-21.397015c6.113433 16.81194 7.641791 35.152239 6.113433 55.020896h-18.340299c1.528358-19.868657 0-36.680597-3.056716-50.435821-15.283582 4.585075-30.567164 10.698507-44.322388 19.868657l36.680597 36.680597-82.531344 82.531343-87.116417-87.116418 151.307462-151.307463c1.528358-1.528358 1.528358-4.585075 0-9.170149l15.283582-9.170149c15.283582 27.510448 27.510448 50.435821 35.152239 70.304477l-16.81194 9.17015c-6.113433-16.81194-13.755224-33.623881-21.397015-47.379105L290.38806 474.173134l22.925373 22.925373c42.79403-29.038806 91.701493-38.208955 143.665671-27.510447l-4.585074 19.868656c-21.397015-4.585075-44.322388-6.113433-65.719403-1.528358z m-165.062687 58.077612l58.077612 58.077612 22.925373-22.925373-58.077612-58.077612-22.925373 22.925373z m56.549254-58.077612l-21.397015 21.397015 58.077612 58.077612 21.397015-21.397015-58.077612-58.077612z m337.767164 223.140299l-18.340298-9.17015c13.755224-15.283582 21.397015-24.453731 22.925373-30.567164 1.528358-4.585075 0-7.641791-3.056717-10.698507l-30.567164-30.567164c-6.113433-6.113433-12.226866-4.585075-18.340298 1.528358l-39.737314 39.737313 44.322388 44.322388L515.056716 773.731343l-47.379104-47.379104c1.528358 15.283582 0 32.095522-1.528358 50.435821l-10.698508 10.698507-67.247761-67.247761c-1.528358 7.641791-3.056716 16.81194-4.585075 24.453731l-16.81194-10.698507c7.641791-39.737313 7.641791-79.474627-1.528358-119.21194l19.868657-1.528359c1.528358 7.641791 3.056716 16.81194 4.585074 25.98209l55.020896-55.020896 47.379104 47.379105c1.528358-4.585075 3.056716-7.641791 4.585075-12.226866 7.641791-29.038806 1.528358-67.247761-19.868657-114.626865l19.868657-1.528359c22.925373 51.964179 29.038806 94.758209 16.81194 128.38209-1.528358 4.585075-4.585075 10.698507-6.113433 15.283582l10.698508 10.698507 42.79403-42.794029c13.755224-13.755224 25.98209-13.755224 38.208955-3.056717l38.208955 38.208955c6.113433 6.113433 9.170149 13.755224 9.170149 19.868657-3.056716 7.641791-12.226866 21.397015-30.567164 41.265672z m-226.197015-13.755224l59.60597 59.60597c1.528358-16.81194 1.528358-32.095522 0-47.379104l-59.60597-59.605971c0 15.283582 1.528358 30.567164 0 47.379105z m53.492538-85.58806l-32.095523 32.095523 42.79403 42.794029c12.226866-12.226866 21.397015-24.453731 27.510448-36.680597L443.223881 611.725373z m51.964179 51.964179c-7.641791 12.226866-16.81194 24.453731-29.038806 36.680597l47.379104 47.379105 32.095523-32.095523-50.435821-51.964179z"  horiz-adv-x="1024" />

    
    <glyph glyph-name="suoxiaoziti" unicode="&#58908;" d="M897.1 578.3h-312c-9.6 0-17.3-7.8-17.3-17.3s7.8-17.3 17.3-17.3h312c9.6 0 17.3 7.8 17.3 17.3s-7.7 17.3-17.3 17.3zM412.1 572.9c-2.8 6.2-9 10.2-15.8 10.2h-14.2c-6.8 0-13-4-15.8-10.2L111.1 5.7c-3.9-8.7 0-19 8.7-22.9s19 0 22.9 8.7l94 209h304.9l94-209c2.9-6.4 9.2-10.2 15.8-10.2 2.4 0 4.8 0.5 7.1 1.5 8.7 3.9 12.6 14.2 8.7 22.9L412.1 572.9zM252.3 235.1l136.9 304.2 136.9-304.2H252.3z"  horiz-adv-x="1024" />

    
    <glyph glyph-name="fangdaziti" unicode="&#58909;" d="M897.1 578.3H758.4V717c0 9.6-7.8 17.3-17.3 17.3s-17.3-7.8-17.3-17.3v-138.7H585.1c-9.6 0-17.3-7.8-17.3-17.3s7.8-17.3 17.3-17.3h138.7V405c0-9.6 7.8-17.3 17.3-17.3s17.3 7.8 17.3 17.3V543.7h138.7c9.6 0 17.3 7.8 17.3 17.3s-7.7 17.3-17.3 17.3zM412.1 572.9c-2.8 6.2-9 10.2-15.8 10.2h-14.2c-6.8 0-13-4-15.8-10.2L111.1 5.7c-3.9-8.7 0-19 8.7-22.9 8.7-3.9 19 0 22.9 8.7l94 209h304.9l94-209c2.9-6.4 9.2-10.2 15.8-10.2 2.4 0 4.8 0.5 7.1 1.5 8.7 3.9 12.6 14.2 8.7 22.9L412.1 572.9zM252.3 235.1l136.9 304.2 136.9-304.2H252.3z"  horiz-adv-x="1024" />

    
    <glyph glyph-name="jine" unicode="&#58932;" d="M511.595 896A511.59397 511.59397 0 0 0 988.229972 199.380041h-64.801996a451.054974 451.054974 0 1 1-411.832976-266.880985c34.958998 0 102.318994 7.673 102.318994 7.673v-55.421997a266.880984 266.880984 0 0 0-102.318994-11.936999A511.59397 511.59397 0 0 0 511.595 896z m185.025989-439.117974a18.757999 18.757999 0 0 0 18.758999-18.757999v-21.316999a18.757999 18.757999 0 0 0-18.758999-18.757999H541.437998v-114.255993h155.182991a18.757999 18.757999 0 0 0 18.758999-18.758999v-21.315999a18.757999 18.757999 0 0 0-18.758999-18.757999H541.437998v-112.550993a18.757999 18.757999 0 0 0-18.757999-18.757999h-22.169998a18.757999 18.757999 0 0 0-18.757999 18.757999V224.107039h-154.329991a18.757999 18.757999 0 0 0-18.759999 18.757999v21.316999a18.757999 18.757999 0 0 0 18.759999 18.757999h154.329991V398.050029h-154.329991a18.757999 18.757999 0 0 0-18.759999 18.757999v21.316999a18.757999 18.757999 0 0 0 18.759999 18.757999h52.863997l-67.359996 114.255993a23.021999 23.021999 0 0 0 9.379999 21.315999l18.757999 11.084999a17.905999 17.905999 0 0 0 23.873999 0l85.265995-142.393992h122.781992l85.265995 144.099992a17.905999 17.905999 0 0 0 23.873999 0l18.758999-11.084999a21.315999 21.315999 0 0 0 9.378999-21.316999l-67.359996-115.959993z m33.253998-385.399978h270.291984v-58.833996H729.874987z"  horiz-adv-x="1024" />

    
    <glyph glyph-name="yuedu" unicode="&#58883;" d="M833.981 726.888H493.147L289.568 821.901c-11.2 5.208-23.017 7.877-35.15 7.877-45.789 0-83.085-37.314-83.085-83.179v-21.224C110.704 716.2860000000001 64 664.019 64 600.8879999999999V64.24000000000001c0-69.515 56.541-126.019 126.019-126.019h643.962C903.496-61.778999999999996 960-5.274999999999977 960 64.24000000000001V600.8879999999999c0 69.496-56.504 126.019-126.019 126zM208.723 746.6c0 28.28 23.744 45.79 45.696 45.79 6.627 0 13.123-1.475 19.339-4.368L493.314 685.56v-677.843L235.099 128.192c-16.016 7.541-26.376 23.744-26.376 41.478V746.6zM101.389 64.24000000000001V600.9069999999999c0 42.466 30.035 77.952 69.944 86.557V169.64999999999998c0-32.162 18.797-61.73 47.937-75.32l254.463-118.701H190.019c-48.888 0-88.63 39.76-88.63 88.611z m821.221 0c0-48.869-39.76-88.629-88.629-88.629H530.35c0.13 0.933 0.354 1.848 0.354 2.781V689.517h303.277c48.869 0 88.629-39.76 88.629-88.629V64.24000000000001z"  horiz-adv-x="1024" />

    
    <glyph glyph-name="shangxiazuoyou-" unicode="&#58989;" d="M413.28-36.16a51.84 51.84 0 0 0-36 18.08 54.72 54.72 0 0 0 0 72L672 384 377.28 714.4a54.72 54.72 0 0 0 0 72 48 48 0 0 0 66.08 0L768 420.16a54.72 54.72 0 0 0 0-72l-324.64-366.4a32.96 32.96 0 0 0-30.08-18.08z m0 0"  horiz-adv-x="1024" />

    
    <glyph glyph-name="shangxiazuoyou-1" unicode="&#58990;" d="M90.4 476.96a51.84 51.84 0 0 0 18.08 36 54.72 54.72 0 0 0 72 0l330.24-294.08 330.24 294.24a54.72 54.72 0 0 0 72 0 48 48 0 0 0 0-66.08L546.72 122.72a54.72 54.72 0 0 0-72 0L108.32 447.04a32.96 32.96 0 0 0-18.08 30.08z m0 0"  horiz-adv-x="1024" />

    
    <glyph glyph-name="shangxiazuoyou-2" unicode="&#58991;" d="M619.52 800A51.84 51.84 0 0 0 656 781.92a54.72 54.72 0 0 0 0-72L361.44 379.68 656 49.44a54.72 54.72 0 0 0 0-72 48 48 0 0 0-66.08 0L265.28 343.68a54.72 54.72 0 0 0 0 72L589.6 781.92A32.96 32.96 0 0 0 619.52 800z m0 0"  horiz-adv-x="1024" />

    
    <glyph glyph-name="shangxiazuoyou-3" unicode="&#58881;" d="M926.56 206.72a51.84 51.84 0 0 0-18.08-36 54.72 54.72 0 0 0-72 0L506.24 464.96 176 170.72a54.72 54.72 0 0 0-72 0 48 48 0 0 0 0 66.08l366.24 324.32a54.72 54.72 0 0 0 72 0L908.48 236.8a32.96 32.96 0 0 0 18.08-30.08z m0 0"  horiz-adv-x="1024" />

    
    <glyph glyph-name="shoucang" unicode="&#59010;" d="M707.584 802.816c-77.312 0-148.992-38.912-196.608-102.912-47.104 64-119.296 102.912-196.608 102.912-139.264 0-252.416-123.904-252.416-275.968 0-90.624 40.448-154.624 73.216-205.824 94.72-148.992 333.312-333.824 343.552-341.504 9.728-7.68 20.992-11.264 32.256-11.264s22.528 3.584 32.256 11.264c10.24 7.68 248.32 193.024 343.552 341.504 32.768 51.2 73.216 115.2 73.216 205.824 0 152.064-113.152 275.968-252.416 275.968z m114.176-480.256c-87.552-122.88-272.896-263.168-282.112-269.824-8.704-6.656-18.944-10.24-28.672-10.24-10.24 0-19.968 3.072-28.672 10.24-9.216 6.656-190.976 148.48-282.112 274.944-29.184 46.08-75.776 103.424-75.776 184.32 0 136.192 75.776 231.936 200.192 231.936 69.12 0 144.384-66.048 186.368-123.392 42.496 57.344 117.248 123.392 186.368 123.392 124.928 0 205.824-95.744 205.824-231.936 0-80.896-51.712-143.872-81.408-189.44z"  horiz-adv-x="1024" />

    
    <glyph glyph-name="zhanghu" unicode="&#58899;" d="M200.192 314.368h247.808c14.848 0 27.136 12.288 27.136 27.136s-12.288 27.136-27.136 27.136H200.192c-14.848 0-27.136-12.288-27.136-27.136s12.288-27.136 27.136-27.136zM848.384 752.128H178.176C114.176 752.128 61.44 699.904 61.44 635.392v-502.784c0-64.512 52.224-116.736 116.736-116.736h670.208c31.232 0 60.416 12.288 82.432 34.304 22.016 22.016 34.304 51.2 34.304 82.432V635.392c0.512 64.512-52.224 116.736-116.736 116.736z m65.024-631.296c0-29.184-23.552-52.736-52.736-52.736H166.4c-29.184 0-52.736 23.552-52.736 52.736V541.184h799.232v-420.352z m0 472.576H113.664V646.144c0 29.184 23.552 52.736 52.736 52.736h694.272c29.184 0 52.736-23.552 52.736-52.736v-52.736zM535.552 314.368h73.216c14.848 0 27.136 12.288 27.136 27.136s-12.288 27.136-27.136 27.136h-73.216c-14.848 0-27.136-12.288-27.136-27.136s12.288-27.136 27.136-27.136zM200.192 211.968H404.48c14.848 0 27.136 12.288 27.136 27.136S419.328 266.24 404.48 266.24H200.192c-14.848 0-27.136-12.288-27.136-27.136s12.288-27.136 27.136-27.136zM848.384 20.992H178.176c-61.44 0-111.616 50.176-111.616 111.616V635.392c0 61.952 50.176 111.616 111.616 111.616h670.208c61.44 0 111.616-50.176 111.616-111.616v-502.784c0.512-61.44-49.664-111.616-111.616-111.616z m-681.984 41.984h694.272c31.744 0 57.856 26.112 57.856 57.856V546.304H108.544v-425.472c0-32.256 26.112-57.856 57.856-57.856zM860.672 704H166.4c-31.744 0-57.856-26.112-57.856-57.856v-57.856h809.472V646.144c0.512 32.256-25.6 57.856-57.344 57.856z m-660.48-340.992h247.808c12.288 0 22.016-9.728 22.016-22.016s-9.728-22.016-22.016-22.016H200.192c-12.288 0-22.016 9.728-22.016 22.016s9.728 22.016 22.016 22.016z m0-101.888H404.48c12.288 0 22.016-9.728 22.016-22.016s-9.728-22.016-22.016-22.016H200.192c-12.288 0-22.016 9.728-22.016 22.016 0 11.776 9.728 22.016 22.016 22.016z m335.36 101.888h73.216c12.288 0 22.016-9.728 22.016-22.016s-9.728-22.016-22.016-22.016h-73.216c-12.288 0-22.016 9.728-22.016 22.016s9.728 22.016 22.016 22.016z"  horiz-adv-x="1025" />

    
    <glyph glyph-name="dianzan" unicode="&#58892;" d="M861.57115063 467.30320031L638.53484937 467.30320031c86.42396437 319.18519219-59.5468275 335.48741906-59.5468275 335.48741907-61.86845344 0-49.04290875-48.92107125-53.72165625-57.07650188 0-156.0957675-165.79671-278.41091719-165.79671-278.41091719l0-442.66115531c0-43.694535 59.5468275-59.43170531 82.90602938-59.43170531l335.11135406 0c31.53861656 0 57.22136438 82.7103225 57.22136438 82.7103225 82.90698937 281.91158438 82.90698937 365.79135375 82.90698937 365.79135375C917.61635188 471.95700469 861.57115063 467.30320031 861.57115063 467.30320031L861.57115063 467.30320031 861.57115063 467.30320031zM861.57115063 467.30320031M267.94195156 467.15641969L134.38898 467.15641969c-27.58129969 0-28.00629187-27.0901125-28.00629187-27.0901125l27.58129968-446.44003406c0-28.41497437 28.46390156-28.41497437 28.46390157-28.41497438L278.01895906-34.78870125000003c24.08063344 0 23.86765781 18.79653563 23.86765782 18.79653563L301.88661687 433.30193344C301.88661687 467.59004625 267.94195156 467.15641969 267.94195156 467.15641969L267.94195156 467.15641969 267.94195156 467.15641969zM267.94195156 467.15641969"  horiz-adv-x="1024" />

    
    <glyph glyph-name="shouye" unicode="&#58889;" d="M1054.159359 339.72607500000004a28.512575 28.512575 0 0 1-28.512575 28.526511 28.526511 28.526511 0 0 1-28.512575-28.512575l-0.09755-293.417529a28.540446 28.540446 0 0 1 0.529559-5.476755c0.404137-2.090365 1.393576-14.897333-4.069243-21.516821-4.793903-5.82515-15.538378-7.051497-23.6908-7.051497H760.156528l-1.226347 214.471421c1.198476 10.256723 3.233097 43.911595-17.099183 67.699945-8.737725 10.242787-24.903212 22.436581-52.28699 22.436582H611.657018c-27.383778 0-43.549265-12.193794-52.286989-22.436582-20.318345-23.774415-18.283723-57.429287-17.085248-67.699945l-1.226347-214.485357H331.408788c-8.096679 0-18.757539 1.198476-23.607186 6.967882-5.239848 6.201415-4.752096 17.879586-4.18073 21.767665a22.673489 22.673489 0 0 1 0.501688 5.351334l-0.027872 293.389657a28.526511 28.526511 0 0 1-28.52651 28.512575 28.526511 28.526511 0 0 1-28.512575-28.526511l0.09755-291.257485c-1.393576-10.410016-3.497877-41.110506 16.541753-65.498095 10.451824-12.695482 30.658683-27.87153 67.741753-27.871529h237.96712a28.512575 28.512575 0 0 1 28.526511 28.359281l1.393577 244.781709a24.331845 24.331845 0 0 1-0.334459 4.54306c-0.989439 7.162983-0.222972 19.928144 3.776592 24.540882 1.393576 1.588677 4.37583 2.396952 8.891018 2.396951H689.557944c4.515188 0 7.497441-0.808274 8.891018-2.396951 3.999565-4.612738 4.766032-17.377899 3.776592-24.540882a23.844094 23.844094 0 0 1-0.334458-4.54306l1.393576-244.781709a28.526511 28.526511 0 0 1 28.526511-28.359281h237.981056c37.055199 0 57.289929 15.134241 67.741753 27.871529 20.03963 24.345781 17.977137 55.046271 16.541753 65.498095z m0 0M1175.916137 401.837779L766.316137 841.984976c-6.062058 6.967882-47.088949 51.868917-107.988242 53.931409-43.451715 1.491127-85.077844-18.534567-123.735656-59.449972C431.746294 727.572346 127.626098 405.22417 124.574166 401.977137a28.526511 28.526511 0 0 1 1.170604-40.316168 28.512575 28.512575 0 0 1 40.316168 1.170604c3.065868 3.247033 307.158193 325.581274 409.990201 434.461405 26.770604 28.345346 53.652695 42.336854 79.907676 41.626129 37.988895-1.059118 65.721067-32.526075 67.100707-34.114752 0.404137-0.487752 0.641045-0.738596 1.08699-1.226347L1134.108842 362.97093099999995a28.536266 28.536266 0 1 1 41.807295 38.852912z m0 0"  horiz-adv-x="1277" />

    
    <glyph glyph-name="trash" unicode="&#58964;" d="M762.218 761.135H263.15c-45.947 0-83.178-37.228-83.178-83.175v-27.725h665.422V677.96c0.001 45.947-37.229 83.175-83.177 83.175m-145.29 55.45l12.238-87.507H396.203l12.237 87.507h208.488m6.66 55.45H401.783c-22.88 0-44.162-18.52-47.357-41.209L338.207 714.81c-3.168-22.66 12.97-41.181 35.85-41.181h277.258c22.879 0 39.017 18.519 35.823 41.208l-16.22 116.017c-3.17 22.662-24.451 41.181-47.33 41.181m152.493-277.248H249.288c-30.488 0-53.205-24.855-50.443-55.233l45.435-499.479c2.734-30.379 29.973-55.233 60.46-55.233h415.89c30.487 0 57.726 24.856 60.46 55.233l45.434 499.48c2.761 30.377-19.956 55.232-50.443 55.232M401.78 95.74000000000001h-83.178l-27.726 388.147H401.78V95.74000000000001z m166.356 0H457.233V483.887h110.904V95.74000000000001z m138.629 0h-83.178V483.887H734.49L706.766 95.74000000000001z"  horiz-adv-x="1024" />

    
    <glyph glyph-name="mingxi" unicode="&#58916;" d="M973.333333 778.266667h-52.933333c-14.666667 0-31.6-8.933333-31.6-23.466667 0-14.533333 16.933333-29.066667 31.6-29.066667H973.333333c31.6 0 52.933333-21.2 52.933334-52.533333v-604.266667c0-31.333333-21.333333-52.533333-52.933334-52.533333H403.333333c-31.6 0-66.4 21.2-66.4 52.533333V673.333333c0 31.333333 21.333333 52.533333 52.933334 52.533334h66.4c14.666667 0 20.266667 14.533333 20.266666 29.066666s-5.6 23.466667-20.266666 23.466667h-66.4c-74.4 0-105.866667-45.733333-105.866667-106.133333V74.666667c0-64.8 39.466667-110.533333 111.466667-110.533334h572.133333c72.133333 0 111.466667 38 111.466667 110.533334V672.133333c0.133333 60.4-37.066667 106.133333-105.733334 106.133334zM456.266667 541.466667c0-14.533333 12.4-26.8 27.066666-26.8h397.6c14.666667 0 27.066667 12.266667 27.066667 26.8 0 14.533333-12.4 26.8-27.066667 26.8H483.333333c-14.666667 0-27.066667-12.266667-27.066666-26.8z m423.6-118.4H483.333333c-14.666667 0-27.066667-12.266667-27.066666-26.8 0-14.533333 12.4-26.8 27.066666-26.8h397.6c14.666667 0 27.066667 12.266667 27.066667 26.8-1.2 15.6-13.466667 26.8-28.133333 26.8z m0-157.466667H483.333333c-14.666667 0-27.066667-12.266667-27.066666-26.8 0-14.533333 12.4-26.8 27.066666-26.8h397.6c14.666667 0 27.066667 12.266667 27.066667 26.8-1.2 15.6-13.466667 26.8-28.133333 26.8zM590.4 712.4h184.666667c21.466667 0 39.466667 21.2 39.466666 45.733333s-18 45.733333-40.533333 45.733334H590.4c-22.533333 0-40.533333-21.2-40.533333-45.733334s18-45.733333 40.533333-45.733333z m0 0"  horiz-adv-x="1365" />

    
    <glyph glyph-name="shijian" unicode="&#58943;" d="M728.80526-127.990886c-282.553628 0-513.12406 228.310161-513.12406 510.868345 0 282.553628 230.571951 513.12406 513.12406 513.12406 282.561223 0 513.130136-230.570432 513.130135-513.12406 0-67.817245-13.560107-135.632972-38.427646-196.666366-9.042603-20.343958-31.649871-29.383524-51.993829-20.343958-22.599672 6.782332-31.642276 29.3896-22.599672 49.732039 22.599672 51.989272 33.905585 108.499086 33.905584 167.276766 0 239.609997-194.400019 434.008497-434.014572 434.008497-239.609997 0-434.008497-194.3985-434.008497-434.008497 0-239.614554 194.3985-434.014573 434.008497-434.014572 49.732039 0 97.205326 9.044122 142.410746 24.866019 24.86602 9.039565 47.471768 18.082168 70.077517 31.645314 18.083687 11.304393 42.948188 4.522061 54.249543-15.823417 11.304393-18.082168 4.52358-42.948188-15.821897-54.249543-27.126291-15.821897-54.249543-27.126291-81.377353-36.167374-54.251062-18.07913-113.022666-27.123253-169.538556-27.123253z m0 0M728.80526 348.968837a40.520827 40.520827 0 0 0-40.687917 40.689436V676.737A40.522346 40.522346 0 0 0 728.80526 717.426435a40.519308 40.519308 0 0 0 40.689435-40.689435v-289.342036c-2.255714-20.345477-20.345477-38.426127-40.689435-38.426127z m0 0M932.247882 143.264425c-9.038046 0-20.343958 4.522061-27.120215 11.304393L701.683526 358.01144c-15.823416 15.821897-15.823416 40.689436 0 56.511333 15.821897 15.821897 40.687917 15.821897 56.509814 0l203.442622-203.442622c15.821897-15.821897 15.821897-40.689436 0-56.511333-9.042603-6.783851-18.082168-11.304393-29.38808-11.304393z m0 0M1020.409086 66.409133a63.28607 63.28607 0 0 1 31.643794-54.811573 63.302779 63.302779 0 0 1 63.293665 0 63.290627 63.290627 0 0 1 0 109.626184 63.296703 63.296703 0 0 1-63.293665 0 63.28607 63.28607 0 0 1-31.643794-54.814611z m0 0"  horiz-adv-x="1495" />

    
    <glyph glyph-name="xuanzhong" unicode="&#59089;" d="M0.21 398.608A511.891 511.891 0 1 1 526.816 895.782 511.891 511.891 0 0 1 0.21 398.608z m809.427 109.417L469.23 188.093a46.07 46.07 0 0 0-63.987 0L218.403 383.89a46.07 46.07 0 1 0 67.186 63.987l153.567-162.526L745.651 575.85a46.07 46.07 0 1 0 63.986-67.185"  horiz-adv-x="1024" />

    
    <glyph glyph-name="shoucang1" unicode="&#58907;" d="M102.4 815.275c0 37.546 30.583 67.925 68.062 67.925h695.842c37.615 0 68.13-30.242 68.13-67.925v-875.657c0-37.547-27.307-55.5-62.327-39.595l-353.69 161.315L164.66-99.908c-34.406-15.702-62.259 1.843-62.259 39.526V815.275z m597.675-277.982l-107.998 16.384a19.524 19.524 0 0 0-14.61 11.127l-48.4 102.264a19.115 19.115 0 0 1-34.816 0l-48.333-102.264a19.524 19.524 0 0 0-14.677-11.127l-107.998-16.384c-15.975-2.458-22.324-22.938-10.786-34.68l78.233-79.53a20.89 20.89 0 0 0 5.598-18.023l-18.432-112.367c-2.73-16.657 13.926-29.286 28.194-21.435l96.597 53.043a18.705 18.705 0 0 0 18.091 0l96.597-53.043c14.336-7.851 30.994 4.778 28.263 21.435L627.166 405.06a20.89 20.89 0 0 0 5.53 18.023l78.165 79.599c11.605 11.741 5.188 32.221-10.786 34.68z"  horiz-adv-x="1024" />

    
    <glyph glyph-name="gengduo" unicode="&#58890;" d="M492.676-8.818l393.02 393.02-393.02 393.02c-12.258 12.259-12.432 32.893 0.187 45.511 12.708 12.708 32.996 12.704 45.512 0.188l411.66-411.661c7.12-7.12 10.164-17.066 8.991-26.625 1.5-9.755-1.51-20.01-8.99-27.49l-411.661-411.66c-12.258-12.259-32.892-12.433-45.512 0.187-12.707 12.707-12.703 32.995-0.187 45.51z"  horiz-adv-x="1024" />

    
    <glyph glyph-name="zhanghu1" unicode="&#58897;" d="M949.141746 502.972421v-551.005836H83.274897V502.972421h865.866849m0 78.714941H83.274897c-43.471533 0-78.71619-35.23966-78.71619-78.714941v-551.005836c0-43.475281 35.244657-78.714941 78.71619-78.714941h865.866849c43.47653 0 78.71619 35.23966 78.71619 78.714941V502.972421c0 43.475281-35.23966 78.714941-78.71619 78.714941z m0 0M949.141746 306.183195v-157.43238H636.724063V306.183195h312.417683m0 78.71619H636.724063c-43.47653 0-78.71619-35.24091-78.71619-78.71619v-157.43238c0-43.470284 35.23966-78.714941 78.71619-78.714941h312.417683c43.47653 0 78.71619 35.244657 78.71619 78.714941V306.183195c0 43.475281-35.23966 78.71619-78.71619 78.71619z m0 0M716.698143 227.468254c0-21.732644 17.619206-39.359344 39.358095-39.359344 21.732644 0 39.358095 17.625451 39.358095 39.359344 0 21.736391-17.624202 39.358095-39.358095 39.358095-21.73764-0.001249-39.358095-17.621704-39.358095-39.358095z m0 0M720.631704 509.193169l-39.358095 68.167151 169.635288 97.920562c18.747185 10.925032 25.177789 34.927374 14.403904 53.761999l-39.358095 68.167151a39.299385 39.299385 0 0 1-23.889919 18.371192 39.274402 39.274402 0 0 1-29.87208-3.967288L294.941453 536.113516a39.364341 39.364341 0 0 1-18.893335-26.290778l-77.139767 15.34576a118.054299 118.054299 0 0 0 56.675007 79.11092L732.834612 879.784835c27.310081 15.741739 59.11459 19.835191 89.654962 11.725734 30.462926-8.183156 55.889294-27.783507 71.631034-55.021138l39.279399-68.009759c32.570235-56.456407 13.267181-128.62832-43.134264-161.287245l-169.634039-97.999258z m0 0M250.620501 523.988055l-60.295033 50.614151L424.349241 853.494057a116.730204 116.730204 0 0 0 80.131472 41.636537 117.269835 117.269835 0 0 0 86.113634-27.153937l60.373729-50.536704-50.610404-60.296282-60.296281 50.536704a38.423734 38.423734 0 0 1-28.735357 9.051312 38.885918 38.885918 0 0 1-26.680511-13.851781L250.620501 523.988055z m0 0"  horiz-adv-x="1060" />

    
    <glyph glyph-name="xin" unicode="&#60196;" d="M810.3 832.5H213.7c-82 0-149.2-67.1-149.2-149.2v-596.7c0-82 67.1-149.2 149.2-149.2h596.7c82 0 149.2 67.1 149.2 149.2V683.3c-0.1 82.1-67.2 149.2-149.3 149.2z m-553.5-228c13.7-2.4 26.3-3 52.6-3h60.9c-9 16.7-16.7 28.1-32.8 48.4l35.2 13.1c25.7-38.2 25.7-38.2 38.2-61.5H458c24.5 0 35.2 0.6 49.6 3v-40c-16.1 2.4-26.9 3-50.2 3H308.7c-24.5 0-35.8-0.6-52-3v40z m99.7-123.6l-31.1-11.3c-10.2 33.4-17.9 52-34 80l31.7 11.9c16.7-29.8 23.9-47.7 33.4-80.6z m-111.6-13.7c13.7-2.4 25.7-3 49.6-3h106.9c22.7 38.8 31.7 61.5 40 97.9l35.8-11.3c-13.7-35.8-27.5-64.5-40.6-86.6h35.2c22.7 0 34.6 0.6 48.4 3v-40c-14.3 2.4-26.3 3-48.4 3H294.4c-22.7 0-35.2-0.6-49.6-3v40z m3.5-297.4c-3 2.4-7.2 5.4-17.9 11.9 35.8 41.8 50.8 68.1 69.9 120.6l34-11.9c-21.5-56.1-41.2-91.4-72.3-130.8-5.3 3.6-5.3 3.6-13.7 10.2z m155.3-5.4c0-32.2-11.3-40.6-54.3-40.6-13.1 0-28.1 0.6-37.6 1.8V131c0 8.4-3 19.7-7.8 31.1 21.5-4.2 31.7-5.4 45.4-5.4 14.9 0 19.7 3 19.7 12.5V331H295c-23.3 0-34.6-0.6-49.6-3.6v39.4c13.7-3 26.3-3.6 50.2-3.6h73.5v27.5c0 7.8-1.2 17.3-2.4 24.5h39.4c-1.2-7.2-2.4-16.7-2.4-24.5v-27.5h65.7c20.9 0 32.2 0.6 47.8 3.6V328c-13.7 2.4-25.7 3-47.8 3h-65.7v-166.6z m52.6 139.8c29.3-38.8 37.6-52 56.1-89l-32.2-19.7c-15.5 40.6-26.9 61.5-52.6 95l28.7 13.7z m332.6 126.6c-14.3 2.4-28.1 3-52 3h-22.1v-260.4c0-29.9 0.6-44.8 3.6-59.7h-46c2.4 15.5 3.6 30.5 3.6 59.7V433.8h-93.2c-0.6-7.8-0.6-7.8-0.6-23.3-0.6-79.4-13.1-160-33.4-214.4-11.9-31.7-24.5-54.3-44.8-81.8-12.5 11.9-19.1 17.3-33.4 25.1 26.3 32.8 43.6 67.5 55.5 113.5 13.1 51.4 19.1 131.4 19.1 268.7 0 38.8-1.2 66.9-3 81.8h7.2c32.2 0 92 11.9 141.5 27.5 25.1 8.4 40 14.9 54.9 25.7l30.5-33.4c-6-1.8-6-1.8-22.1-8.4-49-20.3-94.4-31.7-171.4-44.2v-102.1h151.7c26.9 0 40.6 1.2 54.3 3.6v-41.3z"  horiz-adv-x="1024" />

    
    <glyph glyph-name="guanbi1" unicode="&#58891;" d="M864.452525 0c-7.757576 0-15.256566 3.10303-20.816161 8.662626l-707.232324 707.232323c-11.507071 11.507071-11.507071 29.99596 0 41.503031 11.507071 11.507071 29.99596 11.507071 41.503031 0l707.232323-707.232323c8.274747-8.40404 10.731313-21.074747 6.206061-31.935354-4.39596-11.119192-15.127273-18.230303-26.89293-18.230303M157.220202 0c-11.894949 0-22.626263 7.111111-27.151515 18.10101s-1.939394 23.660606 6.464646 32.064647l707.232324 707.232323c11.636364 10.60202 29.478788 10.084848 40.597979-1.034344 11.119192-11.119192 11.507071-28.961616 0.905051-40.597979l-707.232323-707.232324c-5.559596-5.430303-13.058586-8.533333-20.816162-8.533333"  horiz-adv-x="1024" />

    
    <glyph glyph-name="mine" unicode="&#58914;" d="M1197.292308 328.861538H63.015385c-34.658462 0-63.015385 31.901538-63.015385 70.892308s28.356923 70.892308 63.015385 70.892308h1134.276923c34.658462 0 63.015385-31.901538 63.015384-70.892308s-28.356923-70.892308-63.015384-70.892308z m0 425.353847H63.015385c-34.658462 0-63.015385 31.901538-63.015385 70.892307S28.356923 896 63.015385 896h1134.276923c34.658462 0 63.015385-31.901538 63.015384-70.892308s-28.356923-70.892308-63.015384-70.892307z m0-850.707693H63.015385c-34.658462 0-63.015385 31.901538-63.015385 70.892308s28.356923 70.892308 63.015385 70.892308h1134.276923c34.658462 0 63.015385-31.901538 63.015384-70.892308s-28.356923-70.892308-63.015384-70.892308z"  horiz-adv-x="1260" />

    
    <glyph glyph-name="youhuiquan" unicode="&#58941;" d="M774.4 6.4c0-12.8 6.4-23.466667 17.066667-27.733333 10.666667-6.4 23.466667-6.4 32 0 10.666667 6.4 17.066667 17.066667 17.066666 27.733333 0 19.2-14.933333 32-32 32-19.2 0-34.133333-14.933333-34.133333-32m130.133333 0c0-12.8 6.4-23.466667 17.066667-27.733333 10.666667-6.4 23.466667-6.4 32 0 10.666667 6.4 17.066667 17.066667 17.066667 27.733333 0 19.2-14.933333 32-32 32-19.2 0-34.133333-14.933333-34.133334-32m4.266667 132.266667c0-12.8 6.4-23.466667 17.066667-27.733334 10.666667-6.4 23.466667-6.4 32 0 10.666667 6.4 17.066667 17.066667 17.066666 27.733334 0 19.2-14.933333 32-32 32-19.2 0-34.133333-14.933333-34.133333-32m-83.2 247.466666h-181.333333c-17.066667 0-29.866667 12.8-29.866667 29.866667 0 17.066667 12.8 29.866667 29.866667 29.866667h181.333333c17.066667 0 29.866667-12.8 29.866667-29.866667 0-8.533333-2.133333-14.933333-8.533334-21.333333-6.4-4.266667-12.8-8.533333-21.333333-8.533334z m-59.733333-125.866666h-121.6c-17.066667 0-29.866667 12.8-29.866667 29.866666 0 17.066667 12.8 29.866667 29.866667 29.866667h121.6c17.066667 0 29.866667-12.8 29.866666-29.866667 0-17.066667-12.8-29.866667-29.866666-29.866666z m0 0M697.6-25.6H160c-53.333333 0-96 42.666667-96 96V674.133333c0 53.333333 42.666667 96 96 96h49.066667c12.8 0 25.6-8.533333 27.733333-23.466666 4.266667-19.2 23.466667-34.133333 44.8-34.133334S320 727.466667 326.4 746.666667c2.133333 12.8 14.933333 23.466667 27.733333 23.466666h100.266667c12.8 0 25.6-8.533333 27.733333-23.466666 4.266667-19.2 23.466667-34.133333 44.8-34.133334s38.4 14.933333 44.8 34.133334c2.133333 12.8 14.933333 23.466667 27.733334 23.466666h93.866666c12.8 0 25.6-8.533333 27.733334-23.466666 4.266667-21.333333 23.466667-34.133333 44.8-34.133334S804.266667 727.466667 810.666667 746.666667c2.133333 12.8 14.933333 23.466667 27.733333 23.466666H874.666667c53.333333 0 96-42.666667 96-96v-416c0-17.066667-12.8-29.866667-29.866667-29.866666-17.066667 0-29.866667 12.8-29.866667 29.866666V674.133333c0 10.666667-4.266667 19.2-10.666666 27.733334-6.4 6.4-17.066667 10.666667-27.733334 10.666666h-17.066666c-17.066667-34.133333-53.333333-57.6-91.733334-57.6-40.533333 0-76.8 23.466667-93.866666 57.6H618.666667c-17.066667-34.133333-53.333333-57.6-93.866667-57.6-40.533333 0-76.8 23.466667-91.733333 57.6h-59.733334c-17.066667-34.133333-53.333333-57.6-93.866666-57.6-40.533333 0-76.8 23.466667-91.733334 57.6H162.133333c-10.666667 0-19.2-4.266667-27.733333-10.666666-6.4-8.533333-10.666667-17.066667-10.666667-27.733334v-603.733333c0-21.333333 17.066667-38.4 38.4-38.4h537.6c17.066667 0 29.866667-12.8 29.866667-29.866667 0-14.933333-17.066667-27.733333-32-27.733333z m0 0M558.933333 418.133333v-19.2c-42.666667-2.133333-106.666667-2.133333-189.866666-2.133333h-81.066667c-12.8-17.066667-25.6-32-36.266667-49.066667l-44.8-57.6-17.066666 10.666667c10.666667 14.933333 21.333333 27.733333 29.866666 42.666667 12.8 19.2 25.6 36.266667 38.4 53.333333-21.333333-2.133333-42.666667 0-64 2.133333v19.2h34.133334c10.666667 0 25.6 2.133333 44.8 2.133334 2.133333 2.133333 4.266667 4.266667 4.266666 6.4 6.4 6.4 12.8 17.066667 21.333334 29.866666h-76.8v23.466667h96c4.266667 6.4 12.8 17.066667 23.466666 29.866667l42.666667 57.6 17.066667-10.666667c-17.066667-25.6-34.133333-51.2-53.333334-76.8h81.066667c6.4 10.666667 14.933333 21.333333 23.466667 32 10.666667 12.8 19.2 23.466667 25.6 32l14.933333-10.666667c-8.533333-12.8-14.933333-21.333333-19.2-29.866666-6.4-10.666667-10.666667-17.066667-14.933333-23.466667 6.4 0 17.066667 0 32-2.133333h36.266666v-21.333334h-196.266666c-4.266667-8.533333-10.666667-17.066667-21.333334-29.866666-2.133333-2.133333-2.133333-4.266667-4.266666-6.4h64c19.2 0 49.066667 0 89.6-2.133334h100.266666z m-230.4-117.333333l14.933334-14.933333c-34.133333-32-70.4-64-108.8-91.733334l-14.933334 17.066667c12.8 12.8 27.733333 23.466667 42.666667 34.133333 17.066667 12.8 38.4 32 66.133333 55.466667z m-66.133333 241.066667c12.8-2.133333 19.2-10.666667 21.333333-23.466667-2.133333-12.8-8.533333-19.2-21.333333-21.333333-14.933333 0-21.333333 8.533333-23.466667 21.333333 2.133333 14.933333 8.533333 23.466667 23.466667 23.466667zM362.666667 213.333333l4.266666 19.2c27.733333-4.266667 51.2-6.4 72.533334-10.666666 4.266667 34.133333 8.533333 66.133333 14.933333 100.266666h-181.333333v21.333334h123.733333c27.733333 2.133333 55.466667 2.133333 83.2 2.133333-6.4-38.4-12.8-87.466667-23.466667-149.333333-32 4.266667-64 10.666667-93.866666 17.066666z m213.333333 100.266667l-10.666667-17.066667c-44.8 27.733333-81.066667 51.2-108.8 70.4l12.8 17.066667c36.266667-21.333333 70.4-44.8 106.666667-70.4z m0 0"  horiz-adv-x="1024" />

    
    <glyph glyph-name="shuimian" unicode="&#60115;" d="M622.4896 672.256a8.8832 8.8832 0 0 0-8.96 8.96c0 4.992 3.968 8.96 8.96 8.96h107.8272c3.968 0 7.424-2.56 8.576-6.4 1.152-3.84-0.256-7.936-3.584-10.112l-83.1488-55.3728h78.1568c4.992 0 8.96-3.968 8.96-8.96 0-4.992-3.968-8.96-8.96-8.96h-107.8272c-3.968 0-7.424 2.56-8.576 6.4a8.9344 8.9344 0 0 0 3.584 10.112l83.1488 55.3728h-78.1568z m197.504-89.9072a8.9088 8.9088 0 0 0-8.96 8.96c0 4.9664 3.968 8.96 8.96 8.96h134.7072a9.0112 9.0112 0 1 0 5.632-16l-114.7648-91.8528h109.1328c4.9664 0 8.96-3.968 8.96-8.96 0-4.992-3.9936-8.96-8.96-8.96H819.968a9.0112 9.0112 0 0 0-5.632 16l114.7392 91.8528h-109.1072z m-188.672-251.4944a17.9968 17.9968 0 0 0 0 35.9424h179.712c7.68 0 14.464-4.864 17.024-12.032 2.56-7.168 0.256-15.2064-5.76-19.968l-139.6992-111.8976h128.4352a17.8688 17.8688 0 1 0 0-35.84h-179.712c-7.68 0-14.464 4.864-17.024 12.032a17.8176 17.8176 0 0 0 5.76 19.968l139.6736 111.7952h-128.4096zM869.12 69.632c34.2784 0 67.7888 3.456 100.2752 9.856C875.136-46.5152 724.6848-128 555.3152-128 269.824-128 38.4 103.424 38.4 388.9152 38.4 640.0512 217.6 849.3056 455.04 896a514.4064 514.4064 0 0 1-102.8608-309.4272c0-285.5168 231.424-516.9408 516.9408-516.9408z"  horiz-adv-x="1024" />

    
    <glyph glyph-name="guanbi" unicode="&#58930;" d="M512 384m-512 0a512 512 0 1 1 1024 0 512 512 0 1 1-1024 0ZM512 384m-398.222222 0a398.222222 398.222222 0 1 1 796.444444 0 398.222222 398.222222 0 1 1-796.444444 0ZM722.62163 585.140148c10.714074-10.733037 10.714074-29.50637 0-40.239407L360.580741 182.859852c-10.733037-10.714074-29.50637-10.714074-40.239408 0-10.714074 10.733037-10.714074 29.50637 0 40.239407l362.040889 362.040889c10.733037 10.714074 29.50637 10.714074 40.239408 0zM320.341333 585.140148c10.733037 10.714074 29.50637 10.714074 40.239408 0l362.040889-362.040889c10.714074-10.733037 10.714074-29.50637 0-40.239407-10.733037-10.714074-29.50637-10.714074-40.239408 0L320.341333 544.900741c-10.714074 10.733037-10.714074 29.50637 0 40.239407z"  horiz-adv-x="1024" />

    
    <glyph glyph-name="more" unicode="&#58882;" d="M642.174 391.406c7.99-7.241 7.897-17.58-0.334-24.782L332.62 96.05499999999995c-8.86699999-7.759-9.766-21.236-2.007-30.103 7.758-8.867 21.236-9.766 30.103-2.007l309.221 270.56900001c27.429 24 27.792 64.127 0.89 88.50699998L360.992 703.808c-8.73 7.912-22.22099999 7.248-30.133-1.482-7.912-8.73-7.248-22.222 1.482-30.13400001l309.833-280.78599999z"  horiz-adv-x="1024" />

    
    <glyph glyph-name="shoucangOn" unicode="&#58887;" d="M707.584 802.816c-77.312 0-148.992-38.912-196.608-102.912-47.104 64-119.296 102.912-196.608 102.912-139.264 0-252.416-123.904-252.416-275.968 0-90.624 40.448-154.624 73.216-205.824C229.888 172.03200000000004 468.48-12.799999999999955 478.72-20.480000000000018c9.728-7.68 20.992-11.264 32.256-11.264s22.528 3.584 32.256 11.264c10.24 7.68 248.32 193.024 343.552 341.504 32.768 51.2 73.216 115.2 73.216 205.824 0 152.064-113.152 275.968-252.416 275.968z"  horiz-adv-x="1024" />

    
    <glyph glyph-name="close" unicode="&#58884;" d="M510.37 311.99L189.495-10.511999999999944c-19.945-20.045-52.362-20.126-72.407-0.182-20.045 19.944-20.126 52.362-0.182 72.408l322.281 323.914-322.098 320.478c-20.045 19.944-20.127 52.362-0.184 72.407 19.944 20.045 52.362 20.128 72.407 0.183L513.629 456.01l320.877 322.504c19.945 20.045 52.362 20.126 72.407 0.182 20.045-19.944 20.126-52.362 0.182-72.408L584.814 382.37300000000005l322.098-320.478c20.045-19.944 20.127-52.362 0.184-72.407-19.944-20.045-52.362-20.128-72.407-0.183L510.371 311.99z"  horiz-adv-x="1024" />

    


  </font>
</defs>
</svg>
