<?xml version="1.0" standalone="no"?>
<!DOCTYPE svg PUBLIC "-//W3C//DTD SVG 1.1//EN" "http://www.w3.org/Graphics/SVG/1.1/DTD/svg11.dtd" >
<!--
2013-9-30: Created.
-->
<svg>
<metadata>
Created by iconfont
</metadata>
<defs>

<font id="iconfont" horiz-adv-x="1024" >
  <font-face
    font-family="iconfont"
    font-weight="500"
    font-stretch="normal"
    units-per-em="1024"
    ascent="896"
    descent="-128"
  />
    <missing-glyph />
    
    <glyph glyph-name="x" unicode="x" horiz-adv-x="1001"
d="M281 543q-27 -1 -53 -1h-83q-18 0 -36.5 -6t-32.5 -18.5t-23 -32t-9 -45.5v-76h912v41q0 16 -0.5 30t-0.5 18q0 13 -5 29t-17 29.5t-31.5 22.5t-49.5 9h-133v-97h-438v97zM955 310v-52q0 -23 0.5 -52t0.5 -58t-10.5 -47.5t-26 -30t-33 -16t-31.5 -4.5q-14 -1 -29.5 -0.5
t-29.5 0.5h-32l-45 128h-439l-44 -128h-29h-34q-20 0 -45 1q-25 0 -41 9.5t-25.5 23t-13.5 29.5t-4 30v167h911zM163 247q-12 0 -21 -8.5t-9 -21.5t9 -21.5t21 -8.5q13 0 22 8.5t9 21.5t-9 21.5t-22 8.5zM316 123q-8 -26 -14 -48q-5 -19 -10.5 -37t-7.5 -25t-3 -15t1 -14.5
t9.5 -10.5t21.5 -4h37h67h81h80h64h36q23 0 34 12t2 38q-5 13 -9.5 30.5t-9.5 34.5q-5 19 -11 39h-368zM336 498v228q0 11 2.5 23t10 21.5t20.5 15.5t34 6h188q31 0 51.5 -14.5t20.5 -52.5v-227h-327z" />
    

    
    <glyph glyph-name="wenbenbianji" unicode="&#59093;" d="M247.0912-100.1472 100.5568-100.1472c-39.936 0-72.4992 32.5632-72.4992 72.4992L28.0576 814.08c0 39.936 32.5632 72.4992 72.4992 72.4992l766.0544 0c39.936 0 72.4992-32.5632 72.4992-72.4992l0-210.5344c0-12.3904-10.0352-22.528-22.528-22.528s-22.528 10.0352-22.528 22.528L894.0544 814.08c0 15.1552-12.288 27.5456-27.5456 27.5456L100.5568 841.6256c-15.1552 0-27.5456-12.288-27.5456-27.5456L73.0112-27.648c0-15.1552 12.288-27.5456 27.5456-27.5456l146.5344 0c12.3904 0 22.528-10.0352 22.528-22.528S259.4816-100.1472 247.0912-100.1472zM745.2672 703.8976 174.6944 703.8976c-12.3904 0-22.528 10.0352-22.528 22.528s10.0352 22.528 22.528 22.528l570.5728 0c12.3904 0 22.528-10.0352 22.528-22.528S757.6576 703.8976 745.2672 703.8976zM437.6576 466.3296 174.6944 466.3296c-12.3904 0-22.528 10.0352-22.528 22.528s10.0352 22.528 22.528 22.528l262.9632 0c12.3904 0 22.528-10.0352 22.528-22.528S450.1504 466.3296 437.6576 466.3296zM620.6464 585.1136 174.6944 585.1136c-12.3904 0-22.528 10.0352-22.528 22.528s10.0352 22.528 22.528 22.528l445.952 0c12.3904 0 22.528-10.0352 22.528-22.528S633.1392 585.1136 620.6464 585.1136zM399.6672-113.8688c-6.2464 0-12.288 2.56-16.5888 7.2704-5.2224 5.7344-7.168 13.7216-5.12 21.2992l40.8576 146.6368c1.024 3.6864 3.072 7.168 5.7344 9.8304l408.9856 408.9856c14.1312 14.0288 36.9664 14.0288 51.0976 0l97.792-97.792c6.8608-6.8608 10.5472-15.872 10.5472-25.4976s-3.7888-18.7392-10.5472-25.4976L928.8704 277.504c-4.1984-4.1984-9.9328-6.5536-15.872-6.5536s-11.6736 2.3552-15.872 6.5536l-66.048 66.048c-8.8064 8.8064-8.8064 23.04 0 31.8464s23.04 8.8064 31.8464 0l50.176-50.176 31.4368 31.4368L859.136 441.9584 460.6976 43.52 431.104-62.6688 546.7136-40.96l231.7312 231.7312c5.0176 5.4272 50.7904 52.6336 107.2128 56.7296 12.3904 0.9216 23.1424-8.3968 24.064-20.7872 0.9216-12.3904-8.3968-23.1424-20.7872-24.064-40.3456-2.9696-77.4144-42.2912-77.824-42.7008-0.2048-0.2048-0.4096-0.512-0.7168-0.7168L573.5424-77.7216c-3.1744-3.1744-7.2704-5.3248-11.776-6.2464l-158.0032-29.5936C402.432-113.7664 401.1008-113.8688 399.6672-113.8688z"  horiz-adv-x="1024" />

    
    <glyph glyph-name="cc-message" unicode="&#58996;" d="M665.201 459.954c11.926 11.944 28.417 19.342 46.603 19.342l0 0c18.185 0 34.677-7.397 46.6-19.342l0 0c11.945-11.962 19.322-28.473 19.322-46.66 0-18.225-7.377-34.716-19.322-46.66l0 0c-11.924-11.964-28.416-19.361-46.6-19.361l0 0c-18.186 0-34.678 7.397-46.603 19.361l0 0c-11.943 11.944-19.34 28.436-19.34 46.66-0.001 18.186 7.397 34.697 19.34 46.66l0 0zM454.318 100.893c18.754-1.695 38.076-2.851 56.842-2.851l0.558 0c109.137 0 208.042 35.294 279.651 92.761 71.049 56.89 115.396 135.413 115.396 222.491l0 0 0 0 0 0 0 0c0 86.481-44.347 165.573-115.396 222.472-71.61 57.468-170.515 92.75-280.209 92.75l0 0c-109.137 0-208.034-35.283-279.65-92.75-71.617-56.899-115.388-135.991-115.388-222.472 0-40.419 9.661-79.68 27.847-116.091 18.195-36.988 45.474-71.126 80.72-100.717l0 0c6.25-5.683 11.365-12.522 13.64-20.478 2.841-7.977 3.411-16.511 1.136-25.044l-24.448-104.129 155.748 62.033c2.273 1.137 5.116 2.275 7.957 2.833 2.841 0.578 5.682 0.578 8.525 0.578l0 0c2.273 0 3.978 0 5.682 0 1.705-0.578 3.41-0.578 5.114-1.136l0 0c18.754-4.547 37.52-7.976 56.274-10.249l0 0zM195.695 673.324c80.71 66.001 192.688 106.969 315.464 106.969l0 0c123.333 0 234.742-40.968 315.462-106.969 81.28-66.579 131.291-158.754 131.291-260.028 0-101.873-50.011-193.479-131.291-260.058-80.718-66.002-192.128-106.96-315.461-106.96l0 0c-21.038 0-42.066 1.136-62.526 3.411-21.027 2.851-40.927 6.261-60.819 10.808l-235.312-93.878-10.239-4.566 2.841 10.827 43.77 186.619c-38.655 33.001-69.913 72.264-91.508 115.514-21.038 42.671-32.972 89.35-32.972 138.283l0 0c0.001 101.275 50.023 193.448 131.301 260.028l0 0zM464.548 459.954c11.935 11.944 28.424 19.342 46.612 19.342l0 0c18.185 0 34.677-7.397 46.601-19.342 11.945-11.962 19.322-28.473 19.322-46.66 0-18.225-7.377-34.716-19.322-46.66l0 0c-11.925-11.964-28.417-19.361-46.601-19.361l0 0c-18.186 0-34.677 7.397-46.612 19.361l0 0c-11.935 11.944-19.324 28.436-19.324 46.66 0 18.186 7.389 34.697 19.324 46.66l0 0zM264.47 459.954c11.935 11.944 27.857 19.342 46.044 19.342l0 0c18.185 0 34.667-7.397 46.601-19.342 11.945-11.962 19.332-28.473 19.332-46.66 0-18.225-7.387-34.716-19.332-46.66-11.935-11.964-28.416-19.361-46.601-19.361l0 0c-17.618 0-34.109 7.397-46.044 19.361l0 0 0 0c-11.935 11.944-19.322 28.436-19.322 46.66l0 0c0 18.186 7.388 34.697 19.322 46.66l0 0z"  horiz-adv-x="1024" />

    
    <glyph glyph-name="line" unicode="&#58938;" d="M531.185456-47.532317000000035c0-8.899694-6.493901-16.114003-14.503319-16.114003l-9.364275 0c-8.010441 0-14.504342 7.214309-14.504342 16.114003L492.81352 815.53334c0 8.898671 6.493901 16.114003 14.504342 16.114003l9.364275 0c8.009418 0 14.503319-7.215332 14.503319-16.114003L531.185456-47.532317000000035z"  horiz-adv-x="1024" />

    
    <glyph glyph-name="arrow-right-copy" unicode="&#58882;" d="M336.733 776.333l-56.278-55.72 334.857-337.154-337.673-334.315 55.802-56.184 393.944 390.040z"  horiz-adv-x="1024" />

    
    <glyph glyph-name="delete" unicode="&#58904;" d="M482.656 579.328c0 17.6 14.4 32 32 32l0 0c17.6 0 32-14.4 32-32l0-485.344c0-17.6-14.4-32-32-32l0 0c-17.6 0-32 14.4-32 32L482.656 579.328zM332 579.328c0 17.6 14.4 32 32 32l0 0c17.6 0 32-14.4 32-32l0-485.344c0-17.6-14.4-32-32-32l0 0c-17.6 0-32 14.4-32 32L332 579.328zM633.344 579.328c0 17.6 14.4 32 32 32l0 0c17.6 0 32-14.4 32-32l0-485.344c0-17.6-14.4-32-32-32l0 0c-17.6 0-32 14.4-32 32L633.344 579.328zM898.656 736.672l-125.952 0-46.016 0 0 40.224c0 31.328-28.096 55.776-64 55.776l-296 0c-35.904 0-64-24.512-64-55.776l0-40.224-46.016 0-131.328 0c-17.664 0-32-14.304-32-32s14.336-32 32-32l67.328 0 0-674.912c0-34.432 28.704-62.432 64-62.432l516 0c35.296 0 64 28 64 62.432l0 674.912 61.984 0c17.664 0 32 14.304 32 32S916.32 736.672 898.656 736.672zM366.656 768.672l296 0 0-32-296 0L366.656 768.672zM739.008-0.7680000000000291c0 0-414.016-1.376-449.024-1.376s-33.312 36.128-33.312 36.128 0 570.976 0 608 31.328 30.688 31.328 30.688l78.688 0 296 0 72.32 0c0 0 37.728 2.272 37.728-30.688s0.512-579.968 0.512-610.976S739.008-0.7680000000000291 739.008-0.7680000000000291z"  horiz-adv-x="1024" />

    
    <glyph glyph-name="xiazai6" unicode="&#58886;" d="M324.211517 384.194369 787.889594 822.917417c16.19422 16.630365 16.19422 43.974704 0 60.605068-16.19422 16.630365-42.495607 16.630365-58.613976 0L235.750113 416.639698c-8.647031-8.969398-12.344775-20.934917-11.719003-32.445329-0.644735-11.90863 3.071972-23.874149 11.719003-32.824585l493.506542-466.882788c16.118369-16.649327 42.438718-16.649327 58.613976 0 16.19422 17.085471 16.19422 43.974704 0 60.605068L324.211517 384.194369"  horiz-adv-x="1024" />

    
    <glyph glyph-name="shoucang" unicode="&#58982;" d="M743.858672-6.181537c-5.439896 0-10.912537 1.301645-15.884782 3.921309L512 111.266385 296.025087-2.260228c-11.412934-6.040576-25.39539-5.03876-35.973306 2.603291-10.511401 7.642051-15.784498 20.606317-13.582343 33.420157l41.246403 240.46877L112.987331 444.555168c-9.31004 9.076726-12.647041 22.659069-8.642844 35.022655 4.037966 12.363585 14.716166 21.390169 27.597545 23.25975l241.436818 35.072797 107.987457 218.777749c11.479449 23.326265 49.788963 23.326265 61.268412 0l107.987457-218.777749 241.436818-35.072797c12.881378-1.868557 23.559579-10.895141 27.597545-23.25975 4.004197-12.363585 0.667196-25.945929-8.642844-35.022655L736.284159 274.231991l41.246403-240.46877c2.202155-12.81384-3.069919-25.77913-13.582343-33.420157C758.007927-3.979382 750.933811-6.181537 743.858672-6.181537zM512 184.048015c5.472642 0 10.912537-1.301645 15.884782-3.921309l170.59026-89.667206-32.56979 189.9287c-1.902326 11.079336 1.768273 22.391986 9.81146 30.233582l137.987724 134.534066L623.023606 472.853677c-11.145851 1.61887-20.756743 8.610098-25.728988 18.703991L512 664.351106l-85.295642-172.793438c-4.972245-10.094916-14.583137-17.086144-25.728988-18.703991l-190.679807-27.697829 137.987724-134.534066c8.042163-7.841595 11.712763-19.154245 9.81146-30.233582l-32.56979-189.9287 170.59026 89.667206C501.087463 182.74637 506.527358 184.048015 512 184.048015z"  horiz-adv-x="1024" />

    
    <glyph glyph-name="jiantou-copy-copy" unicode="&#58984;" d="M927.804 543.807l-415.804-415.632-415.803 415.632 63.616 63.445 352.209-352.017 352.102 352.017z"  horiz-adv-x="1024" />

    
    <glyph glyph-name="icon_collect" unicode="&#58883;" d="M805.312 746.88c-192.352 74.528-294.624-71.904-296.352-74.368-1.728 2.496-104 148.928-296.352 74.368-192.544-74.624-280.288-444.32 261.312-736.544 15.36-8.288 27.584-10.72 35.008-10.976v0h0.032c0 0 0.032 0 0.032 0v0c7.424 0.256 19.616 2.688 35.008 10.976 541.6 292.224 453.856 661.92 261.312 736.544zM538.976 80.384c-13.024-7.392-23.648-9.216-30.016-9.408-6.368 0.224-16.992 2.048-30.016 9.408-478.944 271.616-384.608 558.976-217.568 609.344 147.008 44.32 205.28-98.4 247.424-99.040v-0.064c0.032 0 0.096 0.032 0.128 0.032s0.096-0.032 0.128-0.032l0 0.096c42.144 0.608 100.448 143.328 247.424 99.040 167.136-50.4 267.52-333.76-217.504-609.376z"  horiz-adv-x="1024" />

    
    <glyph glyph-name="share" unicode="&#58976;" d="M929.344 34.75199999999995c0-14.784-12.992-26.88-28.864-26.88L106.624 7.871999999999957c-15.872 0-28.8 12.032-28.8 26.88L77.824 645.8240000000001c0 14.848 12.928 26.88 28.8 26.88l186.496 0L293.12 713.7280000000001 106.624 713.7280000000001c-38.528 0-69.824-30.4-69.824-67.904l0-611.072c0-37.504 31.296-67.904 69.824-67.904L900.48-33.152000000000044c38.656 0 69.888 30.4 69.888 67.904L970.368 245.12l-41.024 0L929.344 34.75199999999995zM449.664 171.51999999999998c-1.28 6.912-25.536 171.776 82.56 326.592 85.824 122.944 232 202.88 434.304 237.696l7.616-44.096c-189.824-32.64-326.016-106.176-404.8-218.624-97.536-139.136-74.752-299.456-74.56-300.992L449.664 171.51999999999998zM848.32 463.168L810.496 487.104 955.52 716.4159999999999 705.6 851.648 726.912 891.008 1019.008 732.992Z"  horiz-adv-x="1024" />

    
    <glyph glyph-name="xinxi1" unicode="&#59005;" d="M938.677248 824.32 85.322752 824.32C38.203392 824.32 0 786.101248 0 738.963456l0-555.111424c0-47.138816 38.204416-85.35552 85.322752-85.35552l598.884352 0L853.289984-70.656 853.289984 98.495488l85.387264 0c47.11936 0 85.322752 38.216704 85.322752 85.35552L1024 738.963456C1024 786.101248 985.795584 824.32 938.677248 824.32zM981.338112 183.852032c0-23.528448-19.142656-42.679296-42.660864-42.679296l-85.387264 0-42.65984 0 0-42.677248 0-66.123776-96.260096 96.299008-12.496896 12.502016-17.666048 0L85.322752 141.172736c-23.517184 0-42.660864 19.150848-42.660864 42.679296L42.661888 738.963456c0 23.528448 19.14368 42.679296 42.660864 42.679296l853.354496 0c23.518208 0 42.660864-19.150848 42.660864-42.679296L981.338112 183.852032zM512 503.940096c-23.560192 0-42.661888-19.130368-42.661888-42.678272 0-23.569408 19.101696-42.677248 42.661888-42.677248s42.661888 19.108864 42.661888 42.677248C554.661888 484.809728 535.560192 503.940096 512 503.940096zM682.645504 503.940096c-23.560192 0-42.661888-19.130368-42.661888-42.678272 0-23.569408 19.101696-42.677248 42.661888-42.677248 23.558144 0 42.661888 19.108864 42.661888 42.677248C725.308416 484.809728 706.203648 503.940096 682.645504 503.940096zM345.373696 503.940096c-23.559168 0-42.660864-19.130368-42.660864-42.678272 0-23.569408 19.101696-42.677248 42.660864-42.677248 23.560192 0 42.660864 19.108864 42.660864 42.677248C388.03456 484.809728 368.933888 503.940096 345.373696 503.940096z"  horiz-adv-x="1024" />

    
    <glyph glyph-name="dotcircleo" unicode="&#59078;" d="M658.285714 384q0-60.571429-42.857143-103.428571t-103.428571-42.857143-103.428571 42.857143-42.857143 103.428571 42.857143 103.428571 103.428571 42.857143 103.428571-42.857143 42.857143-103.428571zm-146.285714 310.857143q-84.571429 0-156-41.714286t-113.142857-113.142857-41.714286-156 41.714286-156 113.142857-113.142857 156-41.714286 156 41.714286 113.142857 113.142857 41.714286 156-41.714286 156-113.142857 113.142857-156 41.714286zm438.857143-310.857143q0-119.428571-58.857143-220.285714t-159.714286-159.714286-220.285714-58.857143-220.285714 58.857143-159.714286 159.714286-58.857143 220.285714 58.857143 220.285714 159.714286 159.714286 220.285714 58.857143 220.285714-58.857143 159.714286-159.714286 58.857143-220.285714z"  horiz-adv-x="1024" />

    
    <glyph glyph-name="weibo-copy" unicode="&#58970;" d="M399.84 280.064c-22.816 0-43.808-18.784-44.161-39.488-0.288-17.664 14.56-31.105 34.464-31.105 23.681-0.032 43.488 17.793 43.647 39.232 0.16 18.272-14.112 31.361-33.952 31.361zM456.608 295.807c-6.783-3.328-13.312-8.224-17.984-14.144-0.992-1.28 5.952-8.833 11.584-16.928 7.232 7.936 13.76 12.512 16.16 18.688 1.056 2.656-8.64 12.96-9.76 12.384zM599.904 385.568c-11.008 6.88-22.848 12.64-34.943 17.535-40.48 16.192-82.944 20.992-126.112 17.216-65.28-5.664-125.567-24.896-172.448-73.312-54.368-56.096-47.008-127.103 16.992-171.616 43.328-30.081 92.512-40.416 144.48-39.168 9.44 0 18.912-0.736 28.289 0.129 59.168 5.664 113.664 23.616 158.816 63.648 65.984 58.4 59.36 138.816-15.072 185.568zM526.688 220.672c-22.464-34.048-62.24-54.72-105.44-54.944-54.464-0.352-95.328 30.24-102.56 77.824-1.6 9.728-1.153 20.416 1.056 29.952 10.976 46.688 43.296 72.768 87.296 84.544 43.456 11.52 83.872 4 115.488-30.528 26.176-28.576 27.232-72.128 4.16-106.848zM512.032 896c-282.784 0-512.032-229.247-512.032-512s229.247-512 512-512c282.751 0 512 229.247 512 512 0 282.751-229.216 512-511.968 512zM756.192 231.136c-43.744-67.296-110.944-100.672-186.016-119.072-36.32-8.96-74.24-11.712-93.952-14.721-93.088 2.304-165.088 16.064-230.015 56.416-81.824 50.848-105.664 127.040-62.88 213.44 45.951 92.672 117.44 161.216 211.264 205.28 17.408 8.16 37.216 12.8 56.32 15.168 39.36 4.896 62.335-17.44 61.344-57.056-0.224-8.672-2.177-17.216-2.687-25.952-0.383-7.456 0.16-15.040 0.352-22.528 7.648 1.248 15.36 2.048 22.848 3.713 30.337 6.496 60.352 17.344 90.912 18.976 53.056 2.816 76.832-29.313 60.704-79.712-6.944-21.472-1.76-28.704 18.305-35.904 75.456-27.2 97.184-90.912 53.504-158.048zM716.608 513.665c-12.48 15.872-40.8 19.552-49.76 19.648-13.248 0.096-23.935 10.944-23.808 24.16 0.096 13.185 10.816 23.776 23.935 23.776h0.192c5.856 0 58.368-1.504 87.104-37.92 11.393-14.432 23.072-40.096 13.824-80.032-2.56-11.137-12.448-18.624-23.36-18.624-1.76 0-3.552 0.224-5.376 0.672-12.929 2.976-20.96 15.872-17.984 28.736 4.032 17.472 2.464 30.432-4.768 39.584zM857.696 435.2c-1.888-11.776-12.032-20.288-23.681-20.288-1.184 0-2.496 0.16-3.744 0.352-13.056 2.016-21.984 14.304-19.968 27.392 8.896 56.608-0.16 100.64-27.040 130.72-46.784 52.416-132.544 49.312-133.408 49.312-13.376-0.544-24.447 9.696-25.024 22.88-0.544 13.216 9.76 24.416 22.944 25.024 4.448 0.16 109.441 3.84 171.264-65.248 36.864-41.376 49.856-98.624 38.656-170.144z"  horiz-adv-x="1024" />

    
    <glyph glyph-name="xinxi" unicode="&#58955;" d="M791.589047 671.878473l-567.979212 0c-30.189886 0-54.751149-24.561263-54.751149-54.751149l0-369.442335c0-30.189886 24.561263-54.751149 54.751149-54.751149l361.357585 0 140.203878-101.008195c5.423946-4.605237 12.178293-6.959025 19.034979-6.959025 3.786528 0 7.675395 0.71637 11.359584 2.251449 11.052568 4.605237 18.113932 15.248451 18.113932 27.222067L773.679792 192.93384l17.909254 0c30.189886 0 54.751149 24.561263 54.751149 54.751149l0 369.442335C846.340196 647.31721 821.778933 671.878473 791.589047 671.878473zM801.311213 247.684989c0-5.219268-4.502898-9.722167-9.722167-9.722167L728.65081 237.962822l0-45.028983 0 0 0-47.996802-129.560664 93.3328-0.409354-0.511693L598.680792 237.962822 223.609834 237.962822c-5.219268 0-9.722167 4.502898-9.722167 9.722167l0 369.442335c0 5.219268 4.502898 9.722167 9.722167 9.722167l567.979212 0c5.219268 0 9.722167-4.502898 9.722167-9.722167L801.311213 247.684989zM380.69958 466.177893l-40.935439 0c-5.628623 0-10.23386-4.605237-10.23386-10.23386l0-40.935439c0-5.628623 4.605237-10.23386 10.23386-10.23386l40.935439 0c5.628623 0 10.23386 4.605237 10.23386 10.23386l0 40.935439C390.93344 461.572656 386.328203 466.177893 380.69958 466.177893zM536.254247 456.96742c0 5.628623-4.605237 10.23386-10.23386 10.23386l-40.935439 0c-5.628623 0-10.23386-4.605237-10.23386-10.23386l0-40.935439c0-5.628623 4.605237-10.23386 10.23386-10.23386l40.935439 0c5.628623 0 10.23386 4.605237 10.23386 10.23386L536.254247 456.96742zM683.621827 456.96742c0 5.628623-4.605237 10.23386-10.23386 10.23386l-40.935439 0c-5.628623 0-10.23386-4.605237-10.23386-10.23386l0-40.935439c0-5.628623 4.605237-10.23386 10.23386-10.23386l40.935439 0c5.628623 0 10.23386 4.605237 10.23386 10.23386L683.621827 456.96742z"  horiz-adv-x="1024" />

    
    <glyph glyph-name="weixin" unicode="&#59059;" d="M579.800805 384.131568c-11.668045 0-23.34121-10.835638-23.34121-24.174642 0-10.837685 11.667022-21.675371 23.34121-21.675371 17.512307 0 30.015832 10.837685 30.015832 21.675371C609.816637 373.294906 597.313112 384.131568 579.800805 384.131568L579.800805 384.131568zM503.098457 496.689914c18.341643 0 30.015832 11.668045 30.015832 29.181376 0 18.342667-11.673165 29.179329-30.015832 29.179329-17.508211 0-34.184015-10.837685-34.184015-29.179329C468.913418 508.356935 485.590245 496.689914 503.098457 496.689914L503.098457 496.689914zM512.269278 895.439942c-282.619393 0-511.724066-229.104674-511.724066-511.724066 0-282.617345 229.104674-511.722019 511.724066-511.722019 282.617345 0 511.722019 229.104674 511.722019 511.722019C1023.992321 666.335268 794.887647 895.439942 512.269278 895.439942L512.269278 895.439942zM415.557399 254.072177c-30.851312 0-53.362162 4.998543-82.542514 13.339005l-84.20733-42.524476 24.182833 71.705853c-59.196184 41.682854-94.216703 94.209536-94.216703 158.408359 0 113.388706 106.719204 200.09838 236.784738 200.09838 115.054546 0 217.605567-68.36803 237.614074-165.085028-8.336366 1.671983-15.842372 2.501319-22.51085 2.501319-113.388706 0-200.92874-85.038714-200.92874-187.589735 0-17.506164 2.501319-33.346488 6.670526-50.024339C429.732907 254.072177 422.226902 254.072177 415.557399 254.072177L415.557399 254.072177zM763.227477 172.366166l16.671708-60.032688-63.363344 35.849855c-24.17669-4.998543-47.52302-12.503525-71.69971-12.503525-111.722867 0-200.09838 76.702348-200.09838 171.747364 0 95.046039 88.376537 171.749411 200.09838 171.749411 105.882701 0 200.92874-76.703372 200.92874-171.749411C845.764871 254.072177 809.915017 206.549157 763.227477 172.366166L763.227477 172.366166zM338.018548 555.050619c-17.508211 0-35.849855-10.837685-35.849855-29.179329 0-17.513331 18.341643-29.186496 35.849855-29.186496 16.676827 0 30.015832 11.673165 30.015832 29.186496C368.03438 544.212933 354.695375 555.050619 338.018548 555.050619L338.018548 555.050619zM710.701818 384.131568c-12.508644 0-23.34633-10.835638-23.34633-24.174642 0-10.837685 10.837685-21.675371 23.34633-21.675371 16.671708 0 29.179329 10.837685 29.179329 21.675371C739.881147 373.294906 727.373526 384.131568 710.701818 384.131568L710.701818 384.131568zM710.701818 384.131568"  horiz-adv-x="1024" />

    
    <glyph glyph-name="qq" unicode="&#59060;" d="M512.009337 896C229.23422 896 0 666.76578 0 384.009337c0-282.775117 229.23422-512.009337 512.009337-512.009337 282.775117 0 512.009337 229.23422 512.009337 512.009337C1024 666.76578 794.76578 896 512.009337 896zM801.26464 227.140299c-21.737567-18.637536-49.955319 61.346999-54.007769 49.040249-9.879014-29.935842-14.529061-49.936644-43.643208-82.505644-1.550016-1.736764 33.670819-14.473036 43.643208-41.62632 9.542867-26.03279 28.143053-67.285613-93.486477-80.227308-71.375413-7.582004-122.936772 38.022067-128.09104 37.592545-9.524192-0.84037-5.284993 0-15.51883 0-8.366349 0-8.926595-0.616271-16.807397 0-2.166287 0.168074-25.883391-37.592545-131.975416-37.592545-82.225521 0-103.514891 51.748108-86.987617 80.227308 16.545949 28.460526 44.128755 36.752175 40.244378 41.252822-19.141758 22.185764-32.363577 45.921544-40.244378 67.360312-1.942188 5.341017-3.585578 10.532635-4.874145 15.51883-2.987982 11.447705-25.883391-67.229588-50.459541-49.040249-24.576149 18.170664-22.391188 64.40968-6.480185 108.687834 16.060402 44.614302 56.491529 87.585213 56.939726 97.072055 1.624715 35.295534-3.473529 41.159448 0 50.422191 7.750078 20.766473 17.19957 12.792297 17.19957 23.567706 0 135.729068 100.863057 245.761494 225.293819 245.761494 124.412088 0 225.275145-110.032426 225.275145-245.761494 0-5.210293 13.520617 0 19.982128-23.567706 1.325917-4.874145 2.259661-23.66108 0.672296-50.422191-0.746995-12.848321 34.268415-28.497875 52.364379-97.072055C828.436598 267.235278 810.321959 234.890376 801.26464 227.140299z"  horiz-adv-x="1025" />

    
    <glyph glyph-name="xiaoxi" unicode="&#58881;" d="M767.99417 512.008026c-35.327473 0-63.999161-28.671688-63.999161-63.999161s28.671688-63.999161 63.999161-63.999161 63.999161 28.671688 63.999161 63.999161S803.321643 512.008026 767.99417 512.008026L767.99417 512.008026zM511.999521 64.016892c-37.375023 0-73.470203 4.351667-108.157754 11.744211l-150.653149-90.558409 2.015604 148.44487C139.718814 203.086559 64.008386 317.900098 64.008386 448.008865c0 212.059679 200.572036 383.991974 447.991135 383.991974s447.990137-171.932294 447.990137-383.991974C959.989657 235.917239 759.41862 64.016892 511.999521 64.016892L511.999521 64.016892zM511.999521 896C229.252949 896 0.010223 695.396018 0.010223 448.008865c0-141.404733 75.03856-267.322561 191.996486-349.400261l0-226.587201 224.283083 136.093682c31.039698-5.120372 62.974887-8.095359 95.709729-8.095359 282.745574 0 511.989298 200.572036 511.989298 447.991135C1023.988819 695.396018 794.746093 896 511.999521 896L511.999521 896 511.999521 896zM256.004872 512.008026c-35.327473 0-63.998163-28.671688-63.998163-63.999161s28.671688-63.999161 63.998163-63.999161 63.999161 28.671688 63.999161 63.999161S291.332345 512.008026 256.004872 512.008026L256.004872 512.008026zM511.999521 512.008026c-35.327473 0-63.999161-28.671688-63.999161-63.999161s28.671688-63.999161 63.999161-63.999161 63.999161 28.671688 63.999161 63.999161S547.326994 512.008026 511.999521 512.008026L511.999521 512.008026z"  horiz-adv-x="1024" />

    
    <glyph glyph-name="dianzan1" unicode="&#58907;" d="M890.908 466.466c-20.66 26.05-51.585 40.99-84.84 40.99l-189.34 0c10.34 28.83 17.18 60.165 19.615 90.48 3.785 47.147-3.465 89.02-20.955 121.095-21.53 39.46-58.18 64.072-105.997 71.177-21.662 3.22-40.292-0.945-55.377-12.372-30.495-23.102-36.092-67.065-42.575-117.97-5.182-40.692-11.055-86.817-30.79-119.877-13.172-22.065-38.807-51.397-109.092-51.397l-73.345 0c-48.842 0-88.58-39.722-88.58-88.545l0-334.754c0-48.82 39.737-88.545 88.58-88.545l534.336 0c24.33 0 48.22 8.325 67.275 23.43 19.06 15.11 32.605 36.475 38.145 60.155l73.52 314.264C919.058 406.946 911.553 440.431 890.908 466.466zM168.672 65.292 168.672 400.044c0 16.27 13.252 29.505 29.537 29.505l62.232 0 0-393.762-62.232 0C181.925 35.787 168.672 49.022 168.672 65.292zM853.998 388.044l-73.52-314.272c-5.23-22.36-24.94-37.985-47.93-37.985L319.484 35.787 319.484 433.831c49.877 9.52 87.4 34.92 111.86 75.895 26.05 43.64 32.75 96.257 38.662 142.68 2.67 20.977 5.193 40.79 9.2 55.99 4.297 16.302 8.745 21.08 10.457 22.377 1.96 1.485 5.677 1.835 11.05 1.035 29.615-4.4 50.175-17.83 62.84-41.052 25.99-47.642 14.505-128.052-10.265-182.86-5.93-13.127-4.83-28.167 2.96-40.232 7.78-12.052 21.01-19.247 35.395-19.247l214.424 0c15.125 0 29.185-6.792 38.58-18.637C854.028 417.951 857.438 402.739 853.998 388.044z"  horiz-adv-x="1024" />

    
    <glyph glyph-name="xiaoxi1" unicode="&#59009;" d="M829.901823 766.768227 192.003917 766.768227c-70.423653 0-127.578302-57.154649-127.578302-127.579301l0-382.736105c0-70.424652 57.154649-127.579501 127.578302-127.579501l127.387831 0 0-65.193199c0-23.92258 13.395918-45.418206 34.831384-56.008426 8.86499-4.272703 18.305789-6.442432 27.682032-6.442432 13.461473 0 26.791835 4.402815 37.956665 12.94942l148.948213 114.694637L829.901823 128.87332c70.424652 0 127.579501 57.154849 127.579501 127.579501L957.481324 639.188926C957.481324 709.613578 900.325475 766.768227 829.901823 766.768227L829.901823 766.768227zM893.689375 256.452821c0-35.276882-28.511869-63.79075-63.788751-63.79075l-271.682199 0.063557c-7.015044 0-13.841615-2.293645-19.391652-6.570545l-155.709029-122.540318 0 97.215488c0 17.605064-14.290311 31.830819-31.832817 31.830819l-159.281007 0c-35.274884 0-63.789751 28.514867-63.789751 63.79075L128.214167 639.188926c0 35.276882 28.513868 63.789751 63.789751 63.789751L829.901823 702.978676c35.276882 0 63.788751-28.513868 63.788751-63.789751l0-382.736105L893.689375 256.452821zM319.583219 511.610624c-35.276882 0-63.789751-28.512868-63.789751-63.789751 0-35.276882 28.512868-63.789751 63.789751-63.789751s63.789751 28.513868 63.789751 63.789751C383.372969 483.096756 354.860101 511.610624 319.583219 511.610624L319.583219 511.610624zM510.951271 511.610624c-35.274684 0-63.788551-28.512868-63.788551-63.789751 0-35.276882 28.512868-63.789751 63.788551-63.789751 35.275883 0 63.789751 28.513868 63.789751 63.789751C574.741022 483.096756 546.227154 511.610624 510.951271 511.610624L510.951271 511.610624zM702.321522 511.610624c-35.276882 0-63.788751-28.512868-63.788751-63.789751 0-35.276882 28.511869-63.789751 63.788751-63.789751S766.111073 412.54499 766.111073 447.820873C766.111073 483.096756 737.598404 511.610624 702.321522 511.610624L702.321522 511.610624z"  horiz-adv-x="1024" />

    
    <glyph glyph-name="iconfontzhizuobiaozhun023148" unicode="&#59030;" d="M986.776992 328.177023c14.823998 20.164492 26.251363 53.121973 26.251363 80.628234l-0.005126 0.396769c-0.793539 33.226095-16.845778 63.097593-45.19684 84.109961-27.883551 20.66276-65.458729 31.586731-108.666597 31.586731l-193.845887-0.035884c13.63369 47.042278 19.597532 100.589727 16.884737 153.311855-3.187482 61.967775-18.131433 117.13921-42.078049 155.35209-14.143236 22.563562-31.094614 39.332446-50.386623 49.84632-15.361225 8.370089-31.741542 12.615623-48.684719 12.615623-40.095228 0-69.546376-17.842315-85.168013-51.599486-12.649456-27.335045-12.649456-58.461442-12.649456-68.689272 0-87.236954-12.45671-124.689104-26.40925-158.056683-5.289232-9.781849-25.35735-33.24455-52.993818-54.16157-42.611175-32.246988-75.971578-39.017696-96.453895-39.017696l-144.089789 0c-28.828825 0-54.736732-10.680988-74.920703-30.886489-24.298274-24.323905-37.658223-60.185901-37.616188-100.983421l0.001025-0.760731 37.470604-403.396456c5.418413-73.995933 44.717026-114.76372 110.666847-114.797553 1.653718-0.015379 30.607623-0.277841 52.215658-0.277841 9.071356 0 21.437844 0.050237 28.841128 0.286043 23.031073 0.741251 40.783166 14.195523 55.04738 25.005692l3.624236 2.746628c3.47045 2.634876 7.958966 6.041761 10.787613 7.636014 2.294495-1.091884 5.393807-2.642053 8.07892-3.985122 7.318189-3.659094 17.340971-8.671511 28.261866-13.410187 26.117056-11.345346 63.949571-18.675838 96.383153-18.675838l301.476988 0c52.890268 0 94.037395 10.262689 122.299261 30.502023 28.652483 20.521276 43.815837 51.370857 43.850695 89.232079 0 13.623437-1.938736 24.567913-6.667159 35.454975 43.295013 16.846803 68.504728 49.618716 68.504728 90.56592 0 12.039436-3.257199 29.931988-10.07712 44.407402 8.743278 5.93206 17.574726 13.918707 25.344022 23.122319 17.040574 20.195249 26.414377 43.389335 26.394897 65.296741C1013.252884 283.573799 1004.16615 309.677527 986.776992 328.177023zM898.799812 213.273869l-22.270342 0 0.867356-65.362357 10.402122-4.070217 0.652055-0.250159c2.81942-1.074455 9.421989-3.590403 9.443519-23.428867-0.003076-3.403809-0.013328-13.764921-17.867946-22.567663-12.408524-6.119679-29.918659-9.630113-48.03984-9.630113l0-16.596644-16.480791 0.300396-0.890937-49.09174 13.114916-3.020368c2.600018-0.597717 8.008178-1.844413 7.987673-22.898816 0-14.763508-5.644991-25.403486-17.764396-33.482406-15.499633-10.33343-41.546972-15.794903-75.326699-15.794903l-312.100562 0c-11.539117 0-39.494435 7.971269-55.394938 15.796954-12.397246 6.097124-30.751157 16.439781-42.716775 23.214591L332.414226 461.865715c79.007324 27.16588 141.153491 95.435828 157.733731 127.879662l0.515698 1.108288c17.754144 42.137513 28.033236 86.674096 28.033236 189.634186 0 23.078234 4.3132 31.47908 6.883486 34.434857 1.481477 1.70293 3.771871 3.519661 12.246535 3.519661 8.443906 0 29.934038-13.505534 41.185061-31.451399 17.690579-28.219831 28.858557-74.782295 29.875599-124.554797 1.131869-55.389812-9.924358-110.039398-31.130497-153.878815l-0.776109-1.603481-13.6788-56.714427 297.271438 0.08612c50.690095-2.967055 78.121513-23.267904 78.325537-41.003593l-0.334229-11.623187c-0.401895-8.203999-3.941036-25.086686-11.083909-31.145876-7.190034-6.095073-12.738652-7.413537-14.117605-7.659595l-15.564223 0.656156-0.431628-53.90731-0.08407-14.5195 14.371865-2.050487c5.081107-0.725872 13.84489-2.935272 17.052877-5.179531 7.080332-4.975507 11.026495-15.99175 10.556934-29.444997-0.191721-5.263601-5.72291-15.899478-15.925109-26.043238C912.253059 217.37997 902.404569 213.273869 898.799812 213.273869zM258.021524 450.314295l0-486.712879c-3.860042-2.816344-7.481203-5.49223-10.454409-7.730337-5.671648-4.275266-10.423652-7.30281-12.769409-8.567961-5.534265-0.12508-14.388269-0.18762-26.391821-0.18762-19.246898 0-41.302964 0.160963-52.736481 0.256311l-0.996537 0.008202c-14.407749 0-28.619676 16.649956-32.557636 38.020134l-37.277858 417.166503c0.341406 25.792054 19.877423 46.025237 37.907358 48.16492L258.021524 450.314295z"  horiz-adv-x="1024" />

    
    <glyph glyph-name="yanjing" unicode="&#58893;" d="M515.2 672C208 672 22.4 358.4 22.4 358.4s214.4-304 492.8-304 492.8 304 492.8 304S822.4 672 515.2 672zM832 243.2c-102.4-86.4-211.2-140.8-320-140.8s-217.6 51.2-320 140.8c-35.2 32-70.4 64-99.2 99.2-6.4 6.4-9.6 12.8-16 19.2 3.2 6.4 9.6 12.8 12.8 19.2 25.6 35.2 57.6 70.4 92.8 102.4 99.2 89.6 208 144 329.6 144s230.4-54.4 329.6-144c35.2-32 64-67.2 92.8-102.4 3.2-6.4 9.6-12.8 12.8-19.2-3.2-6.4-9.6-12.8-16-19.2-28.8-32-60.8-67.2-99.2-99.2zM512 550.4c-96 0-169.6-76.8-169.6-169.6 0-96 76.8-169.6 169.6-169.6 96 0 169.6 76.8 169.6 169.6S604.8 550.4 512 550.4z m0-294.4c-67.2 0-121.6 54.4-121.6 121.6 0 67.2 54.4 121.6 121.6 121.6 67.2 0 121.6-54.4 121.6-121.6 0-64-54.4-121.6-121.6-121.6z"  horiz-adv-x="1024" />

    


  </font>
</defs>
</svg>
