<?xml version="1.0" standalone="no"?>
<!DOCTYPE svg PUBLIC "-//W3C//DTD SVG 1.1//EN" "http://www.w3.org/Graphics/SVG/1.1/DTD/svg11.dtd" >
<!--
2013-9-30: Created.
-->
<svg>
<metadata>
Created by iconfont
</metadata>
<defs>

<font id="iconfont" horiz-adv-x="1024" >
  <font-face
    font-family="iconfont"
    font-weight="500"
    font-stretch="normal"
    units-per-em="1024"
    ascent="896"
    descent="-128"
  />
    <missing-glyph />
    
    <glyph glyph-name="x" unicode="x" horiz-adv-x="1001"
d="M281 543q-27 -1 -53 -1h-83q-18 0 -36.5 -6t-32.5 -18.5t-23 -32t-9 -45.5v-76h912v41q0 16 -0.5 30t-0.5 18q0 13 -5 29t-17 29.5t-31.5 22.5t-49.5 9h-133v-97h-438v97zM955 310v-52q0 -23 0.5 -52t0.5 -58t-10.5 -47.5t-26 -30t-33 -16t-31.5 -4.5q-14 -1 -29.5 -0.5
t-29.5 0.5h-32l-45 128h-439l-44 -128h-29h-34q-20 0 -45 1q-25 0 -41 9.5t-25.5 23t-13.5 29.5t-4 30v167h911zM163 247q-12 0 -21 -8.5t-9 -21.5t9 -21.5t21 -8.5q13 0 22 8.5t9 21.5t-9 21.5t-22 8.5zM316 123q-8 -26 -14 -48q-5 -19 -10.5 -37t-7.5 -25t-3 -15t1 -14.5
t9.5 -10.5t21.5 -4h37h67h81h80h64h36q23 0 34 12t2 38q-5 13 -9.5 30.5t-9.5 34.5q-5 19 -11 39h-368zM336 498v228q0 11 2.5 23t10 21.5t20.5 15.5t34 6h188q31 0 51.5 -14.5t20.5 -52.5v-227h-327z" />
    

    
    <glyph glyph-name="zhifubao" unicode="&#58903;" d="M419.33131 239.019321c-16.749116 9.435092-26.76933 12.799543-58.183065 25.855077-31.413735 13.128674-43.408735 10.203064-73.615657 8.703689-30.243491-1.462805-83.123888-44.030427-83.123888-87.512303 0-64.729117 36.496982-96.508553 107.44302-96.508553 21.686083 1.206814 48.345702 9.398521 79.869148 27.061891 32.547409 20.003857 63.120031 44.72526 89.779651 75.297882 1.901646 2.377058 3.913003 4.680976 5.88779 7.021464l0 0.03657C449.903932 221.429092 427.157316 235.508589 419.33131 239.019321L419.33131 239.019321zM932.556409 615.911003c0 0.841113-0.10971 1.645656-0.365701 2.413628-1.499375 5.339238-8.593979 8.447698-21.100961 9.361951-13.384665 0.950823-29.694939 2.047927-48.967394 3.291311-1.243384 0.10971-2.596479 0.182851-3.839863 0.255991-9.179101 0.585122-18.577622 1.462805-28.305275 2.596479-12.433842 1.426235-25.343095 3.291311-38.654619 5.595229-23.734009 4.095854-45.346952 12.945823-64.875397 26.549909-6.509482 4.571265-12.872683 9.398521-19.016464 14.408628-5.485518 4.388415-10.751616 8.99625-15.944573 13.750366-4.534695 4.132424-8.88654 8.374558-13.201814 12.762973-3.218171 3.291311-6.509482 6.619192-9.727653 9.910503-11.336738 11.483018-22.563766 22.673476-33.681083 33.534802-12.506982 12.214421-25.452805 23.404878-38.76433 33.534802-1.901646 1.426235-3.803293 2.85247-5.704939 4.278704-0.950823 0.694832-1.901646 1.353095-2.779329 1.974787-14.152637 9.873933-29.146388 16.712546-44.981251 20.625549-0.255991 0.10971-0.511982 0.219421-0.767973 0.255991-0.255991 0.07314-0.438841 0.10971-0.694832 0.10971-0.950823 0.07314-2.340488 0.10971-4.242134 0.255991C531.821006 811.634299 523.556159 812 514.486768 812 513.645656 811.96343 512.804543 811.96343 512 811.96343c-0.804543 0-1.682226 0-2.450198 0.03657C500.18785 812 491.667012 811.597729 486.547195 811.341738 484.901539 811.268598 483.621585 811.158887 482.743902 811.122317c-0.182851 0-0.438841-0.07314-0.621692-0.10971-0.255991-0.03657-0.511982-0.10971-0.804543-0.255991-15.871433-3.913003-30.755473-10.751616-44.90811-20.625549-0.877683-0.621692-1.828506-1.316524-2.779329-1.974787C431.692011 786.730045 429.790365 785.303811 427.925288 783.877576 414.577194 773.747652 401.63137 762.557194 389.124388 750.342773 377.897361 739.298596 366.450912 727.961859 354.967894 716.259419c-3.10846-3.10846-6.143781-6.216921-9.288811-9.361951-3.583872-3.766723-7.314024-7.423735-11.227028-11.007607C328.747116 690.550623 322.786186 685.357666 316.605836 680.384129c-6.180351-5.010107-12.506982-9.800793-19.016464-14.408628C278.060926 652.371415 256.447984 643.521446 232.713975 639.425592 219.29274 637.121674 206.493197 635.256598 194.059355 633.830363 184.331702 632.696689 174.896611 631.855577 165.75408 631.233885 164.400986 631.197314 163.157602 631.087604 161.804507 630.977894 142.605193 629.734509 126.331488 628.637406 112.910253 627.686583 100.439841 626.77233 93.345238 623.663869 91.845863 618.324631 91.589872 617.593229 91.443591 616.788686 91.443591 615.911003l0-23.77058c0.255991-54.745473 1.097104-104.55398 2.523338-149.462091L93.96693 442.641763c0-0.07314 0.07314-0.219421 0.07314-0.365701 0.182851-5.192957 0.329131-10.385915 0.585122-15.432592l0.365701 0c1.389665-21.942073 3.730152-59.499589 3.803293-66.447913l0-0.731402c0.255991-3.10846 0.511982-6.143781 0.767973-9.179101 0.07314-0.694832 0.10971-1.353095 0.10971-2.011357 0.255991-2.377058 0.438841-4.717546 0.621692-7.094604 0.10971-0.694832 0.10971-1.389665 0.255991-2.084497 0.14628-2.303918 0.365701-4.644406 0.621692-6.948323 0-0.658262 0.10971-1.279954 0.10971-1.938216 0.255991-2.340488 0.511982-4.680976 0.767973-7.021464 0-0.548552 0.07314-1.097104 0.14628-1.645656 0.255991-2.413628 0.511982-4.863826 0.767973-7.314024 0.07314-0.402271 0.10971-0.767973 0.10971-1.170244 0.329131-2.596479 0.621692-5.119817 0.877683-7.679726 0.07314-0.255991 0.14628-0.511982 0.14628-0.767973 0.292561-2.706189 0.621692-5.412378 0.987393-8.081997l0-0.219421c2.779329-21.832363 6.07064-42.311632 9.873933-61.328095 1.645656-8.191707 3.401021-16.200564 5.302668-24.063141 0.07314-0.402271 0.10971-0.767973 0.255991-1.170244 0.841113-3.474162 1.645656-6.911753 2.523338-10.276204 0.10971-0.511982 0.255991-0.987393 0.365701-1.426235 0.877683-3.401021 1.755366-6.802043 2.669619-10.129924 0.10971-0.365701 0.182851-0.658262 0.255991-0.987393 1.901646-6.875183 3.913003-13.640656 5.92436-20.296418 0.182851-0.438841 0.255991-0.877683 0.438841-1.279954 0.950823-3.145031 1.938216-6.216921 2.96218-9.325381 0.255991-0.511982 0.365701-1.060534 0.585122-1.572515 1.023963-3.07189 2.084497-6.10721 3.10846-9.06939 0.182851-0.438841 0.329131-0.877683 0.511982-1.316524 1.133674-3.10846 2.267348-6.180351 3.401021-9.252241 1.279954-3.364451 2.596479-6.728903 3.913003-10.020214l0 0c10.824756-26.513339 23.77058-51.307882 38.983751-74.347059 7.899146-11.995 16.493125-23.95343 25.818506-35.91186l0.329131 0C212.234706 14.77133 212.124996 14.734759 211.978715 14.698189c10.715046-13.786936 22.380915-27.500732 34.887897-41.141388 6.509482-7.204314 13.384665-14.445198 20.479269-21.759223 0.365701-0.402271 0.767973-0.767973 1.133674-1.206814 2.413628-2.377058 4.680976-4.754116 7.094604-7.167744 0.365701-0.329131 0.621692-0.658262 1.023963-0.950823 2.267348-2.340488 4.680976-4.680976 7.021464-6.984893 0.182851-0.182851 0.438841-0.365701 0.585122-0.585122 2.523338-2.413628 5.010107-4.863826 7.460305-7.314024 0.511982-0.438841 1.023963-0.914253 1.462805-1.389665 2.523338-2.413628 5.046677-4.827256 7.643156-7.277454 0.255991-0.255991 0.511982-0.511982 0.767973-0.767973 2.413628-2.267348 4.936967-4.571265 7.314024-6.875183 0.511982-0.402271 0.877683-0.841113 1.389665-1.279954 2.523338-2.377058 5.156387-4.754116 7.826006-7.167744 0.511982-0.511982 1.133674-1.060534 1.755366-1.609085 2.523338-2.340488 5.192957-4.717546 7.826006-7.131174 0.14628-0.10971 0.255991-0.182851 0.402271-0.329131 30.645763-27.573872 66.703903-57.671083 114.574194-82.611907 6.765473-3.620442 15.286311-7.606585 22.710046-11.080747 9.544802-4.388415 17.297668-7.679726 17.297668-7.679726 1.974787-0.621692 3.986143-1.133674 5.9975-1.609085 5.119817-1.133674 10.166494-1.865076 15.176601-2.267348 1.023963-0.10971 1.974787-0.182851 2.92561-0.255991l0-0.182851c0.877683 0 1.755366-0.07314 2.669619-0.07314s1.755366 0.07314 2.706189 0.07314c0.877683 0 1.828506-0.07314 2.706189-0.07314 0.877683 0 1.755366 0.07314 2.596479 0.07314l0 0.182851c1.023963 0.03657 1.938216 0.10971 2.96218 0.255991 4.936967 0.365701 10.056784 1.133674 15.103461 2.267348 2.011357 0.475412 4.022713 0.987393 5.9975 1.609085 0 0 7.826006 3.327881 17.370808 7.679726 7.387165 3.437592 15.871433 7.423735 22.600336 11.080747 47.943431 24.940824 83.965001 55.038034 114.647334 82.611907 0.14628 0.10971 0.255991 0.219421 0.365701 0.329131 2.669619 2.413628 5.229528 4.790686 7.826006 7.131174 0.621692 0.548552 1.206814 1.097104 1.755366 1.609085 2.633049 2.413628 5.229528 4.827256 7.826006 7.167744 0.438841 0.438841 0.877683 0.841113 1.389665 1.279954 2.413628 2.267348 4.936967 4.607835 7.314024 6.911753 0.255991 0.219421 0.511982 0.475412 0.767973 0.731402 2.523338 2.450198 5.119817 4.900396 7.606585 7.277454 0.511982 0.475412 1.023963 0.950823 1.426235 1.389665 2.523338 2.450198 5.010107 4.900396 7.533445 7.314024 0.10971 0.182851 0.365701 0.365701 0.511982 0.548552 2.413628 2.340488 4.754116 4.644406 7.058034 7.021464 0.329131 0.329131 0.621692 0.658262 1.023963 0.950823 2.340488 2.413628 4.680976 4.790686 7.021464 7.167744 0.365701 0.402271 0.767973 0.804543 1.133674 1.206814 7.131174 7.314024 13.969787 14.554909 20.552409 21.759223 12.506982 13.640656 24.136281 27.354452 34.814757 41.141388C811.875004 14.734759 811.765294 14.77133 811.655584 14.77133l0.365701 0c9.288811 11.95843 17.95593 23.91686 25.855077 35.91186 15.213171 23.039177 28.158994 47.79715 38.983751 74.347059l0 0c1.316524 3.291311 2.669619 6.619192 3.913003 10.020214 1.133674 3.03532 2.267348 6.143781 3.401021 9.252241 0.10971 0.438841 0.292561 0.877683 0.511982 1.316524 1.023963 2.96218 2.047927 5.9975 3.10846 9.06939 0.182851 0.511982 0.329131 1.023963 0.585122 1.572515 1.023963 3.10846 2.011357 6.180351 2.96218 9.325381 0.10971 0.402271 0.255991 0.841113 0.365701 1.279954 2.084497 6.619192 4.095854 13.421235 5.92436 20.296418 0.07314 0.329131 0.182851 0.658262 0.329131 0.987393 0.877683 3.327881 1.791936 6.728903 2.669619 10.129924 0.14628 0.475412 0.255991 0.914253 0.402271 1.426235 0.804543 3.401021 1.645656 6.802043 2.523338 10.276204 0.07314 0.402271 0.10971 0.767973 0.255991 1.170244 1.901646 7.899146 3.620442 15.908003 5.302668 24.099711 3.803293 18.979894 7.094604 39.459162 9.873933 61.291525L918.988893 296.726974c0.365701 2.669619 0.621692 5.375808 1.023963 8.081997 0 0.255991 0.07314 0.511982 0.07314 0.767973 0.292561 2.559909 0.585122 5.083247 0.877683 7.679726 0.07314 0.402271 0.07314 0.804543 0.14628 1.206814 0.329131 2.450198 0.585122 4.863826 0.804543 7.350595 0 0.511982 0.10971 1.060534 0.10971 1.572515 0.255991 2.340488 0.511982 4.680976 0.767973 7.058034 0 0.658262 0.10971 1.279954 0.10971 1.901646 0.255991 2.267348 0.438841 4.607835 0.621692 6.948323 0.10971 0.694832 0.10971 1.389665 0.255991 2.084497 0.10971 2.377058 0.365701 4.717546 0.548552 7.094604 0.07314 0.694832 0.14628 1.353095 0.182851 2.047927 0.255991 3.03532 0.511982 6.10721 0.694832 9.179101 0.07314 0.255991 0.07314 0.511982 0.07314 0.731402 0.07314 6.948323 2.413628 44.505839 3.803293 66.447913l0.365701 0c0.182851 5.046677 0.365701 10.239634 0.585122 15.432592L930.03307 442.641763l0 0c1.499375 44.944681 2.340488 94.753187 2.523338 149.498661C932.556409 599.96643 932.556409 607.902146 932.556409 615.911003L932.556409 615.911003zM863.073176 160.064426c-19.857577-17.736509-32.474269-16.237134-95.5943-72.957394-15.871433-14.298918-29.109818-13.018964-42.019071-9.179101-6.765473 2.047927-13.786936 4.498125-21.02782 7.277454l0.07314 0.03657c-50.101068 19.930717-102.103782 44.578979-155.020749 76.138995-5.92436-5.88779-11.88529-11.775579-17.736509-18.833613-60.157852-58.804757-131.103889-91.754437-211.96043-97.642227l-12.799543 0c-8.92311 1.206814-16.749116 1.206814-25.599086 2.340488-31.596586 4.754116-58.256205 16.493125-79.905718 34.119924-30.499482 24.721403-46.297775 60.048141-45.346952 105.907075-0.950823 40.007714 13.823506 72.957394 43.408735 97.642227 27.610442 22.380915 63.046891 34.119924 104.48084 34.119924 45.346952 1.206814 106.528767-18.797043 183.399164-58.804757 10.788186-5.88779 41.104818-17.626799 35.436449-15.322881 32.583979 47.065748 53.319239 97.642227 65.131388 150.595764L333.537802 394.332631l0 34.119924 120.279133 1.206814L453.816935 506.127495 285.265241 506.127495 285.265241 539.077176l168.551695 0L453.816935 601.429235c0 11.739009 12.836113 17.663369 39.422592 17.663369L537.599086 617.88579l0-78.808614 174.549195 0 0-32.94968L537.599086 506.127495l0-76.468126 138.088783 0c-6.948323-77.67494-34.485626-148.291847-80.856541-214.154637 29.585229-10.715046 128.580551-49.698796 141.014392-51.490732 33.095961-4.644406 119.255169 8.045427 129.019392 8.84997C872.471697 173.522231 867.35188 163.867719 863.073176 160.064426L863.073176 160.064426zM863.073176 160.064426"  horiz-adv-x="1024" />

    
    <glyph glyph-name="caidan" unicode="&#58983;" d="M480 748C214.848 748 0 533.088 0 268 0 2.848 214.848-212 480-212S960 2.848 960 268C960 533.088 745.152 748 480 748zM320 44 256 44c-17.664 0-32 14.336-32 32S238.336 108 256 108l64 0c17.664 0 32-14.336 32-32S337.664 44 320 44zM320 236 256 236C238.336 236 224 250.336 224 268S238.336 300 256 300l64 0c17.664 0 32-14.336 32-32S337.664 236 320 236zM320 428 256 428C238.336 428 224 442.336 224 460S238.336 492 256 492l64 0c17.664 0 32-14.336 32-32S337.664 428 320 428zM704 44 448 44c-17.664 0-32 14.336-32 32S430.336 108 448 108l256 0c17.664 0 32-14.336 32-32S721.664 44 704 44zM704 236 448 236C430.336 236 416 250.336 416 268S430.336 300 448 300l256 0c17.664 0 32-14.336 32-32S721.664 236 704 236zM704 428 448 428C430.336 428 416 442.336 416 460S430.336 492 448 492l256 0c17.664 0 32-14.336 32-32S721.664 428 704 428z"  horiz-adv-x="1024" />

    
    <glyph glyph-name="shouye" unicode="&#58921;" d="M982.229153 343.911092 541.252743 798.451426c-7.630794 7.867178-18.293645 12.378935-29.256324 12.378935-10.956539 0-21.618367-4.511757-29.251208-12.376888L41.762661 343.906999c-11.604292-10.773368-46.286186-47.547923-30.54876-88.923262 18.322297-48.185442 83.715657-48.560996 108.332311-48.705282 11.598152-0.065492 21.280676-0.11154 29.365818-0.138146l0-342.742085c-0.51677-8.05035 0.555655-23.13593 12.450567-38.09769 19.584034-24.63098 57.867966-36.101219 120.474862-36.101219l33.56649-0.027629c40.749076 0 61.818951 0.645706 78.907141 6.547113 18.829857 6.505158 41.275056 22.810518 41.275056 63.545268L435.586145 149.916796l152.826688 0 0-290.652729c0-40.73475 22.447245-57.039087 41.274032-63.545268 17.074887-5.90243 38.193881-6.547113 79.05245-6.547113l33.42118 0.027629c62.60792 0 100.887758 11.470239 120.466676 36.097126 11.900028 14.951527 12.973476 30.039153 12.45773 38.09769L875.0849 206.140309c8.080026 0.025583 17.761526 0.071631 29.363771 0.138146 24.617677 0.144286 90.013083 0.51984 108.336404 48.705282C1028.524548 296.377496 993.835492 333.137725 982.229153 343.911092zM833.887616 287.787864c-22.231327-0.237407-40.320311-18.519796-40.320311-40.749076l0-371.392612c-8.146541-2.224668-23.735587-4.925173-51.40681-4.925173l-18.695804-0.01842c-5.186116-0.01228-10.088776-0.023536-14.7264-0.023536-10.228969 0-26.63359 0-38.811957 0.60989L669.926334 190.675082c0 22.470781-18.283412 40.756239-40.754193 40.756239L394.826835 231.431322c-22.470781 0-40.754193-18.285458-40.754193-40.756239l0-319.385121c-12.181437-0.60989-28.586059-0.60989-38.816051-0.60989-4.638647 0-9.54233 0.01228-14.738679 0.023536l-18.681478 0.01842c-27.669176 0-43.259246 2.700505-51.40988 4.932336L230.426555 246.795241c0.086981 3.52529-0.522909 14.008039-9.649777 23.817452-10.492982 11.281951-27.925003 17.002232-51.816133 17.002232-10.301623 0-25.76071 0.045025-48.943712 0.180102-7.334036 0.041956-13.392008 0.340761-18.368346 0.776689L511.996418 711.538961l410.345786-422.968268c-4.974291-0.435928-11.032264-0.734734-18.365276-0.776689-48.464805-0.281409-63.185065-0.161682-67.024509-0.086981-0.825808 0.057305-1.654686 0.084934-2.50403 0.084934L833.887616 287.787864z"  horiz-adv-x="1024" />

    
    <glyph glyph-name="yiwanjiecopy3" unicode="&#58905;" d="M0 896l3051.921569 0 0-1024-3051.921569 0 0 1024ZM384.79109 695.215686l599.052047 0 0-599.052047-599.052047 0 0 599.052047ZM504.994083 215.531608 432.739804 287.785888C420.906191 299.619503 401.99029 299.586395 390.302897 287.899003 378.534023 276.130129 378.666148 257.21196 390.416013 245.462096L482.133028 153.745081C483.041965 152.836146 483.992684 151.997219 484.978702 151.228207L486.074398 150.132511C485.755894 150.451015 485.44512 150.774146 485.142078 151.101675 485.844143 150.561732 486.563784 150.056954 487.298686 149.587305 500.45942 140.254993 519.066843 141.204078 531.02851 152.792078L712.709459 328.797547C726.106811 341.776382 726.189775 362.930911 712.985389 376.135299L716.124521 372.996164C703.031206 386.08948 681.388056 386.415261 668.031277 373.47573L504.994083 215.531608ZM1609.72549 568.470588C1611.189549 596.287721 1592.889079 609.464059 1554.823529 608L1192.470588 608C1176.365933 608 1167.581706 600.679812 1166.117647 586.039216 1167.581706 571.39862 1176.365933 564.078431 1192.470588 564.078431L1541.647059 564.078431C1557.751714 564.078431 1565.071902 558.954299 1563.607843 548.705882L1563.607843 432.313725C1565.071902 417.67313 1558.483733 411.084961 1543.843137 412.54902L1221.019608 412.54902 1221.019608 485.019608C1219.555549 499.660204 1212.23536 507.712412 1199.058824 509.176471 1184.418228 507.712412 1176.36602 499.660204 1174.901961 485.019608L1174.901961 192.941176C1173.437902 150.483448 1201.254617 129.986921 1258.352941 131.45098L1565.803922 131.45098C1602.405412 129.986921 1625.830014 138.039127 1636.078431 155.607843 1647.790909 171.712498 1653.647059 207.581421 1653.647059 263.215686 1652.183 276.392223 1644.130792 283.712412 1629.490196 285.176471 1614.8496 282.248351 1607.529412 274.196145 1607.529412 261.019608 1606.065353 218.561879 1603.137277 193.67324 1598.745098 186.352941 1594.352919 177.568583 1581.176581 173.176471 1559.215686 173.176471L1269.333333 173.176471C1245.90838 173.176471 1232.732042 175.372527 1229.803922 179.764706 1223.947684 182.692826 1221.019608 193.673108 1221.019608 212.705882L1221.019608 368.627451 1561.411765 368.627451C1596.549196 365.699331 1612.65361 380.339708 1609.72549 412.54902L1609.72549 568.470588ZM2165.333333 535.529412C2178.509864 534.065353 2179.973903 519.424976 2169.72549 491.607843 2163.869254 475.503188 2167.529352 463.790887 2180.705882 456.470588 2193.882413 452.078409 2204.130685 457.202541 2211.45098 471.843137 2226.09157 501.124329 2230.483687 526.01297 2224.627451 546.509804 2217.307156 568.470699 2202.666767 579.45098 2180.705882 579.45098L1989.647059 579.45098C1979.398642 601.411875 1969.882397 619.712345 1961.098039 634.352941 1953.77774 646.065419 1942.797459 648.993493 1928.156863 643.137255 1916.444385 634.352897 1913.516311 624.104635 1919.372549 612.392157 1925.228787 602.14374 1930.352919 593.359515 1934.745098 586.039216 1936.209157 583.111096 1936.941176 580.915039 1936.941176 579.45098L1752.470588 579.45098C1726.117515 580.915039 1712.941176 568.470721 1712.941176 542.117647L1712.941176 476.235294C1712.941176 461.594698 1720.261365 453.54249 1734.901961 452.078431 1749.542557 453.54249 1756.862745 461.594698 1756.862745 476.235294L1756.862745 520.156863C1756.862745 530.40528 1761.986877 535.529412 1772.235294 535.529412L2165.333333 535.529412ZM2119.215686 434.509804C2132.392217 434.509804 2139.712412 441.829992 2141.176471 456.470588 2139.712412 471.111184 2132.392217 478.431373 2119.215686 478.431373L1807.372549 478.431373C1795.660071 478.431373 1789.071902 471.111184 1787.607843 456.470588 1789.071902 441.829992 1795.660071 434.509804 1807.372549 434.509804L2119.215686 434.509804ZM1726.117647 375.215686C1714.405169 375.215686 1707.817 367.895498 1706.352941 353.254902 1707.817 338.614306 1714.405169 331.294118 1726.117647 331.294118L1857.882353 331.294118C1857.882353 278.587972 1848.366108 240.522993 1829.333333 217.098039 1811.764618 192.209027 1777.359733 172.444517 1726.117647 157.803922 1711.477051 151.947684 1706.352919 141.699419 1710.745098 127.058824 1718.065397 115.346348 1729.777698 110.954233 1745.882353 113.882353 1805.908797 132.915128 1846.90185 157.803767 1868.862745 188.54902 1892.287699 217.830211 1904 265.411435 1904 331.294118L2007.215686 331.294118 2007.215686 175.372549C2005.751627 131.450762 2027.712191 110.222216 2073.098039 111.686275L2163.137255 111.686275C2192.418455 111.686275 2212.18296 119.738482 2222.431373 135.843137 2232.679785 150.483733 2237.071902 179.764487 2235.607843 223.686275 2234.143784 236.862811 2226.09157 244.183 2211.45098 245.647059 2196.810391 244.183 2188.758177 236.862811 2187.294118 223.686275 2188.758177 194.405083 2187.294138 176.83663 2182.901961 170.980392 2178.509784 162.196034 2168.261512 157.803922 2152.156863 157.803922L2086.27451 157.803922C2061.385487 154.875802 2050.405215 164.392046 2053.333333 186.352941L2053.333333 331.294118 2211.45098 331.294118C2224.627511 331.294118 2231.947706 338.614306 2233.411765 353.254902 2231.947706 367.895498 2224.627511 375.215686 2211.45098 375.215686L1726.117647 375.215686ZM2345.411765 610.196078C2330.771175 551.633695 2306.614553 492.34017 2272.941176 432.313725 2259.764646 407.424713 2264.888762 393.516355 2288.313725 390.588235 2324.91522 390.588235 2349.803861 391.320255 2362.980392 392.784314 2345.411684 362.039061 2325.647159 329.830233 2303.686275 296.156863 2294.901921 282.980326 2291.973843 272.732064 2294.901961 265.411765 2297.830079 258.091466 2306.614312 254.431373 2321.254902 254.431373 2311.006489 252.967314 2354.927616 257.359426 2453.019608 267.607843 2467.660198 270.535963 2474.980392 278.588169 2474.980392 291.764706 2473.516333 306.405302 2465.464119 312.993471 2450.823529 311.529412 2447.895411 311.529412 2418.614653 308.601336 2362.980392 302.745098 2406.902182 374.484018 2444.235133 451.345996 2474.980392 533.333333 2479.372569 549.437988 2474.248433 560.418272 2459.607843 566.27451 2446.431312 569.20263 2436.915059 562.614459 2431.058824 546.509804 2419.346352 512.836433 2403.973943 475.503473 2384.941176 434.509804 2376.156823 434.509804 2362.248453 433.777784 2343.215686 432.313725L2321.254902 432.313725C2346.143925 480.627692 2368.104488 536.261124 2387.137255 599.215686 2391.529432 613.856282 2387.137315 624.104546 2373.960784 629.960784 2359.320195 631.424843 2349.803942 624.836674 2345.411765 610.196078L2345.411765 610.196078ZM2459.607843 210.509804C2396.653287 188.548909 2342.483888 175.372571 2297.098039 170.980392 2280.99339 168.052272 2272.941176 159.268047 2272.941176 144.627451 2275.869294 129.986855 2286.117567 124.130704 2303.686275 127.058824 2362.248654 137.30724 2418.614111 152.679637 2472.784314 173.176471 2487.424904 177.56865 2493.281059 186.352875 2490.352941 199.529412 2485.960764 211.24189 2475.712492 214.901983 2459.607843 210.509804L2459.607843 210.509804ZM2657.254902 618.980392C2657.254902 630.69287 2649.934707 637.281039 2635.294118 638.745098 2620.653528 637.281039 2613.333333 630.69287 2613.333333 618.980392L2613.333333 561.882353 2501.333333 561.882353C2489.620861 561.882353 2483.032686 555.294184 2481.568627 542.117647 2483.032686 527.477051 2489.620861 520.156863 2501.333333 520.156863L2613.333333 520.156863 2613.333333 436.705882 2503.529412 436.705882C2491.81694 436.705882 2485.228765 429.385694 2483.764706 414.745098 2485.228765 400.104502 2491.81694 392.784314 2503.529412 392.784314L2773.647059 392.784314C2785.359531 392.784314 2791.947706 400.104502 2793.411765 414.745098 2791.947706 429.385694 2785.359531 436.705882 2773.647059 436.705882L2657.254902 436.705882 2657.254902 520.156863 2784.627451 520.156863C2796.339923 520.156863 2802.196078 527.477051 2802.196078 542.117647 2802.196078 555.294184 2796.339923 561.882353 2784.627451 561.882353L2657.254902 561.882353 2657.254902 618.980392ZM2549.647059 342.27451C2515.973682 345.20263 2500.601294 331.294272 2503.529412 300.54902L2503.529412 164.392157C2500.601294 129.254727 2515.241663 113.150311 2547.45098 116.078431L2727.529412 116.078431C2759.738729 113.150311 2774.379098 126.326651 2771.45098 155.607843L2771.45098 296.156863C2772.915039 328.366174 2756.810632 343.738569 2723.137255 342.27451L2549.647059 342.27451ZM2547.45098 282.980392C2547.45098 294.69287 2553.307136 300.54902 2565.019608 300.54902L2709.960784 300.54902C2723.137315 302.013079 2728.993471 296.156929 2727.529412 282.980392L2727.529412 173.176471C2727.529412 164.392113 2722.405276 160 2712.156863 160L2565.019608 160C2553.307136 158.535941 2547.45098 163.660073 2547.45098 175.372549L2547.45098 282.980392Z"  horiz-adv-x="3052" />

    
    <glyph glyph-name="shanchu" unicode="&#59092;" d="M683.704129 702.912353l0 63.783699c0 35.207873-30.743188 63.782675-68.674079 63.782675L408.968927 830.478727c-37.971823 0-68.715011-28.574802-68.715011-63.782675l0-63.783699L65.519738 702.912353l0-63.782675L168.552346 639.129678l0-637.82573c0-35.248805 30.78412-63.782675 68.668962-63.782675l549.509289 0c37.971823 0 68.715011 28.53387 68.715011 63.782675L855.445608 639.129678l103.032608 0 0 63.782675L683.704129 702.912353 683.704129 702.912353 683.704129 702.912353zM408.968927 766.696052l206.060099 0 0-63.783699L408.968927 702.912353 408.968927 766.696052 408.968927 766.696052 408.968927 766.696052zM786.730597 1.303948 237.221308 1.303948 237.221308 639.129678l549.509289 0L786.730597 1.303948 786.730597 1.303948 786.730597 1.303948zM340.253916 543.456688l68.715011 0 0-446.475658-68.715011 0L340.253916 543.456688 340.253916 543.456688 340.253916 543.456688zM477.638913 543.456688l68.675102 0 0-446.475658-68.675102 0L477.638913 543.456688 477.638913 543.456688 477.638913 543.456688zM615.029026 543.456688l68.674079 0 0-446.475658-68.674079 0L615.029026 543.456688 615.029026 543.456688 615.029026 543.456688zM615.029026 543.456688"  horiz-adv-x="1024" />

    
    <glyph glyph-name="chongzhi" unicode="&#58909;" d="M511.00672 172.766208c-23.64416 0-42.802176-19.2256-42.802176-42.95168s19.158016-42.966016 42.802176-42.966016c23.631872 0 42.804224 19.239936 42.804224 42.966016S534.638592 172.766208 511.00672 172.766208zM346.056704 199.366656l331.891712 0L677.948416 674.136064 346.056704 674.136064 346.056704 199.366656zM456.354816 578.159616c30.8736-54.167552 49.642496-88.537088 56.292352-103.04512l0.644096 0c2.25792 5.963776 8.410112 18.029568 18.486272 36.15232l37.80608 66.8928 33.611776 0-66.742272-109.077504 52.584448 0 0-24.087552-61.27616 0 0-46.40256 61.27616 0 0-24.426496-61.27616 0 0-61.528064-31.532032 0 0 61.528064-63.519744 0L432.709632 398.592l63.519744 0 0 46.40256-63.519744 0 0 24.087552 54.196224 0-66.098176 109.077504L456.354816 578.159616zM512 896C229.230592 896 0 666.769408 0 384c0-282.770432 229.230592-512 512-512s512 229.229568 512 512C1024 666.769408 794.770432 896 512 896zM704.602112 110.548992c0-23.72608-19.158016-42.963968-42.804224-42.963968L362.20416 67.585024c-23.646208 0-42.806272 19.237888-42.806272 42.963968l0 546.92864c0 23.713792 19.160064 42.939392 42.806272 42.939392l299.593728 0c23.646208 0 42.804224-19.224576 42.804224-42.939392L704.602112 110.548992z"  horiz-adv-x="1024" />

    
    <glyph glyph-name="sousuo" unicode="&#58937;" d="M661.333333 298.666667l-33.706667 0-11.946667 11.52C657.493333 358.826667 682.666667 421.973333 682.666667 490.666667 682.666667 643.84 558.506667 768 405.333333 768S128 643.84 128 490.666667 252.16 213.333333 405.333333 213.333333c68.693333 0 131.84 25.173333 180.48 66.986667L597.333333 268.373333l0-33.706667 213.333333-212.906667L874.24 85.333333 661.333333 298.666667zM405.333333 298.666667C299.093333 298.666667 213.333333 384.426667 213.333333 490.666667S299.093333 682.666667 405.333333 682.666667 597.333333 596.906667 597.333333 490.666667 511.573333 298.666667 405.333333 298.666667z"  horiz-adv-x="1024" />

    
    <glyph glyph-name="fanhuidingbu" unicode="&#58938;" d="M512 896C230.4 896 0 665.6 0 384s230.4-512 512-512 512 230.4 512 512S793.6 896 512 896zM697.6 313.6 627.2 313.6c-12.8 0-19.2-6.4-19.2-19.2l0-108.8c0-6.4-6.4-12.8-12.8-12.8L428.8 172.8c-6.4 0-12.8 6.4-12.8 12.8L416 300.8c0 6.4-6.4 19.2-19.2 19.2L326.4 320C320 313.6 320 320 320 320l179.2 172.8c6.4 6.4 12.8 6.4 19.2 0L704 320C704 320 704 313.6 697.6 313.6zM704 531.2 320 531.2c-19.2 0-32 12.8-32 32S300.8 595.2 320 595.2l384 0c19.2 0 32-12.8 32-32S723.2 531.2 704 531.2z"  horiz-adv-x="1024" />

    
    <glyph glyph-name="shuaxin" unicode="&#58933;" d="M869.68232 30.302001l94.935492-94.935492-293.62195-53.904673 53.90568 293.619937 93.950849-93.950849c158.811437 169.235766 156.359898 435.544445-8.454036 600.358379C708.950929 782.937734 564.00403 827.060412 422.705747 799.535714L409.133179 870.181332C573.947112 902.301031 742.994609 850.795544 861.348092 732.440046 1054.197168 539.59097 1056.575212 227.687683 869.68232 30.302001L869.68232 30.302001zM159.451677 633.375698C32.855584 464.214435 45.632786 223.243701 198.894784 69.986738c93.681029-93.688076 223.089093-138.560815 355.046356-123.090442l8.190256-71.488303c-153.961718-18.017557-304.886951 34.329608-414.18635 143.629008C-33.399413 200.373405-46.348777 487.031372 108.088148 684.73218L10.678967 782.141361l293.62195 53.90568-53.90568-293.62195L159.451677 633.375698 159.451677 633.375698zM159.451677 633.375698"  horiz-adv-x="1024" />

    
    <glyph glyph-name="4" unicode="&#58901;" d="M563.183199-128c-12.7958 0-25.5916 5.11832-33.269079 12.7958l-511.831991 460.648792C5.286329 355.681232 0.168009 368.477031 0.168009 383.831991s5.11832 28.15076 17.91412 38.387399l511.831991 460.648792c20.47328 17.91412 53.742359 17.91412 71.656479-2.55916 17.91412-20.47328 17.91412-53.742359-2.55916-71.656479L128.126007 383.831991l468.326272-422.261393c20.47328-17.91412 23.03244-51.183199 2.55916-71.656479C591.333959-122.88168 575.978999-128 563.183199-128z"  horiz-adv-x="1024" />

    
    <glyph glyph-name="gaojing" unicode="&#58889;" d="M826.055742-13.495106c0-27.832905-22.560832-50.409087-50.409087-50.409087L248.339018-63.904193c-27.834952 0-50.395784 22.575158-50.395784 50.409087l0 0c0 27.848255 22.560832 50.42239 50.395784 50.42239l527.308661 0C803.495934 36.927283 826.055742 14.353149 826.055742-13.495106L826.055742-13.495106zM512 661.769304c-15.003715 0-27.145244 12.141528-27.145244 27.145244L484.854756 804.758949c0 15.003715 12.141528 27.145244 27.145244 27.145244 15.003715 0 27.145244-12.141528 27.145244-27.145244l0-115.845425C539.145244 673.909809 527.003715 661.769304 512 661.769304zM308.515562 587.78222c-7.740288 0-15.428388 3.28686-20.783349 9.701966l-74.437339 88.672552c-9.649777 11.478426-8.16496 28.603455 3.340071 38.226626 11.45182 9.67536 28.576849 8.191566 38.226626-3.340071l74.437339-88.672552c9.649777-11.478426 8.16496-28.603455-3.340071-38.226626C320.868915 589.875904 314.665633 587.78222 308.515562 587.78222zM200.358237 400.256242c-1.590218 0-3.181459 0.13303-4.771677 0.423649L81.490989 420.801161c-14.738679 2.598174-24.600281 16.673751-22.002107 31.44006 2.598174 14.791891 16.913205 24.706705 31.44006 22.002107l114.095571-20.120246c14.738679-2.598174 24.600281-16.673751 22.002107-31.44006C224.693482 409.507954 213.241662 400.256242 200.358237 400.256242zM715.431226 587.729008c-6.15007 0-12.353352 2.094708-17.443277 6.361895-11.505032 9.623171-12.989849 26.748201-3.340071 38.226626l74.437339 88.725764c9.596566 11.478426 26.721595 12.963243 38.226626 3.340071 11.505032-9.623171 12.989849-26.748201 3.340071-38.226626l-74.437339-88.725764C730.859613 591.015867 723.171514 587.729008 715.431226 587.729008zM823.64074 400.256242c-12.883425 0-24.335245 9.251711-26.668383 22.426779-2.598174 14.765285 7.263427 28.841885 22.002107 31.44006l114.095571 20.120246c14.368242 2.730181 28.788673-7.18361 31.44006-22.002107 2.598174-14.765285-7.263427-28.841885-22.002107-31.44006l-114.095571-20.120246C826.822199 400.389272 825.231981 400.256242 823.64074 400.256242zM736.879724 351.400534c0 126.674051-100.685143 229.363851-224.880747 229.363851s-224.880747-102.6898-224.880747-229.363851l0-260.180717 449.76047 0L736.8787 351.400534z"  horiz-adv-x="1024" />

    
    <glyph glyph-name="xingming" unicode="&#58962;" d="M116.492 38.887c57.744 162.531 212.923 279.183 395.88 279.183s338.137-116.652 395.88-279.183h-791.76zM512.372 364.6c-103.158 0-186.819 83.335-186.819 186.121s83.662 186.121 186.819 186.121 186.819-83.335 186.819-186.121-83.662-186.121-186.819-186.121z"  horiz-adv-x="1025" />

    
    <glyph glyph-name="weixin-copy" unicode="&#58899;" d="M296.512 764.394c-302.228-53.98-402.972-395.441-162.57-551.734 13.181-8.474 13.181-7.532-6.595-66.534l-16.947-50.527 121.772 65.277 32.328-7.844c33.892-8.476 77.204-14.438 106.076-14.438h17.262l-5.965 22.912c-47.391 174.495 116.434 347.423 329.536 347.423h28.874l-5.965 20.713c-46.764 163.51-244.165 269.274-437.806 234.752zM270.149 611.555c32.010-21.658 33.894-68.421 3.136-88.504-49.897-32.64-108.273 24.794-74.693 73.754 14.751 21.967 50.214 29.184 71.557 14.751zM527.501 611.555c52.726-35.466 13.181-117.379-45.824-94.779-42.68 16.32-47.703 75.005-7.846 96.033 15.693 8.471 40.172 7.844 53.67-1.254zM643.935 482.249c-149.701-27.305-253.586-140.915-247.621-271.473 7.846-174.812 212.787-295.324 409.562-241.344l23.222 6.277 48.963-26.365c26.99-14.751 49.587-25.421 50.212-24.161 0.632 1.567-4.705 20.401-11.61 42.053-15.69 48.333-16.008 44.882 5.023 59.945 236.634 169.789 28.874 510.618-277.75 455.068zM637.972 341.334c13.176-8.788 20.086-30.758 14.433-46.764-11.922-34.207-63.078-36.718-76.892-3.766-15.69 37.975 27.622 73.129 62.459 50.529zM847.619 337.568c20.713-19.771 17.262-53.353-6.904-65.905-37.033-18.826-75.95 18.826-56.804 54.922 12.549 23.224 44.874 28.872 63.708 10.982z"  horiz-adv-x="1025" />

    
    <glyph glyph-name="mima" unicode="&#59083;" d="M824.32 486.4 199.68 486.4C148.48 486.4 102.4 440.32 102.4 389.12l0-414.72C102.4-81.92 148.48-128 199.68-128l619.52 0c56.32 0 97.28 46.08 97.28 97.28L916.48 389.12C921.6 440.32 875.52 486.4 824.32 486.4zM563.2 143.36 563.2 76.8c0-30.72-20.48-51.2-51.2-51.2s-51.2 20.48-51.2 51.2l0 66.56c-30.72 15.36-51.2 51.2-51.2 87.04 0 56.32 46.08 102.4 102.4 102.4s102.4-46.08 102.4-102.4C614.4 194.56 593.92 158.72 563.2 143.36zM358.4 486.4 358.4 640c0 87.04 66.56 153.6 153.6 153.6 87.04 0 153.6-66.56 153.6-153.6l0-153.6 102.4 0L768 640c0 143.36-112.64 256-256 256S256 783.36 256 640l0-153.6L358.4 486.4z"  horiz-adv-x="1024" />

    
    <glyph glyph-name="yueliang1" unicode="&#58906;" d="M824.7 670.503h-57.056l-21.398 57.265-21.396-57.265h-57.057l46.36-35.796-21.402-64.421 53.495 39.371 53.489-39.371-21.393 64.421 46.36 35.796zM683.293 484.036h-40.951l-15.356 41.101-15.357-41.101h-40.947l33.271-25.687-15.36-46.237 38.392 28.256 38.389-28.256-15.357 46.237 33.276 25.687zM822.997 278.529h-31.037l-11.638 31.153-11.641-31.153h-31.036l25.218-19.467-11.641-35.043 29.101 21.418 29.095-21.418-11.638 35.043 25.217 19.467zM505.043 752.208c-186.617-17.376-332.772-175.1-332.772-367.341 0-203.848 164.3-369.076 366.944-369.076 114.72 0 232.94 53.017 300.228 135.948-11.256-1.060-38.52-1.748-50.036-1.748-202.644 0-366.944 165.248-366.944 369.092 0 88.445 30.996 169.533 82.58 233.125v0zM505.043 752.208z"  horiz-adv-x="1024" />

    
    <glyph glyph-name="iconfonticozhuce" unicode="&#58900;" d="M504.003 337.046c155.467 0 281.542 124.74 281.542 278.631 0 153.817-126.075 278.592-281.542 278.592-155.553 0-281.623-124.777-281.623-278.592 0-153.891 126.071-278.631 281.623-278.631zM511.004 310.694c-217.675 0-492.737-174.644-492.737-390.061v-47.643h985.478v47.643c0 215.415-275.067 390.061-492.741 390.061z"  horiz-adv-x="1024" />

    
    <glyph glyph-name="pinglun" unicode="&#58880;" d="M797.089-28.287a26.183 26.183 0 0 0-19.22 8.395L645.458 123.11h-543.98c-36.993 0-67.089 30.095-67.089 67.089V729.067c0 38.246 31.202 67.089 72.578 67.089H925.36c32.813 0 61.599-31.35 61.599-67.089v-538.868c0-36.993-30.095-67.089-67.089-67.089h-96.606v-125.213a26.186 26.186 0 0 0-26.176-26.185z m-690.12 772.073c-12.278 0-20.21-5.778-20.21-14.72v-538.868c0-8.117 6.604-14.72 14.72-14.72h555.422a26.185 26.185 0 0 0 19.213-8.394l94.784-102.367v84.577c0 14.462 11.723 26.184 26.184 26.184h122.789c8.117 0 14.72 6.604 14.72 14.72V729.066c0 8.569-6.958 14.305-9.353 14.72H106.969zM510.995 495.492c-24.36 0-44.09-19.771-44.09-44.09s19.729-44.09 44.09-44.09 44.09 19.729 44.09 44.09c0 24.319-19.729 44.09-44.09 44.09zM687.393 495.492c-24.36 0-44.09-19.771-44.09-44.09s19.729-44.09 44.09-44.09 44.09 19.729 44.09 44.09c0 24.319-19.729 44.09-44.09 44.09zM335.458 495.492c-24.36 0-44.09-19.771-44.09-44.09s19.729-44.09 44.09-44.09c24.36 0 44.09 19.729 44.09 44.09-0.001 24.319-19.729 44.09-44.09 44.09z"  horiz-adv-x="1025" />

    
    <glyph glyph-name="youxidianqia" unicode="&#58927;" d="M512 384m-480 0a480 480 0 1 1 960 0 480 480 0 1 1-960 0ZM723.2 192c-25.6 0-51.2 12.8-70.4 32L582.4 313.6H435.2l-38.4-64c-19.2-32-51.2-57.6-89.6-57.6-57.6 0-102.4 44.8-102.4 102.4v12.8V320l25.6 166.4c6.4 70.4 57.6 121.6 128 121.6 32 0 70.4-12.8 89.6-38.4 25.6 0 89.6 6.4 128 0 25.6 25.6 57.6 32 89.6 32 51.2 0 96-32 115.2-83.2v-12.8l38.4-179.2c0-6.4 6.4-19.2 6.4-32 0-51.2-44.8-102.4-102.4-102.4zM716.8 435.2c-12.8 0-19.2 12.8-19.2 19.2s6.4 19.2 19.2 19.2c12.8 0 19.2-12.8 19.2-19.2s-6.4-19.2-19.2-19.2z m-108.8 0c-12.8 0-19.2 12.8-19.2 19.2s6.4 19.2 19.2 19.2c12.8 0 19.2-12.8 19.2-19.2s-6.4-19.2-19.2-19.2z m51.2-57.6c-6.4 0-19.2 6.4-19.2 19.2s6.4 19.2 19.2 19.2 19.2-12.8 19.2-19.2-6.4-19.2-19.2-19.2z m0 115.2c-6.4 0-19.2 6.4-19.2 19.2s6.4 19.2 19.2 19.2 19.2-12.8 19.2-19.2-6.4-19.2-19.2-19.2zM345.6 480h-51.2V448h51.2v-51.2h32V448h51.2v32h-51.2v51.2h-32z"  horiz-adv-x="1024" />

    
    <glyph glyph-name="xiala" unicode="&#58881;" d="M130.712 533.228c0 10.305 3.943 20.602 11.792 28.457 15.732 15.732 41.172 15.732 56.905 0l310.334-310.334 314.834 314.834c15.73 15.735 41.17 15.735 56.905 0 15.735-15.732 15.735-41.17 0-56.905l-343.288-343.288c-15.735-15.735-41.172-15.735-56.905 0l-338.784 338.781c-7.843 7.85-11.793 18.148-11.793 28.455v0z"  horiz-adv-x="1024" />

    
    <glyph glyph-name="shuxian" unicode="&#59075;" d="M469.333333 896h85.333334v-1024h-85.333334z"  horiz-adv-x="1024" />

    
    <glyph glyph-name="caidan1" unicode="&#59010;" d="M98.5 457.3l386.9-192.2c8.4-4.2 17.6-6.3 26.7-6.3 9.1 0 18.2 2.1 26.6 6.2l388.1 191.7c20.4 10.1 33.4 30.9 33.4 53.7 0 22.8-12.8 43.6-33.3 53.8L538.1 757.9c-8.4 4.2-17.6 6.3-26.7 6.3-9.2 0-18.4-2.1-26.8-6.3L98.4 564.7c-20.3-10.2-33.2-31-33.2-53.7 0-22.8 12.9-43.5 33.3-53.7z m412.8 246.9l388.8-193.7-388-191.6-386.9 192.2 386.1 193.1zM79.1 354.6L498 132.4c4.4-2.3 9.2-3.5 14.1-3.5 4.8 0 9.6 1.2 14 3.5L945.2 354c14.6 7.7 20.2 25.9 12.5 40.5-7.7 14.6-25.9 20.2-40.5 12.5l-405-214.2-404.9 214.8c-14.6 7.8-32.8 2.2-40.6-12.4-7.8-14.7-2.2-32.9 12.4-40.6zM915.9 281.9L512.1 63 109.6 282.4c-14.5 7.9-32.8 2.6-40.7-12-7.9-14.5-2.6-32.8 12-40.7l416.9-227.2c4.5-2.4 9.4-3.7 14.4-3.7 4.9 0 9.8 1.2 14.3 3.6l418.1 226.7c14.6 7.9 20 26.1 12.1 40.7s-26.3 20-40.8 12.1z"  horiz-adv-x="1024" />

    
    <glyph glyph-name="yiwanjie" unicode="&#59201;" d="M940.895 544.82c-86.718 235.585-349.042 356.991-584.627 270.272-235.585-86.718-356.991-349.042-270.272-584.627 86.718-235.585 349.042-356.991 584.627-270.272 235.585 86.718 356.268 348.319 270.272 584.627zM662.674-20.295c-224.745-82.382-474.783 33.242-557.166 257.987-82.382 224.745 33.242 474.783 257.987 557.166 224.745 83.105 474.783-33.242 557.166-257.987s-33.242-474.783-257.987-557.166zM380.116 312.848c7.227-23.848 9.394-38.301 6.504-44.082-2.891-3.613-6.504-6.504-11.562-8.672l-107.675-39.746c-10.117-3.613-16.621-0.723-20.234 8.672l-23.125 63.594 133.691 50.586-31.797 85.996-158.984-58.535 5.781-15.176 143.808 52.754 20.957-56.367-119.238-44.082-11.562 31.797-15.176-5.781 41.191-112.734c6.504-18.066 18.789-23.848 36.133-17.344l116.347 42.637c8.672 3.613 15.176 8.672 18.066 15.176 3.613 7.227 1.445 24.57-6.504 52.031l-16.621-0.723zM401.073 387.281l15.898 5.781-12.285 33.242 151.035 55.644 12.285-33.242 15.898 5.781-17.344 48.418-82.382-30.351c-5.781 7.949-11.562 14.453-16.621 20.234l-16.621-9.394c5.059-5.059 10.117-10.84 15.176-17.344l-82.382-30.351 17.344-48.418zM603.416 375.719c5.781-16.621 7.949-26.738 7.227-30.351s-2.891-5.781-6.504-7.227l-28.906-10.84c-6.504-2.168-10.84 0-13.008 6.504l-18.789 51.308 60.703 22.402-5.781 15.176-186.445-67.929 5.781-15.176 59.258 21.68 0.723-1.445c5.781-16.621 6.504-31.797 1.445-45.527-5.781-13.008-19.512-27.461-40.469-41.914l13.73-10.84c21.68 15.898 35.41 31.074 41.914 46.972 5.781 16.621 5.781 35.41-1.445 57.090l-0.723 1.445 36.133 13.008 20.234-54.199c5.059-14.453 14.453-19.512 27.461-14.453l36.133 13.008c7.227 2.168 11.562 6.504 13.73 11.562 2.891 5.781 0.723 19.512-5.781 40.469l-16.621-0.723zM435.038 391.617l120.683 44.082-5.781 15.176-120.683-44.082zM675.681 522.418l51.308 18.789 11.562-31.797-44.082-16.621 5.781-15.176 104.785 38.301-5.781 15.176-44.805-16.621-11.562 31.797 51.308 18.789-5.781 15.176-51.308-18.789-9.394 26.016-15.898-5.781 9.394-26.016-51.308-18.066zM650.388 362.711l7.227-14.453c26.016 15.176 48.418 31.074 67.207 46.972l-5.059 14.453c-18.789-15.898-41.914-31.797-69.375-46.972zM701.697 450.152c-13.73-10.84-28.183-20.957-43.359-30.351 7.227 20.234 13.73 52.031 20.234 95.39h-15.176c-0.723-10.117-2.168-19.512-3.613-28.906-9.394-5.781-19.512-10.84-28.906-15.898 5.059 20.957 7.949 47.695 8.672 79.492l-17.344 1.445c0.723-28.906-0.723-54.922-5.781-79.492-0.723-3.613-2.168-5.781-4.336-7.949l9.394-13.008c11.562 5.781 23.125 12.285 34.687 18.789-4.336-24.57-9.394-42.637-14.453-54.199-1.445-2.891-3.613-5.059-5.781-7.227l9.394-12.285c20.957 10.117 41.191 23.848 61.426 40.469l-5.059 13.73zM714.705 458.101l31.797-86.718 15.176 5.781-3.613 10.117 61.426 22.402 3.613-10.117 15.176 5.781-31.797 86.718-91.777-33.965zM753.005 402.457l-17.344 46.972 61.426 22.402 17.344-46.972-61.426-22.402z"  horiz-adv-x="1024" />

    
    <glyph glyph-name="gengduo" unicode="&#58926;" d="M731.462478 383.969646L257.758516 857.673608a22.381443 22.381443 0 1 0 31.670472 31.670473l489.57577-489.539199c8.777036-8.777036 8.777036-22.930007 0-31.670472L289.428988-121.404789a22.344872 22.344872 0 0 0-31.670472 0 22.381443 22.381443 0 0 0 0 31.670473l473.703962 473.703962z"  horiz-adv-x="1024" />

    
    <glyph glyph-name="shijianai" unicode="&#58949;" d="M512.098102-127.999144a506.228576 506.228576 0 0 0-360.022287 149.930258 513.491473 513.491473 0 0 0 0 724.069237A509.42055 509.42055 0 0 0 1021.252654 384.000428a512.149919 512.149919 0 0 0-310.963034-471.752943 503.545467 503.545467 0 0 0-198.191518-40.246629m0 977.357002a459.979648 459.979648 0 0 1-327.292988-136.306543 466.641159 466.641159 0 0 1 0-658.124904 463.992745 463.992745 0 0 1 753.722213 510.206977 465.796905 465.796905 0 0 1-246.337125 247.667115 457.666623 457.666623 0 0 1-180.126795 36.557355M512.098102 322.416147a61.595847 61.595847 0 1 0 61.295153 61.595846 61.49176 61.49176 0 0 0-61.295153-61.595846m0 76.54955a14.96527 14.96527 0 1 1 14.872749-14.953704 14.930574 14.930574 0 0 1-14.872749 14.942139M512.098102 418.522321a23.245898 23.245898 0 0 0-23.130246 23.315288V690.198631a23.188072 23.188072 0 1 0 46.376144 0V441.837609a23.245898 23.245898 0 0 0-23.130247-23.315288M753.346573 115.157572a23.049291 23.049291 0 0 0-16.399344 6.823423L526.554506 333.564925a23.407809 23.407809 0 0 0 0 32.972167 23.130247 23.130247 0 0 0 32.787125 0l210.392722-211.607061a23.407809 23.407809 0 0 0 0-32.972166 23.049291 23.049291 0 0 0-16.399345-6.823423"  horiz-adv-x="1024" />

    
    <glyph glyph-name="yidong" unicode="&#58966;" d="M984.329972 580.160047a512.895605 512.895605 0 0 1-110.904483 165.98042A513.226753 513.226753 0 0 1 707.437542 857.052477 513.204175 513.204175 0 0 1 511.638748 896a513.234279 513.234279 0 0 1-195.798795-38.947523 513.196649 513.196649 0 0 1-165.98042-110.91201A513.196649 513.196649 0 0 1 38.947523 580.160047 513.204175 513.204175 0 0 1 0 384.361252a513.204175 513.204175 0 0 1 38.947523-195.798794 513.068705 513.068705 0 0 1 110.91201-165.987947 512.895605 512.895605 0 0 1 165.98042-110.904483 513.234279 513.234279 0 0 1 195.798795-38.947523 513.204175 513.204175 0 0 1 195.798794 38.947523 513.00097 513.00097 0 0 1 165.987947 110.904483 512.925709 512.925709 0 0 1 110.904483 165.987947 513.204175 513.204175 0 0 1 38.947523 195.798794 513.204175 513.204175 0 0 1-38.947523 195.798795zM163.293606 426.522417c1.414905 10.145171 3.710363 21.41173 3.710363 21.41173 15.706953-22.886844 106.870498-145.629869 209.910216-223.660385 42.484786-32.09878 88.800353-29.110922 128.590798 5.034955 14.186682 11.477289 119.71001 105.50075 171.414259 158.078024 7.661561 7.766926 16.602558 9.114097 23.955549 2.762076 28.373365-23.737292 47.256328-44.825401 47.256328-44.825401-26.34132-30.141996-160.651948-156.151345-193.28508-180.212259-52.005292-38.398118-104.168631-30.631192-149.392915-5.71983-39.496928 21.697722-142.340967 108.714391-239.006086 249.745818-5.170425 7.654035-3.221167 16.798236-3.153432 17.385272z m500.304454-335.031487c-87.957431-71.844069-181.220756-64.438395-229.026489-38.992679-36.072556 19.10122-92.352668 51.139791-181.566955 156.377128-44.92324 53.058945-75.908158 106.765133-82.997737 121.079758-2.13741 4.387711-3.44695 9.369984-4.146876 12.402999-4.27482 18.612024-4.056563 31.75258-4.056563 31.75258 35.071586-50.966691 67.140262-96.12324 116.26306-150.228311 38.413171-39.963545 64.71686-63.648155 94.316978-87.5736 79.580891-64.272821 161.193826-58.981979 230.810172-4.613494 41.220403 32.211671 112.341967 97.560723 177.916801 161.577657 4.304924 4.58339 9.51298 5.719829 14.382361 1.497692 25.370454-25.099515 41.551551-45.427488 41.551551-45.427488-21.705248-24.03081-107.126385-103.70954-173.446303-157.852242z m197.379274 206.673997c-2.890019-7.706718-8.391592-18.96575-8.391592-18.96575-0.218257 0.338674-22.661061 29.562487-52.035397 60.893606-40.016228 42.575099-73.763222 74.116948-94.580391 92.09678-12.99756 11.221402-24.72321 16.775658-35.89193 17.227224-12.666412 0.459092-23.940497-5.004851-32.715919-13.321182-2.65671-2.506188-7.940026-7.405674-15.052183-13.938321-33.318007-31.188123-103.611701-96.288814-141.114214-128.274703-5.471468-4.884433-9.934441-8.888314-12.95993-11.575128-15.413435-13.501808-32.75355-21.027899-50.778539-21.23863-17.942202-0.263413-36.569278 6.713274-54.406114 22.224548-97.387623 84.811524-168.050096 170.262766-183.52374 192.66794-1.204175 1.731001-3.303954 5.704777-0.865501 12.011642 2.920123 7.556196 8.165809 18.44645 8.16581 18.44645s23.541614-28.82493 51.997765-61.187123c46.315567-52.592327 85.963016-84.021285 94.580391-92.104307 12.523416-11.718124 24.72321-16.783184 35.884404-17.227223 12.636308-0.459092 23.910392 4.982273 32.723446 13.328708 2.634132 2.521241 118.633779 110.227135 156.166397 142.205497 5.441364 4.891959 9.89681 8.873262 12.974982 11.582655 15.405909 13.524386 32.75355 21.027899 50.733382 21.23863 17.949728 0.270939 36.125239-7.247626 54.406115-22.224548 26.123063-21.3741 120.53788-107.796208 183.787153-192.276584 1.234279-1.663266 3.296428-5.268264 0.895605-11.590181z m15.323122 60.660297c-1.384801-10.152697-3.710363-21.434308-3.710363-21.434308-15.691901 22.909422-106.862972 145.629869-209.910216 223.637807-42.447156 32.143936-88.800353 29.125974-128.560694-4.997325-14.194208-11.507394-119.732589-105.515802-171.451889-158.062972-7.646509-7.789505-16.549875-9.151727-23.902867-2.769602-28.373365 23.699662-47.256328 44.78777-47.256328 44.78777 26.311216 30.141996 160.644422 156.173923 193.232398 180.234838 52.020344 38.37554 104.213788 30.608614 149.385389 5.742407 39.496928-21.697722 142.39365-108.736969 239.021137-249.768396 5.185477-7.676613 3.27385-16.805762 3.153433-17.370219zM761.565192 561.412553c-38.405645 39.978598-64.709334 63.640629-94.339556 87.603705-79.54326 64.250243-161.193826 58.989505-230.780068 4.583389-41.250507-32.211671-112.334441-97.545671-177.93938-161.547552-4.27482-4.575864-9.482875-5.734882-14.389886-1.512745-25.370454 25.099515-41.521446 45.427488-41.521447 45.427488 21.667617 24.038336 107.088755 103.739644 173.408673 157.87482 87.942378 71.821491 181.205703 64.415817 229.056593 39.000206 36.034926-19.131324 92.360194-51.192474 181.544377-156.399706 44.953344-53.043892 75.953315-106.765133 82.99021-121.072233 2.167514-4.387711 3.514685-9.37751 4.161929-12.418051 3.898515-18.122828 4.041511-31.767632 4.041511-31.767632-35.06406 50.959165-67.102631 96.138292-116.232956 150.228311z m0 0"  horiz-adv-x="1024" />

    


  </font>
</defs>
</svg>
