<?xml version="1.0" standalone="no"?>
<!DOCTYPE svg PUBLIC "-//W3C//DTD SVG 1.1//EN" "http://www.w3.org/Graphics/SVG/1.1/DTD/svg11.dtd" >
<!--
2013-9-30: Created.
-->
<svg>
<metadata>
Created by iconfont
</metadata>
<defs>

<font id="iconfont" horiz-adv-x="1024" >
  <font-face
    font-family="iconfont"
    font-weight="500"
    font-stretch="normal"
    units-per-em="1024"
    ascent="896"
    descent="-128"
  />
    <missing-glyph />
    
    <glyph glyph-name="jiaoyi" unicode="&#58881;" d="M157.657204 279.297492c-17.479093 53.503565-3.1262 71.5158 23.982204 87.521333l121.840976 58.500369 15.827477-33.913391 0-56.806797 21.409612-58.291614 0-49.604768 32.114418-49.185212 0-52.509934 9.890254-36.202527c0 0-22.475897-14.049994-26.730805-27.933189-11.018961-35.982516-99.658767-75.708286-99.658767-75.708286L157.657204 279.297492zM713.739189 441.272537c0 0 123.21016 13.987572 171.476443-74.119091 52.071959-95.069239-6.303566-136.739291-6.303566-136.739291s-41.283242-23.729447-86.172615-52.509934L621.263008 451.747099c0 0-39.872103-1.547239-107.739816 6.105045-54.936193 6.178723-68.505233 65.128323-68.505233 65.128323l105.502869 59.273988L713.739189 441.272537zM488.380558 579.066857l-77.025281-43.645033 16.33913-44.011376c10.715039-28.832675 45.046962-58.374502 76.848249-59.734476l96.073102-13.068643 237.013065-358.801852-43.090401-48.841382-49.855478 0L588.991 223.432137l-22.329565-21.555945 148.404981-211.119325L671.650605-54.017896l-52.018747-9.910721L489.5635 161.983623l-20.960381-16.914228 121.517611-230.15589-37.102013-32.408107-30.368658 0-21.713534 24.74559-55.982012 90.458221-23.155373-18.859533 22.204721-57.852616-1.192152-0.125867c-74.652234-31.487132-82.210373 21.326724-91.838661 36.987403-12.93152 21.034059-15.263635 38.972617-15.263635 38.972617l27.149337 19.925818 46.478568 67.689658-15.095813 57.883315 0 58.709123-21.409612 46.311769 0 51.454906-21.409612 52.980655 0 66.424852-27.191292 45.213761c0 0-129.536238-63.21474-138.40114-67.50137L121.183502 547.673869c0 0-16.162098 81.981153 93.375667 146.503679 59.985186 31.779797 167.797657 26.77276 208.28579-15.691377L488.380558 579.066857zM717.104843 478.718381 553.029974 616.565912l-30.526247-20.928658L435.411159 716.862199c-37.70781 40.111556-179.694615 46.446845-251.377214 1.735527-135.683239-88.712461-94.285387-177.843454-94.285387-177.843454l64.260559-167.118182c-20.856004-18.022469-61.657268-17.907858-14.823614-137.992841l105.899912-305.383222 65.724911 48.296983c31.006178-76.43995 50.095955-92.977601 63.278185-96.125291 28.037567-6.701632 92.465948 13.684674 92.465948 13.684674l33.07735-45.726437 64.667835 0 56.337099 46.979988 59.870576 14.614859 55.521524 49.489134 77.307713 18.920932 74.568323 71.924099-70.021773 102.908788c52.071959 29.64825 78.698386 56.70242 78.698386 56.70242s76.899414 34.414811 26.480094 162.810063C885.059066 471.506119 717.104843 478.718381 717.104843 478.718381z"  horiz-adv-x="1024" />

    
    <glyph glyph-name="yanjing" unicode="&#59536;" d="M511.674589 300.346901m-117.782543 0a115.1 115.1 0 1 0 235.565087 0 115.1 115.1 0 1 0-235.565087 0ZM502.828107 587.578718c-278.256398 0-428.822602-286.99748-428.822602-286.99748s195.446367-287.466154 440.790168-287.466154 434.546977 289.966091 434.546977 289.966091S781.084505 587.578718 502.828107 587.578718zM511.674589 90.470893c-115.910916 0-209.876008 93.964068-209.876008 209.876008s93.964068 209.876008 209.876008 209.876008 209.876008-93.964068 209.876008-209.876008S627.585505 90.470893 511.674589 90.470893z"  horiz-adv-x="1024" />

    
    <glyph glyph-name="shouyi" unicode="&#59014;" d="M693.937 528.068c20.763 27.057 32.849 56.857 32.849 84.963 0 45.844-27.937 122.749-215.004 122.749-80.315 0-215.030-15.947-215.030-122.749 0-28.106 12.087-57.906 32.851-84.963-137.099-90.183-229.071-263.043-229.071-366.362 0-195.125 161.415-321.233 411.251-321.233 249.811 0 411.226 126.108 411.226 321.233-0.002 103.32-91.974 276.203-229.072 366.362zM511.782-98.213c-193.289 0-349.96 83.033-349.96 259.92 0 101.007 120.984 303.785 279.802 352.892-48.561 23.864-83.58 67.561-83.58 98.432 0 44.413 68.823 61.434 153.739 61.434 84.89 0 153.715-17.021 153.715-61.434 0-30.871-34.994-74.569-83.581-98.432 158.818-49.108 279.802-251.885 279.802-352.892-0.001-176.887-156.674-259.92-349.937-259.92zM608.831 225.287c16.925 0 30.636 13.732 30.636 30.656 0 16.902-13.709 30.635-30.636 30.635h-42.267l46.965 46.965c11.966 11.967 11.966 31.371 0 43.339-11.97 11.968-31.374 11.968-43.341 0l-58.049-58.048-58.049 58.048c-11.968 11.968-31.349 11.968-43.34 0-11.968-11.967-11.968-31.373 0-43.339l46.964-46.965h-42.982c-16.925 0-30.657-13.732-30.657-30.635 0-16.924 13.732-30.656 30.657-30.656h66.393v-33.4l-69.158-0c-16.927 0-30.634-13.731-30.634-30.634 0-16.924 13.707-30.656 30.634-30.656h69.158v-58.551c0-16.902 13.732-30.634 30.657-30.634 16.924 0 30.633 13.732 30.633 30.634v58.551h63.651c16.925 0 30.657 13.732 30.657 30.656 0 16.903-13.732 30.634-30.657 30.634h-63.651v33.4l66.417 0z"  horiz-adv-x="1024" />

    
    <glyph glyph-name="qianbao" unicode="&#58908;" d="M977.148822 550.868701 174.370957 550.868701c-55.420292 0-100.347763-44.92747-100.347763-100.347763l0-551.910577c0-55.420292 44.92747-100.347763 100.347763-100.347763l802.777865 0c55.420292 0 100.347763 44.92747 100.347763 100.347763L1077.496585 450.520938C1077.495172 505.94123 1032.569114 550.868701 977.148822 550.868701zM1027.321997-76.302345c0-41.564513-33.694543-75.260469-75.260469-75.260469l-752.60469 0c-41.564513 0-75.260469 33.695956-75.260469 75.260469L124.19637 425.433644c0 41.564513 33.695956 75.260469 75.260469 75.260469l752.60469 0c41.564513 0 75.260469-33.695956 75.260469-75.260469L1027.321997-76.302345zM901.888353 224.739531l150.520938 0 0 50.173175L876.801059 274.912706c-27.710146 0-50.173175-22.463029-50.173175-50.173175l0-100.347763c0-27.710146 22.463029-50.173175 50.173175-50.173175l175.608232 0 0 50.173175-150.520938 0c-13.855779 0-25.087294 11.231514-25.087294 25.087294l0 50.173175C876.801059 213.508017 888.032574 224.739531 901.888353 224.739531zM926.306163 791.710676 926.974234 550.868701 977.148822 550.868701 977.148822 807.526886ZM943.339873 797.065137 151.176298 548.098957 80.345159 473.243851 958.383492 749.199846Z"  horiz-adv-x="1174" />

    
    <glyph glyph-name="anquan" unicode="&#59010;" d="M922.12937 752.064834c-12.304597 11.159983-28.472265 17.312281-45.212239 17.312281-1.573844 0-3.004611 0-4.578455-0.143077-0.85846-0.143077-11.589213-0.715384-28.186111-0.715384-27.613804 0-81.553722 1.859997-132.48903 14.021517-65.958362 15.738438-141.932092 88.278328-164.108982 102.585998C536.251494 892.423082 523.37459 896 510.497687 896c-12.876904 0-25.61073-3.576918-36.770713-10.730753-2.718457-1.859997-82.412183-84.27218-160.245911-102.729075-51.078384-12.16152-105.876763-14.021517-133.490567-14.021517-16.596898 0-27.327651 0.572307-28.329188 0.715384-1.430767 0.143077-2.861534 0.143077-4.435378 0.143077-16.739975 0-33.050719-6.152298-45.355316-17.312281C88.421404 740.04639 80.838338 723.020262 80.838338 705.278751l0-160.245911C80.838338-47.733954 481.739269-123.993838 498.765397-126.998449c3.863071-0.572307 7.869219-1.001537 11.73229-1.001537 3.863071 0 7.869219 0.286153 11.73229 1.001537 17.026128 3.004611 420.931669 79.407572 420.931669 672.031289l0 160.245911C943.161646 723.020262 935.435504 740.04639 922.12937 752.064834L922.12937 752.064834zM773.901903 522.85595l-277.99804-268.984208c-1.71692-2.861534-3.863071-5.723068-6.438452-8.155372-8.155372-7.869219-18.886125-11.73229-29.616878-11.446136-10.730753-0.143077-21.461506 3.576918-29.616878 11.446136-2.575381 2.432304-4.721531 5.293838-6.438452 8.155372L275.136505 397.663833c-15.881514 15.309208-15.881514 40.061478 0 55.370685 15.881514 15.309208 41.492245 15.309208 57.230682 0l127.338268-123.332121 256.822687 248.381162c15.881514 15.309208 41.492245 15.309208 57.230682 0C789.64034 562.917428 789.64034 538.165158 773.901903 522.85595L773.901903 522.85595zM773.901903 522.85595"  horiz-adv-x="1024" />

    
    <glyph glyph-name="weixin" unicode="&#58888;" d="M683.517777 379.959425C673.386119 379.959425 663.075262 390.12348 663.075262 400.509262 663.075262 410.748234 673.349672 421.059095 683.517777 421.059095 698.98609 421.059095 709.256453 410.748234 709.256453 400.509262 709.256453 390.12348 698.98609 379.959425 683.517777 379.959425M570.41522 379.959425C560.211681 379.959425 549.862347 390.12348 549.862347 400.509262 549.862347 410.748234 560.211681 421.059095 570.41522 421.059095 586.025277 421.059095 596.157945 410.748234 596.157945 400.509262 596.157945 390.12348 586.025277 379.959425 570.41522 379.959425M801.809173 354.213663C801.809173 436.41604 719.535923 503.408277 627.124947 503.408277 529.277077 503.408277 452.262529 436.384652 452.262529 354.213663 452.262529 271.792597 529.312514 205.022086 627.124947 205.022086 647.60391 205.022086 668.268151 210.144104 688.817988 215.29751L745.202714 184.361892 729.739465 235.771409C771.020364 266.781947 801.809173 307.85023 801.809173 354.213663M359.674371 518.840145C344.246554 518.840145 328.703318 529.151002 328.703318 544.547434 328.703318 560.014736 344.246554 570.218274 359.674371 570.218274 375.106236 570.218274 385.349262 560.050169 385.349262 544.547434 385.349262 529.151002 375.106236 518.840145 359.674371 518.840145M503.569788 570.218274C519.11201 570.218274 529.312514 560.014736 529.312514 544.547434 529.312514 529.151002 519.11201 518.840145 503.569788 518.840145 488.208794 518.840145 472.741492 529.151002 472.741492 544.547434 472.741492 560.050169 488.173357 570.218274 503.569788 570.218274M614.093616 514.481519C620.773805 514.481519 627.346676 513.975289 633.954981 513.252395 616.162066 596.103756 527.607534 657.64594 426.484366 657.64594 313.457744 657.64594 220.868574 580.639492 220.868574 482.787572 220.868574 426.322858 251.657384 379.959425 303.146884 343.942289L282.593 282.103455 354.485529 318.124643C380.192818 313.078556 400.813525 307.85023 426.484366 307.85023 432.950929 307.85023 439.338516 308.13878 445.654224 308.609572 441.663118 322.371898 439.302068 336.748785 439.302068 351.745292 439.338516 441.573495 516.458361 514.481519 614.093616 514.481519M511.996538 894.651452C238.349895 894.651452 16.493931 672.80104 16.493931 399.191869 16.493931 125.491101 238.345732-96.31629 511.996538-96.31629 785.654285-96.31629 1007.506085 125.491101 1007.506085 399.191869 1007.506085 672.80104 785.654285 894.651452 511.996538 894.651452M511.240469 868.11292C769.41386 868.11292 979.454028 658.115711 979.454028 399.947865 979.454028 141.731516 769.41386-68.292023 511.240469-68.292023 253.029665-68.292023 42.989498 141.731516 42.989498 399.947865 42.989498 658.115711 253.029665 868.11292 511.240469 868.11292"  horiz-adv-x="1024" />

    
    <glyph glyph-name="hongbao" unicode="&#58910;" d="M940.8 19.2c12.8 0 32 12.8 32 25.6L972.8 787.2c0 12.8 0 19.2-6.4 32 0 0 0 0 0 6.4 0 0 0 6.4 0 6.4-12.8 38.4-51.2 64-96 64L153.6 896C140.8 896 115.2 889.6 102.4 876.8l0 0 0 0C70.4 857.6 57.6 825.6 57.6 787.2l0-806.4c0-57.6 51.2-108.8 102.4-108.8l710.4 0c51.2 0 102.4 51.2 102.4 108.8l0 89.6c0 12.8-19.2 25.6-32 25.6-12.8 0-25.6-12.8-25.6-25.6l0 0 0 0 0 0 0-83.2c0-32-25.6-57.6-51.2-57.6L371.2-70.4l0 0L160-70.4c-25.6 0-51.2 25.6-51.2 57.6L108.8 780.8c0 6.4 0 19.2 6.4 25.6L512 563.2l403.2 230.4c0 0 0-6.4 0-6.4l0-736C915.2 32 921.6 19.2 940.8 19.2L940.8 19.2 940.8 19.2 940.8 19.2zM512 627.2 172.8 838.4l691.2 0c6.4 0 12.8 0 12.8 0L512 627.2 512 627.2 512 627.2 512 627.2zM665.6 224 665.6 224c12.8 0 25.6 12.8 25.6 25.6 0 12.8-12.8 25.6-25.6 25.6L550.4 275.2l115.2 147.2 0 0c12.8 12.8 12.8 25.6 0 38.4-6.4 12.8-25.6 12.8-38.4 0L524.8 332.8 416 480c-12.8 12.8-25.6 6.4-38.4 0C371.2 467.2 371.2 448 384 435.2l0 0 121.6-153.6 0 0L384 281.6l0 0c-12.8 0-25.6-12.8-25.6-25.6 0-12.8 12.8-25.6 25.6-25.6l0 0 121.6 0 0-57.6-121.6 0 0 0c-12.8 0-25.6-12.8-25.6-25.6 0-12.8 12.8-25.6 25.6-25.6l0 0 121.6 0 0-64 0 0c0-12.8 12.8-25.6 25.6-25.6 12.8 0 25.6 12.8 25.6 25.6l0 0 0 64 115.2 0 0 0c12.8 0 25.6 12.8 25.6 25.6 0 12.8-12.8 25.6-25.6 25.6L550.4 172.8l0 57.6L665.6 224 665.6 224 665.6 224 665.6 224zM665.6 224"  horiz-adv-x="1024" />

    
    <glyph glyph-name="time" unicode="&#58955;" d="M512 834c-248.523 0-450-201.477-450-450s201.477-450 450-450c248.543 0 450 201.477 450 450 0 248.523-201.457 450-450 450 0 0 0 0 0 0 0 0 0 0 0 0zM512-24.129c-225.062 0-408.15 183.785-408.15 408.601 0 224.796 183.088 407.679 408.15 407.679 225.041 0 408.129-182.884 408.129-407.679 0-224.816-183.088-408.601-408.129-408.601 0 0 0 0 0 0 0 0 0 0 0 0zM532.454 384c0 0 0 286.363 0 286.363 0 15.525-4.909 20.454-20.454 20.454-15.546 0-20.454-4.909-20.454-20.454 0 0 0-286.363 0-286.363 0 0 0-20.454 0-20.454 0 0 143.182-143.182 143.182-143.182 0 0 40.909 0 40.909 0 0 0 0 40.909 0 40.909 0 0-143.182 122.727-143.182 122.727z"  horiz-adv-x="1024" />

    
    <glyph glyph-name="shouji-copy" unicode="&#59294;" d="M715.898 766.325h-407.795c-28.133 0-50.968-22.834-50.968-50.968v-662.687c0-28.16 22.834-50.994 50.968-50.994h407.821c28.133 0 50.968 22.834 50.968 50.994v662.687c0 28.133-22.834 50.968-50.994 50.968zM308.102 728.092h407.821c7.040 0 12.735-5.695 12.735-12.735v-516.138h-433.318v516.138c0 7.013 5.722 12.735 12.761 12.735zM715.898 39.908h-407.795c-7.040 0-12.735 5.695-12.735 12.735v108.316h433.318v-108.316c-0.026-7.013-5.748-12.735-12.788-12.735zM473.768 103.638c0 0 0 0 0 0 0-21.114 17.118-38.232 38.232-38.232 21.115 0 38.232 17.118 38.232 38.232 0 0 0 0 0 0 0 0 0 0 0 0 0 21.115-17.118 38.232-38.232 38.232-21.115 0-38.232-17.118-38.232-38.232s0 0 0 0z"  horiz-adv-x="1024" />

    
    <glyph glyph-name="intro" unicode="&#59033;" d="M330.432 633.728c-19.52 0-35.392 15.744-35.392 35.328 0 19.52 15.872 35.328 35.392 35.328h216.32c19.584 0 35.328-15.808 35.328-35.328 0-19.584-15.808-35.328-35.328-35.328h-216.32zM692.096 489.024c0-19.2-13.376-34.752-29.888-34.752h-460.224c-16.512 0-29.888 15.552-29.888 34.752s13.376 34.752 29.888 34.752h460.288c16.448 0.064 29.824-15.552 29.824-34.752v0 0zM692.096 310.72c0-19.264-13.376-34.752-29.888-34.752l-460.224-0c-16.512 0-29.888 15.488-29.888 34.752s13.376 34.752 29.888 34.752h460.288c16.448 0.064 29.824-15.488 29.824-34.752v0 0zM692.096 132.48c0-19.264-13.376-34.816-29.888-34.816h-460.224c-16.512 0-29.888 15.552-29.888 34.816 0 19.2 13.376 34.752 29.888 34.752h460.288c16.448 0 29.824-15.552 29.824-34.752v0 0zM930.944-119.616h-835.776c-46.144 0-83.584 37.376-83.584 83.456l-0 836.736c0 46.080 37.376 83.456 83.584 83.456h717.568c30.784 0 55.744-24.896 55.744-55.616v-740.8c0-15.424-0.128-52.16-37.056-53.184-39.104-1.024-39.36 37.76-39.36 53.184v689.088c0 20.288-16.448 36.736-36.736 36.736h-639.68c-20.288 0-36.8-16.448-36.8-36.736v-789.056c0-20.288 16.448-36.736 36.8-36.736h772.48c30.72 0 55.68 24.896 55.68 55.616v612.608c0 15.616-2.88 50.432 33.024 51.456 38.464 1.088 37.696-35.648 37.696-50.752v-656c0-46.080-37.44-83.456-83.584-83.456v0 0zM930.944-119.616z"  horiz-adv-x="1024" />

    
    <glyph glyph-name="nbbPhone1" unicode="&#59018;" d="M911.929 199.856c-91.373 57.534-105.296 65.56-137.443 60.479-32.15-5.073-41.701-11.973-87.968-76.969-6.538-7.983-68.614-104.042-291.387 109.954-163.331 168.412-114.966 229.525-84.062 269.135 26.874 25.096 57.019 36.228 61.48 81.069 1.927 20.647-0.735 62.959-68.543 155.899-45.442 66.374-54.479 71.689-84.811 72.301-30.332 0.602-78.674-14.414-128.369-54.479-49.147-33.020-64.307-71.722-69.552-117.080-5.537-57.181-16.444-250.748 228.847-521.050 245.294-270.306 562.346-328.422 672.831-251.728 47.599 33.778 86.488 108.888 88.165 157.229 5.966 33.349-7.815 57.716-99.188 115.24z"  horiz-adv-x="1024" />

    
    <glyph glyph-name="zhanghu1" unicode="&#58893;" d="M863.131149 699.397297 162.214499 699.397297c-53.745065 0-97.477079-43.446511-97.477079-96.882538l0-446.170712c0-53.43091 43.726897-96.882538 97.477079-96.882538l700.916651 0c53.789067 0 97.515964 43.450604 97.515964 96.882538L960.647113 602.515782C960.647113 655.950785 916.9151 699.397297 863.131149 699.397297L863.131149 699.397297zM909.34161 156.344047c0-25.323758-20.726044-45.937239-46.210461-45.937239L162.214499 110.406808c-25.445532 0-46.171576 20.61348-46.171576 45.937239L116.042923 602.515782c0 25.323758 20.726044 45.937239 46.171576 45.937239l700.916651 0c25.484418 0 46.210461-20.61348 46.210461-45.937239L909.34161 156.344047 909.34161 156.344047zM815.772538 542.866241l-199.780069 0c-9.857509 0-17.841344-11.380188-17.841344-25.465998 0-14.078647 7.983835-25.469068 17.841344-25.469068l199.780069 0c9.857509 0 17.841344 11.390421 17.841344 25.469068C833.613882 531.486052 825.629024 542.866241 815.772538 542.866241L815.772538 542.866241zM815.772538 412.928866l-199.780069 0c-9.857509 0-17.841344-11.390421-17.841344-25.464975 0-14.075577 7.983835-25.465998 17.841344-25.465998l199.780069 0c9.857509 0 17.841344 11.390421 17.841344 25.465998C833.613882 401.538445 825.629024 412.928866 815.772538 412.928866L815.772538 412.928866zM815.772538 282.995585 647.208425 282.995585c-9.857509 0-17.845437-11.393491-17.845437-25.469068 0-14.075577 7.986905-25.465998 17.845437-25.465998l168.564114 0c9.857509 0 17.841344 11.390421 17.841344 25.465998C833.613882 271.602094 825.629024 282.995585 815.772538 282.995585L815.772538 282.995585zM435.016675 344.716298c28.337395 23.429619 46.420239 58.713216 46.420239 98.116645 0 70.369697-57.644885 127.628796-128.470977 127.628796-70.883397 0-128.524189-57.259098-128.524189-127.628796 0-39.404452 18.078751-74.687026 46.430472-98.116645-50.13791-22.732747-89.6099-65.972551-106.935498-121.340579-4.064572-12.94073 3.222391-26.705222 16.257266-30.737048 13.138228-3.984754 26.903743 3.210112 30.968315 16.160051 19.555381 62.506613 76.513628 104.488773 141.803633 104.488773 65.2327 0 122.19197-41.981137 141.746328-104.488773 3.282766-10.521634 13.101389-17.268292 23.624047-17.268292 2.412956 0 4.868891 0.360204 7.324826 1.107217 13.034874 4.02671 20.336164 17.795295 16.276708 30.737048C524.612249 278.743748 485.139236 321.983551 435.016675 344.716298L435.016675 344.716298zM352.964914 521.354298c43.583634 0 79.035054-35.221176 79.035054-78.521355 0-43.304272-35.45142-78.522378-79.035054-78.522378-43.597961 0-79.092359 35.218106-79.092359 78.522378C273.873578 486.133122 309.366953 521.354298 352.964914 521.354298L352.964914 521.354298z"  horiz-adv-x="1024" />

    
    <glyph glyph-name="shenfenzheng" unicode="&#59140;" d="M333.433 34.805l357.112 0M732.539 34.805l119.96 0c72.868 0 132.112 59.929 132.112 133.669L984.611 595.31c0 73.729-59.244 133.655-132.112 133.655l-681.021 0c-72.896 0-132.136-59.927-132.136-133.655l0-426.836c0-73.74 59.24-133.669 132.136-133.669l119.936 0M224.406 513.924c0 50.156 46.644 91.582 97.262 91.582 50.619 0 99.77-46.747 99.77-97.115 0-50.155-47.263-100.733-99.77-100.733C271.05 407.657 224.406 463.556 224.406 513.924zM143.113 218.34c0 98.805 56.296 171.912 179.811 171.912 123.512 0 179.188-69.699 179.188-163.195 0-3.831 0.195-25.727 0-29.319L143.113 197.738 143.113 218.34zM601.246 537.719l262.586 0c8.607 0 15.765-7.224 15.765-15.938l0-31.878c0-8.716-7.157-15.928-15.765-15.928L601.246 473.975c-8.607 0-15.74 7.211-15.74 15.928l0 31.878C585.506 530.495 592.638 537.719 601.246 537.719zM601.246 431.466l262.586 0c8.607 0 15.765-7.224 15.765-15.938l0-31.853c0-8.741-7.157-15.952-15.765-15.952L601.246 367.723c-8.607 0-15.74 7.211-15.74 15.952l0 31.853C585.506 424.242 592.638 431.466 601.246 431.466zM601.246 325.226l262.586 0c8.607 0 15.765-7.21 15.765-15.926l0-31.904c0-8.717-7.157-15.928-15.765-15.928L601.246 261.468c-8.607 0-15.74 7.211-15.74 15.928l0 31.904C585.506 318.016 592.638 325.226 601.246 325.226z"  horiz-adv-x="1024" />

    
    <glyph glyph-name="wenti" unicode="&#59136;" d="M529.472 631.84c-10.88 0.832-28.64 1.216-41.792-0.064-69.888-6.816-120.608-58.464-120.608-122.848 0-13.248 10.752-24 24-24s24 10.752 24 24c0 44.352 38.88 71.328 77.248 75.104 9.28 0.864 24.192 0.672 33.248-0.032 45.504-3.776 76.256-27.008 82.176-62.08 1.728-10.144 1.408-20.256-0.864-30.016-4.608-19.552-17.12-32.224-27.168-42.368-20.864-21.024-33.728-31.84-44.032-40.544-8.608-7.264-15.136-12.832-21.888-20.192-27.104-29.504-42.176-70.784-44.832-122.72-0.672-13.216 9.504-24.512 22.752-25.184 0.416-0.032 0.8-0.032 1.248-0.032 12.672 0 23.296 9.952 23.936 22.784 2.08 40.448 12.928 71.648 32.288 92.672 5.344 5.856 10.592 10.176 17.44 15.936 10.464 8.8 24.768 20.864 47.2 43.456 12 12.128 32.096 32.448 39.808 65.184 3.744 16.032 4.224 32.512 1.44 48.96C645.408 587.168 597.312 626.208 529.472 631.84zM490.272 170.304m-34.848 0a1.089 1.089 0 1 0 69.696 0 1.089 1.089 0 1 0-69.696 0ZM512 854.016C252.832 854.016 41.984 643.168 41.984 384c0-259.2 210.848-470.016 470.016-470.016 259.2 0 470.016 210.848 470.016 470.016C982.016 643.168 771.168 854.016 512 854.016zM512-38.016C279.296-38.016 89.984 151.296 89.984 384 89.984 616.704 279.296 806.016 512 806.016c232.704 0 422.016-189.312 422.016-422.016C934.016 151.296 744.704-38.016 512-38.016z"  horiz-adv-x="1024" />

    
    <glyph glyph-name="shouye" unicode="&#59123;" d="M524.279674 790.875754l-460.487789-467.75224 141.827169 0L205.619054-59.256336l216.891795 0L422.51085 214.66636l214.72341 0L637.234259-59.256336l214.654848 0L851.889107 323.123514l132.880403 0L524.279674 790.875754zM906.95833 704.41866 684.463933 704.41866l0-1.153266 222.49542-226.046293L906.959354 704.41866z"  horiz-adv-x="1024" />

    
    <glyph glyph-name="jiaotongzhiyin" unicode="&#58900;" d="M512 857.320049c-261.407662 0-473.320049-211.912387-473.320049-473.320049s211.912387-473.320049 473.320049-473.320049 473.320049 211.912387 473.320049 473.320049S773.406638 857.320049 512 857.320049zM304.071344 503.523187l0-241.72539c0-6.753821-5.525853-12.279674-12.279674-12.279674l-38.578644 0c-6.753821 0-12.279674 5.525853-12.279674 12.279674l0 241.72539c0 0.846274 0.086981 1.672082 0.251733 2.471284l-59.157331 0.206708 95.129614 90.038666 85.818551-90.670046-59.122539 0.205685C303.989479 505.04382 304.071344 504.292714 304.071344 503.523187zM539.302833-37.596014c0-6.753821-5.525853-12.279674-12.279674-12.279674l-30.046317 0c-6.753821 0-12.279674 5.525853-12.279674 12.279674L484.697167 207.397816c0 6.753821 5.525853 12.279674 12.279674 12.279674l30.046317 0c6.753821 0 12.279674-5.525853 12.279674-12.279674L539.302833-37.596014zM539.302833 259.751185c0-6.753821-5.525853-12.279674-12.279674-12.279674l-30.046317 0c-6.753821 0-12.279674 5.525853-12.279674 12.279674L484.697167 504.745015c0 6.753821 5.525853 12.279674 12.279674 12.279674l30.046317 0c6.753821 0 12.279674-5.525853 12.279674-12.279674L539.302833 259.751185zM539.302833 560.603207c0-6.753821-5.525853-12.279674-12.279674-12.279674l-30.046317 0c-6.753821 0-12.279674 5.525853-12.279674 12.279674L484.697167 805.597037c0 6.753821 5.525853 12.279674 12.279674 12.279674l30.046317 0c6.753821 0 12.279674-5.525853 12.279674-12.279674L539.302833 560.603207zM771.722276 503.523187l0-241.72539c0-6.753821-5.525853-12.279674-12.279674-12.279674l-38.578644 0c-6.753821 0-12.279674 5.525853-12.279674 12.279674l0 241.72539c0 0.846274 0.086981 1.672082 0.251733 2.471284l-59.157331 0.206708 95.129614 90.038666 85.818551-90.670046-59.122539 0.205685C771.640412 505.04382 771.722276 504.292714 771.722276 503.523187z"  horiz-adv-x="1024" />

    
    <glyph glyph-name="yanzhengma" unicode="&#58962;" d="M853.333333 156.444444l0-113.777778c0-31.402667-25.486222-56.888889-56.888889-56.888889L170.666667-14.222222c-31.402667 0-56.888889 25.486222-56.888889 56.888889L113.777778 782.222222c0 31.402667 25.486222 56.888889 56.888889 56.888889l625.777778 0c31.402667 0 56.888889-25.486222 56.888889-56.888889l0-227.555556 56.888889 0L910.222222 782.222222c0 62.862222-50.915556 113.777778-113.777778 113.777778L170.666667 896C107.804444 896 56.888889 845.084444 56.888889 782.222222l0-739.555556c0-62.862222 50.915556-113.777778 113.777778-113.777778l625.777778 0c62.862222 0 113.777778 50.915556 113.777778 113.777778l0 113.777778L853.333333 156.444444zM227.555556 554.666667l341.333333 0 0-56.888889-341.333333 0 0 56.888889ZM227.555556 327.111111l341.333333 0 0-56.888889-341.333333 0 0 56.888889ZM778.922667 497.777778 739.555556 459.832889 897.080889 308.167111 936.504889 346.055111ZM1212.188444 611.555556 897.080889 308.167111 936.504889 270.222222 1251.555556 573.610667Z"  horiz-adv-x="1309" />

    
    <glyph glyph-name="xuanzhong" unicode="&#58944;" d="M525.405446 130.457841c-12.650543-12.650543-29.291647-18.986893-45.932751-18.986893-16.567578 0-33.135156 6.263832-45.773612 18.815668L209.76836 352.876744c-14.774746 14.689133-14.848272 38.564011-0.160146 53.350844 14.713306 14.76266 38.576098 14.836186 53.363938 0.147052L479.447514 191.202605l451.615313 451.592147C842.01751 784.816233 684.519259 879.550266 504.519964 879.550266c-278.131651 0-503.602396-225.471752-503.602396-503.604411s225.471752-503.604411 503.602396-503.604411c278.134673 0 503.606425 225.470745 503.606425 503.604411 0 69.961732-14.317473 136.56543-40.098998 197.111774L525.405446 130.457841z"  horiz-adv-x="1024" />

    
    <glyph glyph-name="weibo" unicode="&#59137;" d="M645.856 389.856c-21.632 4.224-11.136 15.84-11.136 15.84s21.184 34.912-4.192 60.288c-31.424 31.424-107.808-4-107.808-4-29.184-9.056-21.44 4.128-17.312 26.56 0 26.432-9.056 71.2-86.752 44.768-77.632-26.56-144.288-119.68-144.288-119.68-46.368-61.856-40.224-109.664-40.224-109.664 11.584-105.536 123.744-134.528 210.944-141.376 91.776-7.2 215.616 31.648 253.184 111.392 37.536 79.936-30.72 111.552-52.416 115.872M451.872 192.352c-91.104-4.256-164.736 41.408-164.736 102.24 0 60.864 73.632 109.664 164.736 113.856 91.168 4.224 164.96-33.344 164.96-94.080-0.032-60.8-73.792-117.856-164.96-122.016M433.696 368.352c-91.648-10.72-81.056-96.544-81.056-96.544s-0.928-27.168 24.576-41.024c53.632-29.024 108.832-11.456 136.736 24.576 27.872 36.032 11.488 123.648-80.256 112.992M410.592 247.904c-17.12-1.984-30.912 7.872-30.912 22.176 0 14.24 12.256 29.184 29.376 30.944 19.648 1.856 32.448-9.44 32.448-23.744-0.032-14.272-13.888-27.456-30.912-29.376M464.608 293.92c-5.792-4.32-12.928-3.744-15.968 1.472-3.2 5.056-1.984 13.184 3.872 17.44 6.784 5.056 13.856 3.616 16.896-1.472 3.040-5.184 0.832-12.96-4.8-17.44M690.464 427.040c7.392 0 13.664 5.472 14.72 12.576 0.128 0.544 0.192 0.992 0.192 1.6 11.2 100.608-82.464 83.296-82.464 83.296-8.32 0-14.976-6.72-14.976-15.104 0-8.256 6.656-14.976 14.976-14.976 67.264 14.848 52.416-52.416 52.416-52.416 0.032-8.32 6.816-14.976 15.136-14.976M679.552 602.656c-32.352 7.584-65.664 1.024-75.008-0.736-0.704-0.064-1.408-0.736-2.048-0.864-0.32-0.064-0.544-0.416-0.544-0.416-9.184-2.592-15.936-11.104-15.936-21.184 0-12 9.728-21.856 21.856-21.856 0 0 11.776 1.568 19.776 4.704 7.904 3.2 74.976 2.4 108.288-53.536 18.176-40.832 8-68.128 6.72-72.544 0 0-4.32-10.592-4.32-21.056 0-12.064 9.728-19.648 21.76-19.648 10.080 0 18.528 1.376 20.992 18.4h0.128c35.776 119.232-43.744 175.232-101.664 188.736M512 896c-282.784 0-512-229.248-512-512 0-282.784 229.216-512 512-512 282.752 0 512 229.216 512 512 0 282.752-229.248 512-512 512M512-98.368c-266.4 0-482.368 215.968-482.368 482.368s215.968 482.336 482.368 482.336c266.4 0 482.368-215.968 482.368-482.336 0-266.4-215.968-482.368-482.368-482.368z"  horiz-adv-x="1024" />

    
    <glyph glyph-name="yinxingqia" unicode="&#58895;" d="M917.376 0 106.624 0C47.744 0 0 50.56 0 113.024L0 655.04C0 717.44 47.744 768 106.624 768l810.752 0C976.256 768 1024 717.44 1024 655.04l0-67.712L1024 451.84l0-338.816C1024 50.56 976.256 0 917.376 0L917.376 0zM981.376 623.104c0 55.104-42.112 99.712-93.952 99.712L136.576 722.816c-51.84 0-93.888-44.608-93.888-99.712l0-35.84 938.688 0L981.376 623.104 981.376 623.104zM42.688 451.84l0-306.944c0-55.04 42.048-99.712 93.888-99.712l750.848 0c51.84 0 93.952 44.608 93.952 99.712L981.376 451.84 42.688 451.84 42.688 451.84zM661.312 113.024l64 135.488 213.376 0-64-135.488L661.312 113.024 661.312 113.024z"  horiz-adv-x="1024" />

    
    <glyph glyph-name="weibo-circle" unicode="&#58892;" d="M445.146 221.098c-100.894-4.724-182.449 45.875-182.449 113.193 0 67.393 81.555 121.452 182.449 126.111 100.947 4.648 182.674-36.951 182.674-104.219 0-67.324-81.727-130.512-182.674-135.085M659.971 439.822c-23.977 4.648-12.32 17.551-12.32 17.551s23.442 38.651-4.648 66.74c-34.812 34.801-119.39-4.432-119.39-4.432-32.307-10.020-23.756 4.584-19.188 29.424 0 29.267-10.020 78.83-96.093 49.557-85.961-29.418-159.779-132.526-159.779-132.526-51.342-68.489-44.534-121.43-44.534-121.43 12.805-116.895 137.001-148.975 233.596-156.572 101.638-7.969 238.786 35.032 280.389 123.368 41.587 88.504-33.996 123.52-58.032 128.32M459.248 333.556c-6.431-4.799-14.339-4.141-17.709 1.625-3.546 5.599-2.218 14.594 4.271 19.318 7.514 5.603 15.344 3.989 18.729-1.625 3.385-5.744 0.961-14.371-5.291-19.318M399.418 282.608c-18.95-2.229-34.218 8.692-34.218 24.554 0 15.77 13.578 32.301 32.533 34.278 21.752 2.073 35.913-10.475 35.913-26.319 0-15.775-15.359-30.374-34.228-32.513M425.013 415.997c-101.46-11.872-89.74-106.919-89.74-106.919s-1.041-30.104 27.205-45.426c59.371-32.166 120.492-12.697 151.4 27.2 30.893 39.892 12.757 136.953-88.865 125.145M709.37 480.967c8.179 0 15.123 6.056 16.305 13.934 0.141 0.598 0.206 1.122 0.206 1.776 12.395 111.421-91.289 92.244-91.289 92.244-9.216 0-16.585-7.445-16.585-16.736 0-9.147 7.369-16.596 16.585-16.596 74.482 16.444 58.032-58.028 58.032-58.028 0-9.214 7.516-16.595 16.747-16.595M697.287 675.459c-35.853 8.396-72.717 1.15-83.066-0.825-0.789-0.082-1.545-0.826-2.268-0.983-0.362-0.065-0.583-0.433-0.583-0.433-10.193-2.878-17.627-12.315-17.627-23.453 0-13.27 10.76-24.187 24.181-24.187 0 0 13.059 1.75 21.898 5.216 8.774 3.526 83.034 2.629 119.908-59.312 20.132-45.199 8.854-75.46 7.455-80.324 0 0-4.793-11.738-4.793-23.308 0-13.351 10.76-21.74 24.105-21.74 11.138 0 20.51 1.533 23.237 20.38h0.14c39.6 131.974-48.444 193.985-112.587 208.967M511.997 894.651c-273.647 0-495.503-221.85-495.503-495.46 0-273.701 221.852-495.508 495.503-495.508 273.658 0 495.51 221.807 495.51 495.508 0 273.609-221.852 495.46-495.51 495.46M511.24 868.113c258.173 0 468.214-209.997 468.214-468.165 0-258.216-210.040-468.24-468.214-468.24-258.211 0-468.251 210.024-468.251 468.24 0 258.168 210.040 468.165 468.251 468.165z"  horiz-adv-x="1024" />

    
    <glyph glyph-name="gonggao" unicode="&#59115;" d="M602.368301-127.999994c-7.288471 0-14.456471 2.650353-20.118588 7.770353L289.686891 143.058828 120.485951 143.058828c-48.429176 0-120.470588 32.105412-120.470588 120.470588l0 180.705881c0 48.429176 32.105412 120.470588 120.470588 120.470588l169.140705 0 292.562822 263.348704c8.854588 8.011294 21.564235 9.938823 32.406588 5.12C625.558889 828.29553 632.485948 817.513412 632.485948 805.647059l0-903.529406c0-11.866353-6.927059-22.708706-17.829647-27.527529C610.741006-127.1567 606.524536-127.999994 602.368301-127.999994zM120.485951 504.470591c-57.344 0-60.235294-50.176-60.235294-60.235294l0-180.705881c0-57.283764 50.176-60.235294 60.235294-60.235294l180.705881 0c7.469176 0 14.637176-2.770824 20.118588-7.770353L572.250654-30.238112 572.250654 738.002824 321.370655 512.240943C315.829008 507.241414 308.661008 504.470591 301.191832 504.470591L120.485951 504.470591zM752.956535 534.588237c-7.649882 0-15.420235 2.951529-21.323294 8.794353-11.745882 11.745882-11.745882 30.84047 0 42.586353l120.470588 120.470588c11.745882 11.745882 30.84047 11.745882 42.586353 0s11.745882-30.84047 0-42.586353l-120.470588-120.470588C768.37677 537.539767 760.726888 534.588237 752.956535 534.588237zM933.662416 323.764709l-180.705881 0C736.391829 323.764709 722.838888 337.257415 722.838888 353.882356s13.552941 30.117647 30.117647 30.117647l180.705881 0C950.347593 384.000003 963.780063 370.507297 963.780063 353.882356S950.347593 323.764709 933.662416 323.764709zM873.427123-7.529406c-7.649882 0-15.420235 2.951529-21.323294 8.794353l-120.470588 120.470588c-11.745882 11.745882-11.745882 30.84047 0 42.586353s30.84047 11.745882 42.586353 0l120.470588-120.470588c11.745882-11.745882 11.745882-30.84047 0-42.586353C888.847358-4.577877 881.197475-7.529406 873.427123-7.529406z"  horiz-adv-x="1025" />

    
    <glyph glyph-name="shouyi1" unicode="&#58945;" d="M512.550539 398.452153l-1.101077 0c-3.434216 0-6.640234 1.723248-8.535397 4.587482L383.175983 584.074781c-3.116991 4.713348-1.823532 11.062963 2.889817 14.179954 4.712325 3.118014 11.06194 1.824555 14.179954-2.889817L512 426.401716l111.753223 168.963203c3.116991 4.713348 9.464559 6.008854 14.179954 2.889817 4.713348-3.118014 6.007831-9.466606 2.889817-14.179954L521.085936 403.039635C519.190773 400.175401 515.984754 398.452153 512.550539 398.452153zM671.811776 398.452153 352.187201 398.452153c-5.65172 0-10.233062 4.581342-10.233062 10.233062s4.581342 10.233062 10.233062 10.233062l319.623551 0c5.650697 0 10.233062-4.581342 10.233062-10.233062S677.462472 398.452153 671.811776 398.452153zM671.811776 298.160983 352.187201 298.160983c-5.65172 0-10.233062 4.582365-10.233062 10.233062s4.581342 10.233062 10.233062 10.233062l319.623551 0c5.650697 0 10.233062-4.582365 10.233062-10.233062S677.462472 298.160983 671.811776 298.160983zM511.449461 168.0476c-5.650697 0-10.233062 4.582365-10.233062 10.233062L501.216399 408.685215c0 5.65172 4.582365 10.233062 10.233062 10.233062s10.233062-4.581342 10.233062-10.233062L521.682523 178.280662C521.682523 172.628942 517.100158 168.0476 511.449461 168.0476zM512-90.346425c-261.556041 0-474.346425 212.790384-474.346425 474.346425S250.443959 858.346425 512 858.346425s474.346425-212.791407 474.346425-474.346425S773.555018-90.346425 512-90.346425zM512 837.880301c-250.27102 0-453.880301-203.610304-453.880301-453.880301 0-250.269997 203.610304-453.880301 453.880301-453.880301 250.269997 0 453.880301 203.610304 453.880301 453.880301C965.880301 634.27102 762.269997 837.880301 512 837.880301zM512 14.320403c-203.845665 0-369.685737 165.838026-369.685737 369.679597 0 203.844641 165.840072 369.684714 369.685737 369.684714 203.842595 0 369.680621-165.840072 369.680621-369.684714C881.680621 180.158429 715.842595 14.320403 512 14.320403zM512 733.21859c-192.560644 0-349.219613-156.658969-349.219613-349.21859 0-192.556551 156.658969-349.213473 349.219613-349.213473 192.557574 0 349.214497 156.656923 349.214497 349.213473C861.214497 576.559621 704.557574 733.21859 512 733.21859zM512.969071 173.947983"  horiz-adv-x="1024" />

    
    <glyph glyph-name="difengxianjinggaoyanseffb400" unicode="&#58909;" d="M514.193629 876.330907c-128.412318 0-232.509369-104.094662-232.509369-232.515579 0-128.408974 104.097529-232.503637 232.509369-232.503637s232.509369 104.094185 232.509369 232.503637C746.702998 772.236245 642.605469 876.330907 514.193629 876.330907zM514.193629 498.502705c-16.051898 0-29.063671 13.011773-29.063671 29.066537 0 16.046166 13.011773 29.063671 29.063671 29.063671s29.063671-13.017506 29.063671-29.063671C543.2573 511.514478 530.245527 498.502705 514.193629 498.502705zM543.2573 629.289703c0-8.027382-6.50732-14.528492-14.531836-14.528492l-29.063671 0c-8.027382 0-14.531836 6.501109-14.531836 14.528492l0 145.3217c0 8.027382 6.504453 14.526103 14.531836 14.526103l29.063671 0c8.024516 0 14.531836-6.498721 14.531836-14.526103L543.2573 629.289703z"  horiz-adv-x="1024" />

    
    <glyph glyph-name="anquan1" unicode="&#58918;" d="M555.426046-45.379235C535.235437-56.331582 520.565524-61.206713 507.876828-61.206713 495.099089-61.206713 480.852133-56.376104 460.327611-45.023061 117.888653 144.17207 119.023958 247.796418 123.231262 633.376939 123.654219 671.710157 124.099436 712.625636 124.233001 756.457288 177.280653 772.173462 234.001349 786.999201 293.170741 800.578332 357.794046 815.426332 429.674394 825.020766 506.763785 829.139027 653.440654 812.866332 765.947089 791.406853 887.803089 756.25694 888.025698 706.726506 888.671263 660.980418 889.227785 618.595722 894.548133 231.033983 895.839263 138.940765 555.426046-45.379235M956.010394 619.508418C955.342568 668.704939 954.607959 722.375897 954.496654 781.322679 954.474394 796.037114 944.790915 809.015201 930.677524 813.222506 794.619089 854.04894 673.163785 877.979375 511.394046 895.810332 509.613176 896.010679 507.810046 896.03294 506.029176 895.966158 424.020133 891.736592 347.375959 881.541114 278.211436 865.669114 208.623958 849.68581 142.264306 832.010679 81.046914 813.155723 67.067088 808.859375 57.494914 795.903549 57.494914 781.255897 57.494914 728.208245 56.938393 679.367897 56.470914 634.111548 52.241349 249.087548 50.660827 105.0152 428.027089-103.480104 459.147785-120.665495 483.033698-127.989321 507.876828-127.989321 532.274741-127.989321 556.761698-120.620974 587.236828-104.125669 963.156133 99.472244 961.508828 220.037113 956.010394 619.508418M741.989941 604.642609 440.88942 302.406783 293.077246 450.730957C275.736027 468.116696 247.531506 468.183479 230.101245 450.842261 212.693245 433.478783 212.648723 405.296522 229.98994 387.866261L409.345768 207.887131C417.715854 199.517044 429.046637 194.797739 440.88942 194.797739 452.732202 194.797739 464.085246 199.517044 472.433072 207.909392L805.077246 541.822435C822.418463 559.230435 822.373941 587.434957 804.943681 604.776174 787.557941 622.117392 759.331159 622.095131 741.989941 604.642609"  horiz-adv-x="1024" />

    
    <glyph glyph-name="shouyi2" unicode="&#58985;" d="M1056.457512 330.484482C1056.433702 323.651074 1054.005104 317.365291 1049.862202 313.246198 1048.076468 311.484274 1045.195484 309.412823 1042.028783 309.412823L1041.981163 309.412823 1005.028378 310.127117C987.909144 311.93666 971.456583 301.365116 966.718436 284.245881 947.146793 213.149866 905.265383 148.363444 845.645684 96.862881 845.00282 96.315256 844.526624 95.648582 843.93138 95.077147 843.812331 94.958098 843.693282 94.81524 843.574233 94.696191 842.240885 93.315223 840.978967 91.910446 839.883717 90.38662 839.359901 89.648517 838.907515 88.838984 838.43132 88.053261 837.812265 86.981821 837.145591 85.93419 836.621776 84.81513 836.097961 83.696071 835.717004 82.505581 835.312238 81.315092 834.978901 80.338891 834.621754 79.3865 834.359847 78.386489 834.097939 77.267429 833.95508 76.10075 833.764602 74.91026 833.597934 73.719771 833.431265 72.529282 833.383645 71.314983 833.359836 70.957836 833.264597 70.624499 833.264597 70.243543L832.002678-40.019567C832.002678-44.06723 828.693118-47.4006 824.621645-47.4006L750.382738-47.4006C746.311265-47.4006 742.977896-44.06723 742.977896-40.019567L742.977896-24.30511C742.977896-4.590609 726.977721 11.409566 707.26322 11.409566 704.025089 11.409566 700.929817 10.838132 697.953594 10.004789 694.144029 10.076218 690.286844 9.695262 686.453468 8.457153 594.476273-20.94793 491.332288-22.400327 398.236033 4.4333 392.688353 8.004767 386.116853 10.147648 379.021537 10.147648 359.307036 10.147648 343.306861-5.852527 343.306861-25.567028L343.306861-40.019567C343.306861-44.06723 339.973491-47.4006 335.902018-47.4006L261.663112-47.4006C257.591639-47.4006 254.305889-44.06723 254.305889-39.471942L253.02016 45.433748C252.972541 47.505199 252.686823 49.481411 252.329677 51.457623 254.472557 63.91014 250.091557 77.10076 239.496203 85.505614 145.852322 159.83976 92.137449 266.174255 92.137449 377.246898 92.137449 593.392117 291.115815 769.251181 535.713726 769.251181 589.857175 769.251181 642.810134 760.703468 693.001159 743.846141 693.215447 743.774712 693.429735 743.774712 693.644023 743.703283 694.977371 743.274706 696.334529 743.012799 697.739306 742.750891 698.763127 742.560413 699.786947 742.298505 700.810768 742.203266 701.71554 742.108027 702.620312 742.155647 703.548893 742.131837 705.04891 742.084217 706.548926 742.036598 708.048942 742.203266 708.596567 742.250886 709.120383 742.393744 709.668008 742.488984 711.501361 742.750891 713.334715 743.108038 715.096639 743.679473 715.215687 743.727092 715.358546 743.727092 715.501405 743.750902 719.763356 745.155679 758.144728 757.941533 784.645018 774.060757L859.526788 817.418374 848.407619 724.536406C847.24094 717.179183 842.78851 680.774023 858.26487 650.559408 858.312489 650.41655 858.407728 650.297501 858.455348 650.130832 859.241071 648.630816 859.836316 647.05937 860.717278 645.583163 862.169674 643.225995 863.931598 641.202163 865.764952 639.29738 865.95543 639.083092 866.00305 638.821185 866.217338 638.630706 914.003574 591.487334 948.456332 534.343853 965.861284 473.343186 969.408942 460.914479 979.194763 452.176288 990.766318 448.985777 994.433025 447.628619 998.314019 446.700038 1002.433112 446.628608L1042.076402 445.890505C1049.147908 445.842885 1056.981327 437.057075 1056.933708 424.533129L1056.457512 330.484482ZM101.94708 734.179369C103.923292 736.369869 106.232841 737.536549 108.5662 737.536549L108.61382 737.536549C110.828129 737.512739 112.92339 736.393679 114.804363 734.488896 117.161532 732.155537 118.51869 728.941216 118.637739 724.822124 118.875836 718.083955 115.994853 712.01246 113.256727 709.226715 111.256706 707.179074 108.423341 705.964775 106.637607 706.321922 106.137602 706.345731 105.685216 706.655259 105.185211 706.774308L101.780412 710.655302C96.256542 716.941085 96.327971 727.941206 101.94708 734.179369L101.94708 734.179369ZM132.78075 665.369093C132.328364 664.869088 131.899788 664.345272 131.447402 663.821457 131.185495 663.964316 130.852158 664.035745 130.59025 664.154794 131.352163 664.511941 132.042647 664.988137 132.78075 665.369093L132.78075 665.369093ZM1043.004984 517.319857 1026.600043 517.629384C1004.909329 578.963388 968.813697 636.03544 921.194129 684.41692 918.122667 691.583665 917.81314 705.655248 919.122678 714.702966L932.527586 826.156565C932.694255 827.585152 932.789494 828.989929 932.789494 830.418516 932.789494 860.752181 914.836917 881.014307 899.479606 889.109634 874.78886 902.157395 846.955222 894.062069 829.907417 882.800041L748.192238 835.49C735.358765 827.704201 716.096649 819.894591 703.286986 815.180254 649.429254 831.870913 593.190544 840.680533 535.713726 840.680533 386.783527 840.680533 252.496345 783.441812 158.376268 692.20272 163.614421 702.607595 166.614453 714.369629 166.233497 726.32214 165.781111 740.750869 160.590578 753.822441 151.876197 764.227316 151.59048 764.584463 151.51905 765.060659 151.185713 765.417806 150.44761 766.274958 149.495219 766.917822 148.685686 767.727355 147.804724 768.608317 147.13805 769.655947 146.209469 770.46548 145.828512 770.822627 145.328507 770.894056 144.92374 771.227393 134.733153 779.941774 122.090157 785.060877 108.923347 785.156117L108.59001 785.156117C92.804123 785.156117 77.518242 778.20366 66.589551 766.06067 61.279969 760.203463 57.327545 753.489104 54.58942 746.369978 51.684626 751.298604 48.946501 756.751044 46.82743 763.465403 42.898816 775.98935 29.470098 782.989426 16.969961 778.989382 4.398395 775.036958-2.554062 761.65586 1.422172 749.131913 16.088999 702.655215 47.589343 683.512149 64.541909 676.250164 70.589595 658.869022 82.399247 638.773565 101.423265 625.844852 50.422707 553.939305 20.708097 468.676468 20.708097 377.246898 20.708097 249.769314 79.232546 128.172747 181.638427 40.838459L182.876536-40.019567C182.876536-83.472423 218.210255-118.829952 261.663112-118.829952L335.902018-118.829952C368.116656-118.829952 395.807435-99.353549 408.021854-71.61515 449.617547-81.139064 492.403729-86.210548 535.713726-86.210548 583.880919-86.210548 631.214769-79.972385 677.000984-68.210351 688.405871-97.734484 716.882372-118.829952 750.382738-118.829952L824.621645-118.829952C868.074501-118.829952 903.43203-83.472423 903.43203-40.424333L904.52728 54.100509C960.980278 106.267746 1002.933117 169.173195 1027.028619 238.245379L1041.076391 237.983471 1041.600207 237.983471C1063.362349 237.983471 1084.100671 246.650232 1100.077036 262.459929 1117.624847 279.817261 1127.767815 304.484198 1127.886864 330.127335L1128.36306 424.175982C1128.601157 475.200349 1090.124546 516.98652 1043.004984 517.319857L1043.004984 517.319857ZM787.118854 555.548846C746.713651 555.548846 713.951388 522.786583 713.951388 482.38138 713.951388 441.976176 746.713651 409.213914 787.118854 409.213914 827.524058 409.213914 860.28632 441.976176 860.28632 482.38138 860.28632 522.786583 827.524058 555.548846 787.118854 555.548846"  horiz-adv-x="1144" />

    
    <glyph glyph-name="touzi" unicode="&#59053;" d="M0-64 1024-64 1024-128 0-128 0-64ZM0 896 64 896 64-128 0-128 0 896ZM224 128 288 128 288-64 224-64 224 128ZM352 192 416 192 416-64 352-64 352 192ZM480 256 544 256 544-64 480-64 480 256ZM608 192 672 192 672-64 608-64 608 192ZM736 320 800 320 800-64 736-64 736 320ZM864 320 928 320 928-64 864-64 864 320ZM64.0325 128 128.0325 128 128.0325 64 64.0325 64 64.0325 128ZM64.0325 256 128.0325 256 128.0325 192 64.0325 192 64.0325 256ZM64.0325 384 128.0325 384 128.0325 320 64.0325 320 64.0325 384ZM64.0325 512 128.0325 512 128.0325 448 64.0325 448 64.0325 512ZM64.0325 640 128.0325 640 128.0325 576 64.0325 576 64.0325 640ZM64.0325 768 128.0325 768 128.0325 704 64.0325 704 64.0325 768ZM281.6 172.73625 230.4 211.26375 442.3675 493.6 605.9525 362.88 873.50375 630.65625 918.78375 585.37625 610.72 277.12 453.98375 402.3675 281.6 172.73625ZM928.41625 352 864.41625 352 864.41625 576 640.41625 576 640.41625 640 928.41625 640 928.41625 352Z"  horiz-adv-x="1024" />

    
    <glyph glyph-name="gold" unicode="&#59061;" d="M512.007 310.349c-56.103 0-112.243 1.306-168.308-0.423-41.318-1.306-65.626 39.668-47.002 76.032 28.646 55.872 58.137 111.36 87.398 166.963 9.408 17.856 24.576 26.266 44.16 26.266 55.757 0.077 111.437 0.077 167.155 0.038 20.122-0.038 35.212-8.871 44.851-27.226 28.762-54.951 57.331-109.901 86.323-164.736 18.663-35.328-3.264-78.989-47.539-77.414-55.642 2.035-111.36 0.499-167.040 0.499zM769.673 3.379c-55.718 0-111.437 1.459-167.078-0.461-43.891-1.536-65.088 41.817-47.002 76.685 28.723 55.411 57.638 110.708 86.823 165.849 9.293 17.588 23.962 26.343 44.122 26.228 56.064-0.384 112.205-0.308 168.308-0.038 19.661 0.115 34.176-8.371 43.238-25.536 29.529-55.872 59.251-111.668 87.668-168.154 14.477-28.8 2.688-60.634-24.115-71.616-7.757-3.149-15.706-2.918-23.692-2.918-56.064-0.077-112.166-0.038-168.269-0.038zM253.616 3.379c-56.064 0-112.243 1.459-168.308-0.461-43.392-1.497-65.088 41.472-46.771 76.8 28.723 55.373 57.638 110.669 86.899 165.811 9.292 17.587 23.962 26.304 44.122 26.151 55.68-0.384 111.398-0.384 167.040 0 20.697 0.154 35.558-8.717 45.082-26.688 28.954-54.835 58.023-109.594 86.246-164.774 15.206-29.76 3.955-62.784-23.577-73.92-7.718-3.111-15.706-2.88-23.654-2.88-55.68-0.077-111.398-0.038-167.078-0.038zM249.699 472.781c-4.109 19.776-8.448 39.514-12.211 59.366-1.536 8.103-4.723 12.134-13.402 13.594-19.661 3.341-39.053 8.217-58.944 14.131 19.546 4.224 38.899 8.948 58.522 12.442 8.832 1.574 12.48 5.606 14.016 14.438 3.494 19.929 8.026 39.668 13.747 59.251 4.263-20.083 8.947-40.128 12.518-60.365 1.421-8.103 4.762-11.558 12.557-13.056 19.852-3.802 39.514-8.332 59.059-14.4-19.852-4.301-39.706-8.948-59.712-12.749-7.526-1.421-10.445-4.877-11.789-12.365-3.648-20.045-8.141-39.821-12.365-59.712-0.652-0.192-1.306-0.384-1.997-0.576zM738.223 472.551c18.24 3.917 36.442 8.486 54.835 11.635 10.406 1.728 15.629 5.837 17.165 17.088 2.227 16.474 6.374 32.717 9.715 48.96 0.537 2.803 0.883 5.683 3.725 7.449 4.301-20.736 8.947-41.357 12.787-62.092 1.191-6.221 3.725-8.678 9.792-9.869 20.237-3.994 40.397-8.794 60.557-15.283-19.891-4.377-39.706-9.024-59.674-12.903-6.528-1.267-9.485-3.763-10.752-10.56-3.725-20.352-8.332-40.589-12.864-62.208-5.683 9.984-5.568 20.544-8.141 30.221-2.88 10.983-5.223 22.157-6.951 33.408-0.922 6.067-3.878 7.834-9.216 8.909-20.352 4.109-40.627 8.678-60.941 13.056 0 0.729-0.038 1.421-0.038 2.189zM541.692 679.257c19.392 4.263 38.669 9.254 58.214 12.518 8.909 1.536 11.635 5.722 13.132 13.901 3.648 19.891 8.179 39.591 13.977 59.405 4.186-20.237 8.602-40.512 12.518-60.826 1.306-7.219 3.994-10.944 11.866-12.288 19.699-3.456 39.206-8.294 60.711-12.979-10.983-5.491-21.657-5.683-31.526-8.332-10.023-2.688-20.198-5.108-30.489-6.489-6.912-0.922-9.139-4.685-10.329-10.791-4.109-20.736-8.448-41.395-14.362-62.208-4.263 20.391-8.832 40.743-12.595 61.248-1.344 7.565-4.685 10.752-11.943 12.172-19.891 3.878-39.629 8.448-59.443 12.749 0.115 0.614 0.192 1.306 0.269 1.92z"  horiz-adv-x="1025" />

    
    <glyph glyph-name="jieshao" unicode="&#58891;" d="M351.255992 607.175919c-17.35118 0-31.435966 14.052041-31.435966 31.435966 0 17.383926 14.084787 31.442106 31.435966 31.442106l192.152345 0c17.383926 0 31.435966-14.059204 31.435966-31.442106 0-17.383926-14.052041-31.435966-31.435966-31.435966L351.255992 607.175919 351.255992 607.175919zM672.578232 478.463442c0-17.115819-11.874445-30.944779-26.567076-30.944779L237.171678 447.518662c-14.669094 0-26.573215 13.82896-26.573215 30.944779 0 17.10661 11.904121 30.93557 26.573215 30.93557l408.840502 0C660.703787 509.400035 672.578232 495.571075 672.578232 478.463442L672.578232 478.463442zM672.578232 319.840748c0-17.115819-11.874445-30.944779-26.567076-30.944779L237.171678 288.895969c-14.669094 0-26.573215 13.82896-26.573215 30.944779 0 17.10661 11.904121 30.93557 26.573215 30.93557l408.840502 0C660.703787 350.777341 672.578232 336.948381 672.578232 319.840748L672.578232 319.840748zM672.578232 161.219077c0-17.115819-11.874445-30.944779-26.567076-30.944779L237.171678 130.274298c-14.669094 0-26.573215 13.82896-26.573215 30.944779 0 17.10661 11.904121 30.93557 26.573215 30.93557l408.840502 0C660.703787 192.154647 672.578232 178.325687 672.578232 161.219077L672.578232 161.219077zM884.702444-63.114201 142.315286-63.114201c-41.003879 0-74.238818 33.256428-74.238818 74.237795L68.076468 755.652532c0 40.983413 33.234939 74.239841 74.238818 74.239841l371.19409 0 192.015222 0 74.237795 0c27.334555 0 49.494251-22.159696 49.494251-49.494251l0-472.319256 0-81.093946L829.256644 121.180176c0-13.688767-0.071631-46.403866-32.937157-47.263443-34.728966-0.908696-34.977629 33.574676-34.977629 47.263443L761.341858 233.840048l0 74.237795L761.341858 734.433254c0 18.037818-14.622022 32.660864-32.660864 32.660864L464.016149 767.094118l-74.239841 0L160.465668 767.094118c-18.037818 0-32.660864-14.623046-32.660864-32.660864l0-702.091406c0-18.039865 14.624069-32.664957 32.664957-32.664957l625.25032 0 49.489134 0 11.44568 0c27.331485 0 49.488111 22.156626 49.488111 49.488111l0 545.07428c0 13.898545-2.548032 44.845371 29.364795 45.765323 34.085306 0.982374 33.43346-31.695886 33.43346-45.206598l0-558.930869 0-24.744567C958.941262-29.857772 925.685857-63.114201 884.702444-63.114201L884.702444-63.114201zM884.702444-63.114201"  horiz-adv-x="1024" />

    
    <glyph glyph-name="xuanzhong-copy" unicode="&#58880;" d="M-22.141-142.343h1048.79v1048.79l-1048.79-1048.79zM905.782 325.517l-269.021-315.807c0 0-19.494-27.291-46.785 0l-116.965 155.954c0 0-15.596 19.494 3.899 35.090 7.798 3.899 19.494 11.695 35.090-3.899l105.269-81.875 257.324 237.829c0 0 15.596 15.596 31.19 3.899 7.798-3.899 11.695-15.596 0-31.19z"  horiz-adv-x="1024" />

    
    <glyph glyph-name="hongbao1" unicode="&#58916;" d="M516.042332 543.887116c-1.892155 0-3.78431 0.172014-5.676466 0.516042L154.640685 608.392407c-15.137242 2.752226-26.318159 15.997312-26.318159 31.478582L128.322526 735.854863c0 52.808332 43.003528 95.983874 95.983874 95.983874L799.865614 831.838737c52.808332 0 95.983874-43.003528 95.983874-95.983874l0-95.983874c0-15.48127-11.008903-28.726356-26.146145-31.478582l-347.812531-63.989249C519.826642 544.05913 517.934487 543.887116 516.042332 543.887116zM192.139761 666.533177l323.730556-58.140769 315.817907 58.140769L831.688224 735.854863c0 17.545439-14.277171 31.994625-31.994625 31.994625L224.134386 767.849488c-17.545439 0-31.994625-14.277171-31.994625-31.994625C192.139761 735.854863 192.139761 666.533177 192.139761 666.533177zM799.865614-63.666723 224.134386-63.666723c-52.808332 0-95.983874 43.003528-95.983874 95.983874L128.150512 511.892491c0 17.717453 14.277171 31.994625 31.994625 31.994625s31.994625-14.277171 31.994625-31.994625l0-479.747354c0-17.717453 14.277171-31.994625 31.994625-31.994625L799.865614 0.150512c17.717453 0 31.994625 14.277171 31.994625 31.994625L831.860239 511.892491c0 17.717453 14.277171 31.994625 31.994625 31.994625 17.717453 0 31.994625-14.277171 31.994625-31.994625l0-479.747354C895.677474-20.663195 852.673946-63.666723 799.865614-63.666723zM607.725853 256.107509c17.717453 0 31.994625 14.277171 31.994625 31.994625s-14.277171 31.994625-31.994625 31.994625l-51.776247 0 76.030237 73.278011c12.729044 12.213002 13.073072 32.510667 0.860071 45.067697-12.213002 12.729044-32.510667 12.901058-45.239711 0.688056l-76.202251-73.622039-73.278011 73.105997c-12.55703 12.55703-32.854695 12.55703-45.239711 0-12.55703-12.55703-12.385016-32.510667 0-45.067697l73.966068-73.622039-51.088191 0c-17.717453 0-31.994625-14.277171-31.994625-31.994625s14.277171-31.994625 31.994625-31.994625L479.919368 255.935495l0-31.994625-64.161263 0c-17.717453 0-31.994625-14.277171-31.994625-31.994625 0-17.717453 14.277171-31.994625 31.994625-31.994625L479.919368 159.951621l0-64.333277c0-17.717453 14.277171-31.994625 31.994625-31.994625 17.717453 0 31.994625 14.277171 31.994625 31.994625l0 64.333277 63.817235 0c17.717453 0 31.994625 14.277171 31.994625 31.994625 0 17.717453-14.277171 31.994625-31.994625 31.994625l-63.817235 0L543.908618 256.107509 607.725853 256.107509z"  horiz-adv-x="1024" />

    
    <glyph glyph-name="mairu" unicode="&#58922;" d="M749.614258 172.242132 349.693916 172.242132c-17.141402 0-31.914874 12.065803-35.326577 28.859281L184.569134 716.61647l-104.545054 34.086329c-16.906042 10.511401-22.090111 32.738635-11.57871 49.646724 10.510378 16.903995 32.747845 22.096251 49.646724 11.57564l117.738541-42.279942c8.423857-5.235235 14.3181-13.712303 16.287965-23.430642l127.027092-501.873362 345.793584 0 165.794024 252.170277c7.198959 18.551518 28.093848 27.762297 46.65253 20.568455 18.549471-7.203052 27.765367-28.086685 20.566408-46.64946L783.216563 195.257312C777.845229 181.37514 764.494153 172.242132 749.614258 172.242132L749.614258 172.242132zM721.001593 588.139354 591.079568 441.05853c-7.091512-8.023744-18.685571-8.023744-25.777083 0L435.354877 588.139354c-7.090489 8.024767-4.13211 14.5903 6.574742 14.5903l102.186334 0L544.115953 767.41953c0 10.708899 8.757454 19.465331 19.465331 19.465331l29.196972 0c10.707876 0 19.464307-8.756431 19.464307-19.465331L612.242564 602.727607l102.183264 0C725.137797 602.727607 728.093105 596.161051 721.001593 588.139354L721.001593 588.139354zM412.567895 14.245701m-63.956637 0a62.5 62.5 0 1 0 127.913275 0 62.5 62.5 0 1 0-127.913275 0ZM744.119103 14.245701m-63.956637 0a62.5 62.5 0 1 0 127.913275 0 62.5 62.5 0 1 0-127.913275 0Z"  horiz-adv-x="1024" />

    
    <glyph glyph-name="10003" unicode="&#59124;" d="M972.498 490.317l-98.045 19.647c-4.928 14.176-10.752 27.935-17.183 41.247l55.55 83.325c16.927 25.375 13.568 59.198-8 80.733l-61.566 61.566c-12.384 12.384-28.735 18.751-45.311 18.751-12.256 0-24.639-3.52-35.423-10.752l-83.325-55.518c-13.376 6.464-27.135 12.224-41.311 17.151l-19.647 98.077c-5.952 29.951-32.255 51.454-62.75 51.454h-87.037c-30.495 0-56.766-21.535-62.75-51.454l-19.647-98.077c-14.176-4.928-27.935-10.72-41.247-17.151l-83.293 55.518c-10.848 7.232-23.199 10.752-35.487 10.752-16.543 0-32.895-6.368-45.279-18.751l-61.534-61.566c-21.567-21.567-24.927-55.358-8-80.733l55.518-83.325c-6.464-13.344-12.224-27.103-17.151-41.279l-98.109-19.615c-29.919-5.984-51.454-32.255-51.454-62.75v-87.037c0-30.495 21.535-56.798 51.454-62.75l98.077-19.679c4.928-14.176 10.72-27.935 17.151-41.247l-55.486-83.325c-16.927-25.375-13.568-59.198 8-80.733l61.566-61.566c12.384-12.384 28.735-18.751 45.279-18.751 12.288 0 24.671 3.552 35.455 10.752l83.325 55.55c13.344-6.496 27.103-12.256 41.279-17.183l19.615-98.045c5.984-29.951 32.255-51.486 62.75-51.486h87.037c30.495 0 56.798 21.567 62.75 51.486l19.679 98.045c14.176 4.928 27.935 10.752 41.247 17.183l83.325-55.55c10.816-7.2 23.199-10.752 35.423-10.752 16.575 0 32.927 6.368 45.311 18.751l61.566 61.566c21.567 21.567 24.927 55.358 8 80.733l-55.55 83.325c6.496 13.376 12.256 27.135 17.183 41.311l98.045 19.615c29.919 5.92 51.486 32.255 51.486 62.75v87.037c0 30.495-21.567 56.766-51.486 62.75zM861.877 320.882c-22.239-4.448-40.447-20.319-47.871-41.759-4.128-11.808-8.928-23.263-14.304-34.367-9.952-20.447-8.256-44.575 4.32-63.422l55.55-83.325-61.566-61.566-83.325 55.55c-10.688 7.136-23.071 10.752-35.487 10.752-9.504 0-19.071-2.112-27.871-6.368-11.136-5.376-22.559-10.24-34.431-14.368-21.375-7.424-37.247-25.631-41.695-47.871l-19.679-98.109h-87.037l-19.615 98.109c-4.448 22.239-20.319 40.447-41.727 47.871-11.808 4.128-23.295 8.928-34.399 14.304-8.832 4.32-18.367 6.432-27.903 6.432-12.448 0-24.799-3.616-35.487-10.752l-83.325-55.55-61.566 61.566 55.518 83.325c12.576 18.879 14.208 43.007 4.384 63.358-5.376 11.136-10.208 22.559-14.336 34.431-7.424 21.375-25.663 37.247-47.871 41.695l-98.077 19.679-0.064 87.069 98.109 19.615c22.207 4.448 40.447 20.319 47.871 41.727 4.128 11.808 8.896 23.295 14.304 34.399 9.92 20.415 8.256 44.543-4.352 63.39l-55.486 83.325 61.534 61.566 83.325-55.518c10.688-7.136 23.071-10.752 35.487-10.752 9.504 0 19.039 2.112 27.871 6.368 11.104 5.376 22.559 10.208 34.399 14.336 21.407 7.424 37.279 25.663 41.727 47.871l19.647 98.077 87.037 0.032 19.615-98.109c4.448-22.207 20.319-40.447 41.759-47.871 11.808-4.128 23.263-8.896 34.367-14.304 8.864-4.288 18.367-6.4 27.935-6.4 12.448 0 24.799 3.616 35.487 10.752l83.325 55.518 61.566-61.566-55.55-83.325c-12.576-18.879-14.176-42.975-4.384-63.358 5.376-11.104 10.24-22.559 14.368-34.399 7.424-21.407 25.631-37.279 47.871-41.727l98.045-19.647 0.096-87.037-98.109-19.647zM512 608.041c-123.676 0-223.993-100.317-223.993-223.993 0-123.708 100.317-223.993 223.993-223.993s223.993 100.317 223.993 223.993-100.317 223.993-223.993 223.993zM512 188.022c-108.221 0-195.994 87.805-195.994 195.994s87.773 195.994 195.994 195.994c108.189 0 195.994-87.773 195.994-195.994 0-108.189-87.805-195.994-195.994-195.994zM512 512.044c-70.718 0-127.996-57.278-127.996-127.996s57.278-127.996 127.996-127.996c70.686 0 127.996 57.31 127.996 127.996s-57.31 127.996-127.996 127.996zM512 288.019c-52.99 0-95.997 43.007-95.997 95.997s43.007 95.997 95.997 95.997 95.997-43.007 95.997-95.997-43.007-95.997-95.997-95.997z"  horiz-adv-x="1024" />

    
    <glyph glyph-name="fengxian" unicode="&#58964;" d="M512.966001 232.067682c-36.656875 0-66.478064-29.821189-66.478064-66.481134 0-36.653805 29.821189-66.476017 66.478064-66.476017s66.478064 29.821189 66.478064 66.476017C579.445088 202.246493 549.622876 232.067682 512.966001 232.067682zM512.966001 129.843486c-19.709901 0-35.746132 16.036231-35.746132 35.744086 0 19.712971 16.036231 35.749202 35.746132 35.749202s35.746132-16.036231 35.746132-35.749202C548.713156 145.879718 532.676925 129.843486 512.966001 129.843486zM573.497633 619.577367 455.691553 619.577367l0-363.66051 117.805056 0L573.496609 619.577367zM542.765701 286.648788l-56.342216 0L486.423485 588.845435l56.342216 0L542.765701 286.648788zM976.763163 157.809421 591.013565 767.697869c-16.946974 26.800389-46.122457 42.798758-78.047564 42.798758-31.222095 0-61.128219-16.618493-78.05268-43.378973L49.166793 156.368606c-17.986653-28.445866-19.102057-65.910129-2.840698-95.441723 17.018605-30.896684 48.768727-50.864458 80.889285-50.864458l771.503289 0c32.132838 0 63.885006 19.947308 80.886215 50.814316C995.880569 90.427778 994.740606 129.382998 976.763163 157.809421zM952.683744 75.702402c-11.680017-21.208021-32.862455-34.908044-53.966099-34.908044L127.214357 40.794357c-21.088294 0-42.271756 13.72049-53.968146 34.958186-10.774391 19.562545-10.011005 45.36214 1.90028 64.200184l385.746528 610.745978c11.337209 17.929348 31.289634 29.065989 52.072983 29.065989 21.325701 0 40.793078-10.649548 52.072983-28.490891l385.754714-609.890494C962.77252 122.439866 963.548186 95.429699 952.683744 75.702402z"  horiz-adv-x="1024" />

    
    <glyph glyph-name="iconfont17" unicode="&#58952;" d="M512 883.200088c275.259949 0 499.200073-223.940125 499.200073-499.200073S787.259949-115.200012 512-115.200012 12.799988 108.73999 12.799988 384 236.73999 883.200088 512 883.200088L512 883.200088zM512 896C229.229996 896 0 666.769958 0 384s229.229996-512 512-512 512 229.229981 512 512S794.769959 896 512 896L512 896M745.526245 292.027527c-3.682556 49.252502-37.718811 90.514954-57.393799 111.856201 2.731262 6.208771 9.377564 42.146271-16.284912 66.667511 0.041199 0.588776 0.041199 1.172485 0.041199 1.742493 0 96.733856-70.908752 166.361237-159.881287 166.677551C423.018768 638.653748 352.1138 569.027588 352.1138 472.293732c0-0.570007-0.00882-1.153717 0.033722-1.742493-25.662537-24.52124-19.003754-60.45874-16.286255-66.667511-19.660004-21.341248-53.700012-62.603699-57.391266-111.856201-0.664978-12.946289 1.396271-31.806274 7.910004-40.1875 7.93747-10.222534 29.721222 2.051209 45.301239 34.707459 4.334992-15.128723 14.338806-38.223755 36.976257-67.537476-37.88504-8.396301-48.690002-44.67749-35.946259-64.511292 8.990021-13.974976 29.568756-25.469971 65.036255-25.469971 63.101227 0 90.96875 16.467468 103.40625 27.933777 2.533814 2.501221 6.191284 3.70752 10.853699 3.717468 4.646301-0.009949 8.311279-1.216248 10.837524-3.717468 12.438782-11.466309 40.311279-27.933777 103.398743-27.933777 35.47876 0 56.045044 11.494995 65.033752 25.469971 12.748779 19.83252 1.945007 56.116333-35.929932 64.511292 22.638733 29.313721 32.643799 52.408752 36.976196 67.537476 15.583801-32.65625 37.36377-44.928711 45.308777-34.707459C744.138794 260.221252 746.203735 279.081238 745.526245 292.027527L745.526245 292.027527 745.526245 292.027527z"  horiz-adv-x="1024" />

    
    <glyph glyph-name="maichu" unicode="&#58976;" d="M749.614 172.242h-399.92c-17.141 0-31.915 12.066-35.327 28.86L184.57 716.615 80.024 750.703c-16.906 10.511-22.09 32.738-11.579 49.647 10.51 16.904 32.748 22.096 49.647 11.575l117.739-42.28a36.014 36.014 0 0 0 16.288-23.43L379.146 244.34h345.793l165.794 252.17c7.2 18.552 28.094 27.763 46.653 20.569 18.55-7.203 27.765-28.087 20.566-46.65L783.217 195.257c-5.372-13.882-18.723-23.015-33.603-23.015z m-28.612 461.545L591.08 780.867c-7.092 8.025-18.686 8.025-25.778 0l-129.947-147.08c-7.09-8.025-4.132-14.59 6.575-14.59h102.186v-164.69c0-10.71 8.757-19.466 19.465-19.466h29.197c10.708 0 19.465 8.757 19.465 19.466V619.199h102.183c10.712 0 13.667 6.565 6.576 14.588zM348.61 14.246a62.5 62.5 0 1 1 127.914 0 62.5 62.5 0 1 1-127.914 0z m331.551 0a62.5 62.5 0 1 1 127.914 0 62.5 62.5 0 1 1-127.914 0z"  horiz-adv-x="1024" />

    
    <glyph glyph-name="shouhuodizhi" unicode="&#58978;" d="M512.512 896c-141.312 0-256-114.688-256-256s256-576 256-576 256 434.688 256 576-114.688 256-256 256z m0-745.984c-24.064 43.008-57.344 103.424-90.112 168.448-107.52 211.968-123.392 292.352-123.392 321.536 0 117.76 95.744 213.504 213.504 213.504 117.76 0 213.504-95.744 213.504-213.504 0-29.184-15.872-109.568-123.392-321.536-32.768-64.512-66.048-125.44-90.112-168.448z m0 660.48c-94.208 0-170.496-76.288-170.496-170.496s76.288-170.496 170.496-170.496 170.496 76.288 170.496 170.496-76.288 170.496-170.496 170.496z m0-298.496c-70.656 0-128 57.344-128 128s57.344 128 128 128 128-57.344 128-128-57.344-128-128-128z m256-241.664c-2.56 1.024-4.608 1.536-7.68 1.536-11.776 0-21.504-9.728-21.504-21.504 0-9.728 6.656-18.432 15.872-20.48 36.864-8.704 71.68-19.968 102.4-32.768 77.312-32.256 123.904-73.728 123.904-111.616 0-37.376-46.08-79.36-123.904-111.616-91.648-38.4-214.528-59.392-345.6-59.392s-253.952 20.992-345.6 59.392c-77.312 32.256-123.904 73.728-123.904 111.616 0 37.376 46.08 79.36 123.904 111.616 29.696 12.288 62.976 23.04 98.304 31.744 10.752 1.024 18.944 10.24 18.944 20.992 0 11.776-9.728 21.504-21.504 21.504-1.536 0-2.56 0-3.584-0.512-154.624-36.864-258.56-105.984-258.56-185.344 0-117.76 229.376-213.504 512-213.504s512 95.744 512 213.504c0.512 78.848-102.4 147.456-255.488 184.832z"  horiz-adv-x="1024" />

    
    <glyph glyph-name="gold1" unicode="&#58882;" d="M712.788 497.424l82.447-140.225 101.431 35.154-286.786 223.075-25.65-6.911 128.123-111.358 0.435 0.265zM518.911 441.125l-268.796 209.052-65.63-107.898 323.587-258.25 10.838 157.095zM500.884 255.182l-283.751 226.443-96.275-25.925 299.765-228.331 80.261 27.813zM669.914 498.876l-244.931 212.272-155.411-41.844 268.071-208.498 132.271 38.070zM545.587 434.967l-11.609-168.317 235.215 81.52-76.021 129.276-147.585-42.479zM32.425 308.299l361.045-277.179 4.222 179.707-291.248 220.845-74.019-123.373zM696.923 155.073l10.269 143.002-105.709-36.636 95.44-106.366zM120.443 454.985l0.416 0.713-0.425-0.707 0.009-0.005zM915.213 370.168l-180.764-62.649-11.182-162.196 266.145 83.178-74.199 141.667zM689.95 122.354l-116.174 129.481-149.326-51.75-3.86-164.533 271.42 84.818-1.372 2.606-0.688-0.62z"  horiz-adv-x="1024" />

    
    <glyph glyph-name="guanbi" unicode="&#59159;" d="M1013.388873 831.836125c14.215065 14.215065 14.215065 37.449832 0 51.699711l-1.603457 1.572739c-14.215065 14.249879-37.449832 14.249879-51.664898 0.036861L537.979253 463.036936c-14.215065-14.211994-37.452904-14.211994-51.664897 0L64.059435 885.14646c-14.211994 14.211994-37.449832 14.211994-51.661826 0l-1.607552-1.64339c-14.211994-14.215065-14.211994-37.449832 0-51.664897L433.008116 409.767558c14.211994-14.211994 14.211994-37.452904 0-51.661826l-422.217035-422.146385c-14.211994-14.208922-14.211994-37.449832 0-51.658754l1.607552-1.64339c14.211994-14.215065 37.449832-14.215065 51.661826 0l422.253897 422.139218c14.211994 14.215065 37.450856 14.215065 51.664897 0l422.140242-422.140242c14.215065-14.215065 37.449832-14.215065 51.664897 0.03379l1.603457 1.569667c14.215065 14.248855 14.181276 37.489765 0 51.698687L591.282421 358.105732c-14.208922 14.208922-14.208922 37.449832 0 51.661826l422.106452 422.068567z"  horiz-adv-x="1024" />

    
    <glyph glyph-name="jieshao1" unicode="&#58903;" d="M738.45248 642.25792a24.96 24.96 0 0 0-24.96-24.96h-358.4a24.96 24.96 0 0 0 0 49.92h358.4a24.95488 24.95488 0 0 0 24.96-24.96zM596.37248 513.29536a24.96 24.96 0 0 0-24.96-24.96h-216.32a24.96 24.96 0 0 0 0 49.92h216.32a24.96 24.96 0 0 0 24.96-24.96zM738.45248 384.32768a24.96512 24.96512 0 0 0-24.96-24.96h-358.4a24.96 24.96 0 1 0 0 49.92h358.4a24.95488 24.95488 0 0 0 24.96-24.96zM675.11808-57.2672H272.34304c-32.06656 0-58.05568 25.98912-58.05568 58.05056V767.87712c0 32.06656 25.98912 58.05568 58.05568 58.05568h523.88864c32.06656 0 58.05568-25.98912 58.05568-58.05568v-649.76384l46.93504 45.94176V881.85344H167.36256v-995.0464h450.63168l57.12384 55.92576zM900.58752 164.70528l-46.72-46.16192-117.30944 1.9712c-32.06144 0.53248-58.48576-25.02144-59.01312-57.07264l-2.03776-121.10336-56.86784-56.18688 4.75136 283.20256 277.1968-4.64896zM616.83712-113.37728l44.90752 0.19456 239.48288 236.67712v43.63264z"  horiz-adv-x="1024" />

    
    <glyph glyph-name="yanjing1" unicode="&#59062;" d="M941.677063 504.289644c9.337669 14.005992 6.224772 32.68133-6.224772 43.575447-14.005992 10.894118-32.68133 7.78122-43.575447-6.224771-1.556449-1.556449-174.300768-205.426673-379.727441-205.426673-199.200878 0-379.727441 205.426673-381.28389 206.982098-10.894118 12.450567-31.124881 14.005992-43.575448 3.112898-12.450567-10.894118-14.005992-31.124881-3.112897-43.575448 3.112897-4.668323 40.46255-46.687322 99.600439-93.375667l-79.369676-82.48155c-12.450567-12.450567-10.894118-32.68133 1.556449-43.575448 3.112897-6.224772 10.894118-9.337669 18.675338-9.337669 7.78122 0 15.562441 3.112897 21.787213 9.337669l85.594447 88.706321c40.46255-28.013007 88.706321-54.469566 141.619438-73.14388L340.959485 188.368414c-4.668323-17.118889 4.669346-34.237779 21.787213-38.906101h9.337669c14.005992 0 26.456558 9.337669 29.568432 23.343661l32.68133 110.494556c24.90011-4.668323 51.356668-7.78122 77.813227-7.78122s52.913117 3.112897 77.813227 7.78122l32.68133-108.938108c3.112897-14.005992 17.118889-23.343661 29.569456-23.343661 3.112897 0 6.224772 0 7.78122 1.556449 17.118889 4.669346 26.456558 21.787212 21.788236 38.906102l-32.68133 108.938108c52.913117 18.675338 101.156888 45.131897 141.619438 73.14388l84.037998-87.150896c6.224772-6.224772 14.005992-9.337669 21.787212-9.337669 7.78122 0 15.562441 3.112897 21.787212 9.337669 12.450567 12.450567 12.450567 31.124881 1.556449 43.575448l-79.369675 82.48155c63.808258 46.688345 101.158934 91.820242 101.158934 91.820242z"  horiz-adv-x="1024" />

    
    <glyph glyph-name="dfgfdg" unicode="&#58949;" d="M599.184194 325.481474h-174.318922a23.991112 23.991112 0 0 1-23.991111-23.892179c0-13.454809 10.536303-23.991112 23.991111-23.991111h174.318922a23.991112 23.991112 0 0 1 0 47.88329zM599.184194 450.828849h-174.318922c-13.454809 0-23.991112-10.387904-23.991111-23.644848a23.991112 23.991112 0 0 1 23.991111-23.966379h174.318922a23.991112 23.991112 0 0 1 23.966378 23.966379 23.570649 23.570649 0 0 1-23.966378 23.644848zM819.481957 655.81682a23.991112 23.991112 0 0 1 0 47.883291h-174.393121a23.991112 23.991112 0 0 1-23.941645-23.916912c0-13.430076 10.511569-23.966378 23.941645-23.966379h174.393121zM511.67847 670.582484m-34.057486 0a34.057485 34.057485 0 1 1 68.114971 0 34.057485 34.057485 0 1 1-68.114971 0ZM269.368243 58.73494m-34.032752 0a34.032752 34.032752 0 1 1 68.065504 0 34.032752 34.032752 0 1 1-68.065504 0ZM390.535723 58.73494m-34.032752 0a34.032752 34.032752 0 1 1 68.065504 0 34.032752 34.032752 0 1 1-68.065504 0ZM511.67847 58.73494m-34.032752 0a34.032752 34.032752 0 1 1 68.065504 0 34.032752 34.032752 0 1 1-68.065504 0ZM632.821216 58.73494m-34.032752 0a34.032752 34.032752 0 1 1 68.065504 0 34.032752 34.032752 0 1 1-68.065504 0ZM753.93923 18.988841c18.79716 0 34.082218 15.260326 34.082218 34.008019a34.057485 34.057485 0 0 1-68.090237 0c0-18.747693 15.260326-34.008019 34.008019-34.008019zM954.821506 564.007536V780.991063a72.121733 72.121733 0 0 1-72.022801 72.022801H356.676103v-49.466209h526.097869c12.440752 0 22.556591-10.11584 22.556592-22.556592v-216.018936H118.61997V781.015796c0 12.416019 10.11584 22.556591 22.531858 22.556592h60.422975v49.466209H141.151828a72.097 72.097 0 0 1-71.998067-72.022801v-217.00826A71.899135 71.899135 0 0 1 6.801604 492.974059v-258.807207a71.874402 71.874402 0 0 1 62.352157-71.033477v-219.085841a72.121733 72.121733 0 0 1 72.022801-72.022801h741.646876a72.097 72.097 0 0 1 71.973335 72.022801v219.061108a71.923868 71.923868 0 0 1 62.401623 71.05821V492.974059a71.899135 71.899135 0 0 1-62.37689 71.033477zM905.330564-55.977199a22.556591 22.556591 0 0 0-22.507126-22.556592H141.151828a22.581325 22.581325 0 0 0-22.556591 22.556592v218.096517h786.735327v-218.096517z m62.401623 290.144051a22.581325 22.581325 0 0 0-22.581325-22.556592H78.824405A22.581325 22.581325 0 0 0 56.267813 234.166852V492.974059c0 12.416019 10.11584 22.531858 22.556592 22.531859h866.326457c12.465485 0 22.581325-10.11584 22.581325-22.531859v-258.807207zM165.167673 688.810782l90.1027-90.1027a33.785421 33.785421 0 0 1 47.734892 0l90.102701 90.1027c18.327231 18.351964 16.348582 47.734892-13.331144 47.734892h-23.100719V866.320274a29.679726 29.679726 0 0 1-29.704459 29.704459H231.279262A29.679726 29.679726 0 0 1 201.574803 866.320274v-129.7746H175.629776c-27.206415 0-31.213178-26.983817-10.462103-47.734892z"  horiz-adv-x="1024" />

    
    <glyph glyph-name="guanbi1" unicode="&#58897;" d="M512 384m-512 0a512 512 0 1 1 1024 0 512 512 0 1 1-1024 0ZM682.375529 256.210824l-42.586353-42.586353L512 341.413647l-127.789176-127.789176-42.586353 42.586353L469.413647 384l-127.789176 127.789176 42.586353 42.586353L512 426.586353l127.789176 127.789176 42.586353-42.586353L554.586353 384l127.789176-127.789176z"  horiz-adv-x="1024" />

    
    <glyph glyph-name="maimaiyixiangchengjiaoguanli" unicode="&#58913;" d="M146.026627 167.93642h184.287407v44.990334H146.026627V851.011665H877.321513v-403.344344h48.600558V851.011665c0 24.847662-21.759325 44.990334-48.600558 44.990335H146.026627c-26.841233 0-48.600558-20.142672-48.600558-44.990335V212.926754c0-24.847662 21.759325-44.990334 48.600558-44.990334zM876.552678 311.892492h-225.731503c-22.466173 0-40.654266-6.485607-52.421737-10.808678l-2.139541-1.081768-2.14054-1.079768c-22.466173-10.808678-60.979899-41.072176-179.730386-172.930846l-6.418621-6.484607c-11.767472-12.970213-20.325633-28.100963-25.675484-42.151944h-208.61518c-19.256863-1.080768-37.442956-10.808678-51.351967-25.939427-17.118322-20.535588-26.746254-50.797087-24.605714-81.060585 3.20931-63.7673 55.630048-98.354869 106.983015-98.354869h119.819258c190.429088 0 207.54741 2.162535 213.966031 2.162535 16.046552 2.161536 44.932347 4.322071 249.267446 177.251919h140.14889V311.892492h-51.353967z m6.363633-215.486704h-95.158556a44.985335 44.985335 0 0 1-29.063756-10.647713c-85.83056-72.638394-149.575865-122.596661-189.464294-148.487098-15.968569-10.364773-25.007627-14.841811-29.777603-16.772397-2.237519-0.904806-3.203312-1.190744-4.629005-1.421694-0.785831-0.027994-1.62765-0.062986-2.565449-0.101978-31.703189-1.316717-101.595173-1.984574-207.73437-1.984574H204.70502c-15.858593 0-31.432247 5.403839-42.729819 14.825815-11.959431 9.973857-18.459034 23.700908-19.31985 40.800234a46.090098 46.090098 0 0 1-0.054988 0.912804c-1.235735 17.471246 4.086122 36.25821 13.601078 48.237637 5.908731 6.137681 12.778255 9.946863 19.110894 10.597723h206.982531a44.990334 44.990334 0 0 1 42.045967 28.980773c3.805182 9.994853 9.603937 19.650778 16.374482 27.288138l5.648786 5.706774c0.497893 0.502892 0.983789 1.017781 1.457687 1.543668 88.461994 98.225897 142.696343 151.379477 165.804378 162.496089 0.252946 0.121974 0.504892 0.245947 0.755838 0.37192l1.959579 0.988787c8.651141 3.139326 20.812529 7.161461 34.481592 7.161462h232.095136v-170.49637zM595.184128 764.256304l-53.956407-105.492335c-10.960645-21.769323-18.52702-37.662908-22.918077-48.154655-11.516526 25.870442-36.833087 76.723516-75.418796 151.481456l-1.11776 2.165534h-58.877351l92.405148-168.390822H402.29357v-45.233282h88.809919v-43.271703H402.29357v-45.699182h88.809919v-74.664959h52.059816v74.664959h85.669594v45.699182H543.163305v43.271703h85.669594v45.233282h-70.735803l93.311953 168.390822h-56.224921z"  horiz-adv-x="1024" />

    
    <glyph glyph-name="gongsizixun" unicode="&#59016;" d="M361.813633 0.380566l3.811796-0.02353c-1.256276 0.009207-2.533013 0.016368-3.811796 0.02353zM374.423453 0.306908c1.060878-0.006138 2.044006-0.013299 2.918693-0.017392l-2.918693 0.017392zM381.454711 0.265987l0.260872-0.001023a7.77909 7.77909 0 0 0-0.260872 0.001023zM377.453656 0.289516l1.46702-0.01023c-0.431717 0.004092-0.924816 0.005115-1.46702 0.01023zM341.464622 0.50026l0.721233-0.004092-0.721233 0.004092zM341.377664 0.50026l-0.223019 0.001023c0.076727 0.001023 0.14527-0.001023 0.223019-0.001023zM735.8156 447.226081H447.942199c-17.668683 0-32.007417-14.308043-32.007417-31.960358 0-17.650269 14.338734-31.959335 32.007417-31.959335h287.872378c17.668683 0 31.991049 14.309066 31.991048 31.959335 0.001023 17.652315-14.321342 31.960358-31.990025 31.960358zM342.185855 0.496168c0.26701-0.003069 0.58824-0.003069 0.947322-0.006139l-0.947322 0.006139zM735.8156 287.426338H447.942199c-17.668683 0-32.007417-14.277352-32.007417-31.962404 0-17.620601 14.338734-31.928644 32.007417-31.928644h287.872378c17.668683 0 31.991049 14.308043 31.991048 31.928644 0.001023 17.685052-14.321342 31.962404-31.990025 31.962404zM735.8156 895.623526H351.969053c-67.682382 0-127.947826-62.108936-127.947825-127.964194l-36.967048-0.861388c-67.680336 0-122.974896-61.249594-122.974895-127.104852v-639.727875c0-65.853212 60.267489-127.965217 127.949871-127.965217h479.820715c67.679313 0 127.949872 62.112005 127.949872 127.965217h31.989002c67.682382 0 127.948849 62.077222 127.948849 127.934526V638.957536L735.8156 895.623526zM265.424116 697.039842c0.467523-0.075704 0.502306-0.080819 0 0z m-0.294631 0.047059z m-3.912052 0.626092l1.960118-0.313046c-0.575964 0.092072-1.232746 0.198467-1.960118 0.313046l-1.744259 0.279286c0.634276-0.100257 1.214332-0.194375 1.744259-0.279286z m-7.095709 1.138628l-2.737618 0.438878 2.737618-0.438878z m-8.292649 1.329934l-6.116673 0.981082c2.198483-0.352944 4.235328-0.681335 6.116673-0.981082z m-10.051232 1.611266c-1.143743 0.183122-2.242473 0.358059-3.275729 0.524813l3.275729-0.524813z m-5.760659 0.923793l-1.579553 0.251664-1.989785 0.320207 1.989785-0.320207 1.579553-0.251664z m-5.092624 0.815352l-0.346806 0.05422-0.512536 0.082865 0.512536-0.082865c0.116625-0.017391 0.231204-0.034783 0.346806-0.05422z m423.415149-771.480335c-0.989266-0.16573-1.866-0.313046-2.612809-0.436832l-1.898736-0.317138c-0.480822-0.078773-0.878779-0.147316-1.197964-0.19949l1.197964 0.19949 1.898736 0.317138c0.786707 0.130947 1.667533 0.280309 2.612809 0.436832l1.398476 0.23325 3.770874 0.631207-3.770874-0.631207c-0.489006-0.079796-0.959598-0.158569-1.398476-0.23325z m10.890112 1.823032l2.301809 0.383635c0.724302 0.122763 1.469065 0.246549 2.242473 0.374428l-2.242473-0.374428-2.301809-0.383635z m10.95354 1.830194l-3.204117-0.535043c1.281852 0.212789 2.379559 0.397957 3.204117 0.535043 0.44297 0.075704 0.800006 0.134016 1.072132 0.17903l-1.072132-0.17903z m44.88527 18.7357c-11.651244-11.17656-27.062109-18.457437-43.220806-18.457437l-0.305885-0.051151 0.305885 0.051151H192.02711l-0.051151 0.001023c-6.782663 0.007161-13.427217 1.311519-19.724966 3.627651-18.78992 5.82818-44.190635 20.982265-44.190634 60.353423v639.728898c0 13.270694 4.533029 26.164915 12.169918 36.791087 12.061477 18.217025 36.052462 34.845291 83.788905 27.192033v-575.776469c0-3.444529 0.172891-6.876781 0.495144-10.290619 2.438894-9.755577 14.216993-51.800926 42.613129-82.733142 20.38891-18.840048 46.32569-31.680049 74.02719-34.373676l394.658908-0.536066c0.002046 0 1.79848-26.12604-20.744922-45.526706z m180.68482 173.460209c0-32.575196-30.392059-63.952429-63.965729-63.952429h-479.819692c-33.572647 0-63.967775 31.378256-63.967774 63.952429V767.659332c0 32.574173 30.396151 63.981074 63.967774 63.981074h319.879795c-0.522766-73.68243 0-128.762154 0-128.762154 0-66.470096 59.807128-127.13452 127.949872-127.13452h95.953708v-447.842966h0.002046z m-95.955754 511.793349c-34.079045 0-63.984143 61.895124-63.984144 95.114827V830.690015l159.937852-190.994877h-95.953708v-0.001023z"  horiz-adv-x="1024" />

    
    <glyph glyph-name="circle-checked" unicode="&#59007;" d="M512-128c282.766 0 512 229.234 512 512s-229.234 512-512 512-512-229.234-512-512 229.234-512 512-512zM512-71.111c-251.364 0-455.111 203.748-455.111 455.111s203.748 455.111 455.111 455.111 455.111-203.748 455.111-455.111-203.748-455.111-455.111-455.111zM284.444 384c0-0 0-0 0-0 0-125.675 101.88-227.556 227.556-227.556 125.675 0 227.556 101.88 227.556 227.556 0 0 0 0 0 0 0 125.675-101.88 227.556-227.556 227.556-125.675 0-227.556-101.88-227.556-227.556z"  horiz-adv-x="1024" />

    
    <glyph glyph-name="lock" unicode="&#58883;" d="M758.256 525.171h-0.004l-1.643 94.109c-2.56 146.59-116.087 255.44-264.546 254.274l-2.894-0.051c-150.893-4.058-266.7-119.301-264.182-263.495l1.685-96.492c-77.998-12.909-137.295-81.995-135.85-164.745l5.339-305.869c1.585-90.804 75.465-163.434 164.676-161.875l508.508 8.877c89.205 1.557 160.511 76.72 158.925 167.523l-5.339 305.869c-1.589 90.802-75.472 163.434-164.676 161.875v0zM271.216 610.814c-2.064 118.279 94.55 212.725 220.222 215.655 122.802 1.456 216.848-87.734 218.946-207.99l1.643-94.116-439.167-7.666-1.643 94.116zM882.039 56.617c1.132-64.884-49.774-118.546-113.518-119.659l-508.508-8.877c-63.748-1.113-116.492 50.735-117.623 115.627l-5.339 305.869c-1.132 64.884 49.77 118.546 113.518 119.659l508.508 8.877c63.744 1.111 116.492-50.739 117.623-115.623l5.339-305.87zM506.465 379.564c-76.477-1.334-137.578-65.747-136.22-143.595 1.221-69.952 52.58-126.867 118.452-136.817-0.066-0.802-0.431-1.507-0.416-2.334l1.232-70.586c0.226-13.004 10.747-23.345 23.522-23.123 12.771 0.222 22.933 10.926 22.705 23.929l-1.232 70.586c-0.015 0.826-0.414 1.518-0.51 2.317 65.479 12.24 114.831 70.916 113.611 140.866-1.359 77.846-64.669 140.087-141.145 138.754v0zM510.572 144.281c-50.967-0.89-93.189 40.615-94.096 92.495-0.907 51.886 39.844 94.841 90.812 95.731 50.966 0.89 93.19-40.615 94.096-92.502 0.906-51.881-39.846-94.833-90.812-95.724v0z"  horiz-adv-x="1024" />

    
    <glyph glyph-name="fengxianpinggu" unicode="&#59094;" d="M919.411455 509.21584c-22.626323 22.626323-52.854788 35.115776-85.074607 35.115775-32.219819 0-62.449307-12.489452-85.076654-35.115775L401.717779 161.579281c-4.344958-4.342912-7.241938-9.773598-8.417716-15.747659l-31.587416-158.023036c-1.990331-10.136871 1.176802-20.635993 8.417717-27.876908a30.842449 30.842449 0 0 1 21.811771-9.05012c1.990331 0 4.071735 0.182149 6.064113 0.63138l158.023036 31.496342c5.974062 1.176802 11.494799 4.16281 15.748683 8.41874L919.411455 339.062532c22.627347 22.626323 35.117822 52.855812 35.117822 85.076654 0 32.220842-12.490475 62.449307-35.117822 85.076654z m-43.62252-43.624567c22.806425-22.807449 22.806425-59.914578 0-82.722026l-7.783267-7.782244-82.72305 82.721003 7.783267 7.783267c22.807449 22.808472 59.915601 22.808472 82.72305 0zM534.760888 41.749102l-103.44807-20.723997 20.635993 103.538121 289.61919 289.62226 82.72305-82.724073-289.530163-289.712311zM837.866231 148.276301c-17.016559 0-30.863938-13.846356-30.863939-30.862915v-104.804975h-101.999068c-17.015535 0-30.862915-13.848403-30.862915-30.864961 0-17.014512 13.847379-30.860868 30.862915-30.860868h132.771932c17.015535 0 30.861892 13.846356 30.861892 30.860868v135.669936c0.091074 17.016559-13.755282 30.862915-30.770817 30.862915zM244.054947 12.608411h-112.860441V755.392612h675.719782v-98.832959c0-17.015535 13.847379-30.862915 30.861892-30.862915 17.015535 0 30.861892 13.847379 30.861891 30.862915V786.255527c0 17.014512-13.846356 30.861892-30.861891 30.861891H100.331591c-17.014512 0-30.862915-13.847379-30.862915-30.861891V-18.255527c0-17.014512 13.848403-30.860868 30.862915-30.860868h143.723356c17.015535 0 30.863938 13.846356 30.863938 30.860868 0 17.015535-13.759375 30.863938-30.863938 30.863938zM478.648916 401.785062L696.946734 620.08595c12.038174 12.038174 12.038174 31.587416 0 43.624566-12.036128 12.037151-31.585369 12.037151-43.623543 0L456.836121 467.311451l-81.182974 81.183997c-12.038174 12.037151-31.587416 12.037151-43.62559 0L222.243175 438.803163c-12.037151-12.038174-12.037151-31.587416 0-43.624566 6.063089-6.065136 13.93743-9.05012 21.811772-9.05012s15.839757 2.984984 21.811771 9.05012l87.881537 87.881536 81.182974-81.183997c12.127202-12.128225 31.67849-12.128225 43.717687-0.091074z"  horiz-adv-x="1024" />

    
    <glyph glyph-name="shouye1" unicode="&#58911;" d="M849.92-43.52c2.56-23.04-15.36-43.52-40.96-43.52H640V256h-256v-340.48h-171.52c-23.04 0-43.52 17.92-43.52 43.52v384h-76.8L512 829.44l212.48-248.32V768h84.48v-286.72l120.32-140.8h-76.8v-43.52h171.52l-171.52 199.68V811.52h-171.52v-112.64L512 896l-512-596.48h128v-340.48c0-48.64 38.4-87.04 84.48-87.04h212.48V212.48h171.52V-128h212.48c46.08 0 84.48 38.4 84.48 84.48v84.48h-43.52v-84.48zM852.48 212.48h43.52V128h-43.52zM384 427.52v-84.48h256v84.48c0 71.68-56.32 128-128 128s-128-58.88-128-128z m212.48 0V384h-171.52v43.52c0 46.08 38.4 84.48 84.48 84.48 48.64 0 87.04-38.4 87.04-84.48z"  horiz-adv-x="1024" />

    
    <glyph glyph-name="arrow" unicode="&#58884;" d="M512.133 271.019l-292.16 292.155c-12.27 12.28-32.186 12.28-44.457 0-12.281-12.27-12.281-32.186 0-44.457l314.388-314.388c12.27-12.28 32.186-12.28 44.457 0l314.387 314.388c6.14 6.136 9.211 14.183 9.211 22.228s-3.071 16.092-9.211 22.228c-12.27 12.28-32.186 12.28-44.457 0l-292.159-292.155z"  horiz-adv-x="1024" />

    
    <glyph glyph-name="youhuiquan" unicode="&#58957;" d="M860.821333 456.298667c20.778667 6.058667 36.245333 26.645333 36.245334 48.554666v147.754667c0 30.592-22.016 52.8-52.352 52.8H178.282667c-30.336 0-52.352-22.208-52.352-52.8v-144.597333c0-23.445333 13.248-42.730667 33.152-48.554667 31.210667-12.629333 50.56-42.112 50.56-77.226667 0-33.472-20.757333-65.066667-50.581334-77.205333-19.882667-5.824-33.130667-25.130667-33.130666-48.533333v-147.776c0-30.592 22.016-52.778667 52.352-52.778667h663.338666c15.893333 0 29.717333 5.973333 38.912 16.832 8.533333 10.069333 12.16 23.317333 10.304 37.482667V197.12a21.333333 21.333333 0 1 1-42.666666 0v-88.426667l0.298666-3.456c0.362667-2.24 0.192-4.096-0.448-4.885333-0.746667-0.874667-3.029333-1.770667-6.4-1.770667H178.282667c-4.8 0-9.685333 1.194667-9.685334 10.112v147.776c0 4.608 1.770667 7.445333 2.517334 7.594667l2.496 0.810667c47.061333 18.368 78.677333 65.514667 78.677333 117.333333 0 53.44-30.144 98.410667-78.677333 117.354667l-2.517334 0.832c-0.704 0.170667-2.474667 3.072-2.474666 7.594666V652.586667c0 8.917333 4.885333 10.133333 9.685333 10.133333h666.410667c4.8 0 9.685333-1.194667 9.685333-10.133333v-147.754667c0-3.008-2.901333-6.912-5.632-7.616l-2.496-0.810667c-49.28-19.221333-78.677333-61.930667-78.677333-114.218666 0-51.861333 29.44-97.834667 75.008-117.098667a21.333333 21.333333 0 0 1 16.64 39.296c-29.76 12.586667-48.96 43.114667-48.96 77.802667-0.021333 34.24 18.389333 61.184 50.538666 74.112zM634.624 546.261333a22.570667 22.570667 0 0 1-33.002667 0l-89.664-90.666666-89.642666 90.666666a22.549333 22.549333 0 0 1-32.981334 0 23.36 23.36 0 0 1 0-33.450666l89.6-90.624h-68.394666c-14.144 0-23.573333-9.557333-23.573334-23.893334s9.429333-23.893333 23.573334-23.893333h77.866666v-40.469333h-77.866666c-14.144 0-23.573333-9.536-23.573334-23.829334 0-14.378667 9.429333-23.914667 23.573334-23.914666h77.866666v-54.784c0-14.378667 9.408-23.914667 23.552-23.914667s23.573333 9.536 23.573334 23.914667v54.784h73.173333c14.122667 0 23.552 9.536 23.552 23.914666 0 14.293333-9.408 23.829333-23.552 23.829334h-73.173333V374.4h73.173333c14.122667 0 23.552 9.557333 23.552 23.893333s-9.408 23.893333-23.552 23.893334h-63.701333l89.621333 90.624a23.36 23.36 0 0 1 0 33.450666z"  horiz-adv-x="1024" />

    
    <glyph glyph-name="wenti1" unicode="&#58890;" d="M512 832.697c-247.389 0-448.698-201.255-448.698-448.722 0-247.416 201.255-448.671 448.698-448.671s448.698 201.255 448.698 448.671S759.389 832.697 512 832.697z m0-854.6c-223.891 0-405.98 182.116-405.98 405.929 0 223.891 182.113 406.004 405.98 406.004s405.98-182.164 405.98-406.004c0-223.816-182.116-405.929-405.98-405.929z m30.842 191.62c0-16.874-13.688-30.56-30.56-30.56-16.874 0-30.56 13.688-30.56 30.56 0 16.874 13.688 30.56 30.56 30.56 16.872 0.002 30.56-13.686 30.56-30.56z m73.175 382.965c25.744-23.474 38.615-51.894 38.615-85.157 0-19.244-4.536-37.035-13.586-53.27-9.047-16.235-26.763-35.99-53.066-59.26-17.664-15.727-29.235-27.222-34.638-34.665-5.404-7.443-9.456-15.931-12.108-25.564-2.625-9.66-4.13-25.258-4.536-46.95h-52.174v-0.024c-0.204 7.239-0.306 12.616-0.306 16.235 0 21.284 3.034 39.609 9.047 55.081 4.436 11.673 11.573 23.372 21.41 35.251 7.188 8.615 20.239 21.284 39.024 37.825 18.785 16.541 31.046 29.745 36.651 39.558 5.608 9.813 8.437 20.545 8.437 32.191 0 21.08-8.233 39.609-24.699 55.514-16.466 15.931-36.702 23.933-60.611 23.933-23.119 0-42.412-7.239-57.911-21.69-15.496-14.451-25.642-36.984-30.458-67.697l-55.769 6.626c5.046 41.138 19.957 72.617 44.758 94.511 24.801 21.894 57.629 32.803 98.436 32.803 43.282-0.002 77.743-11.777 103.484-35.251z"  horiz-adv-x="1024" />

    
    <glyph glyph-name="anquan2" unicode="&#58948;" d="M905.6 790.4s-115.2-28.8-204.8-28.8c-92.8 0-188.8 38.4-188.8 38.4s-92.8-38.4-185.6-38.4-204.8 28.8-204.8 28.8-19.2-64-19.2-166.4c0-256 96-419.2 208-512 60.8-54.4 201.6-144 201.6-144s153.6 92.8 220.8 147.2c112 92.8 195.2 252.8 195.2 512-3.2 96-22.4 163.2-22.4 163.2zM694.4 160c-44.8-38.4-134.4-92.8-182.4-121.6-44.8 28.8-124.8 83.2-169.6 121.6-83.2 70.4-182.4 208-182.4 464 0 38.4 3.2 70.4 6.4 92.8 44.8-9.6 105.6-19.2 160-19.2 76.8 0 150.4 22.4 185.6 35.2 38.4-12.8 112-35.2 185.6-35.2 54.4 0 115.2 9.6 160 19.2 3.2-22.4 6.4-54.4 6.4-92.8 0-208-57.6-371.2-169.6-464zM512 384h-364.8l-19.2 352h384zM752 140.8l-240-108.8v352h355.2z"  horiz-adv-x="1024" />

    
    <glyph glyph-name="shaixuan" unicode="&#59081;" d="M552.384 43.370667a25.386667 25.386667 0 0 0-25.386667 25.429333V449.770667c0 6.314667 2.304 12.373333 6.570667 16.981333l165.482667 186.133333h-446.08l165.824-186.218666c4.16-4.629333 6.4-10.666667 6.4-16.896v-229.141334l40.298666-32.64c10.901333-8.789333 12.586667-24.789333 3.712-35.733333a25.344 25.344 0 0 0-35.690666-3.733333l-49.706667 40.277333a25.386667 25.386667 0 0 0-9.386667 19.733333V440.085333L177.301333 661.418667a25.386667 25.386667 0 0 0 18.986667 42.304h559.808A25.408 25.408 0 0 0 774.954667 661.333333l-197.184-221.333333v-371.2a25.386667 25.386667 0 0 0-25.386667-25.429333z m274.858667 391.914666h-172.16a25.770667 25.770667 0 0 1 0-51.562666h172.16a25.770667 25.770667 0 0 1 0 51.562666z m0-134.570666h-172.16a25.770667 25.770667 0 0 1 0-51.562667h172.16a25.770667 25.770667 0 0 1 0 51.562667z m0-134.677334h-172.16a25.770667 25.770667 0 0 1 0-51.541333h172.16a25.770667 25.770667 0 0 1 0 51.541333z"  horiz-adv-x="1024" />

    
    <glyph glyph-name="zhanghu" unicode="&#58885;" d="M740.205227 804.686507C679.840427 863.228587 599.483733 895.535787 513.989973 895.535787c-85.282133 0-165.71392-32.3072-226.075306-90.852694-60.368213-58.65472-93.637973-136.43776-93.637974-219.327146 0-82.855253 33.26976-160.709973 93.637974-219.327147a316.084907 316.084907 0 0 1 71.717546-52.292267c-67.11296-20.954453-129.870507-55.190187-184.275626-101.45792-93.70624-79.680853-155.0336-187.845973-172.670294-304.718506-2.532693-16.95744 9.458347-32.699733 27.09504-35.160747 1.501867-0.29696 2.92864-0.39936 4.49536-0.39936 15.639893 0 29.344427 11.103573 31.66208 26.555733 32.273067 214.72256 225.04448 376.654507 448.047787 376.654507 85.49376 0 165.850453 32.201387 226.218667 90.815147 60.470613 58.617173 93.70624 136.471893 93.70624 219.327146 0.068267 82.8928-33.163947 160.679253-93.70624 219.333974m-226.215254-467.510614c-140.939947 0-255.778133 111.346347-255.778133 248.17664 0 136.86784 114.773333 248.13568 255.778133 248.13568 141.21984 0 255.952213-111.26784 255.952214-248.13568 0-136.762027-114.732373-248.17664-255.952214-248.17664m507.374934-429.513386a484.72064 484.72064 0 0 1-47.796907 152.108373c-23.739733 46.65344-54.76352 89.388373-92.245333 126.83264-12.386987 12.356267-32.62464 12.63616-45.370027 0.713387-12.602027-11.88864-12.854613-31.556267-0.607573-43.874987 67.25632-67.25632 109.735253-151.64416 122.446506-244.10112 2.177707-15.530667 15.854933-26.845867 31.70304-26.845867 1.39264 0 2.89792 0.07168 4.283734 0.249174 17.629867 2.245973 29.914453 17.954133 27.5968 34.914986l-0.01024 0.003414m0 0z"  horiz-adv-x="1024" />

    
    <glyph glyph-name="jiaoyi1" unicode="&#58939;" d="M642.3 410.4c12.4 0 24.8 12.4 24.8 31s-6.2 31-24.8 31h-80.7l93.1 80.7c12.4 12.4 12.4 31 0 43.4-12.4 12.4-31 12.4-43.4 0l-99.3-93-105.5 86.9c-12.4 12.4-31 12.4-43.4 0-12.4-12.4-12.4-31 0-43.4l93.1-74.5h-80.7c-12.4 0-24.8-18.6-24.8-31 0-12.4 12.4-31 24.8-31H481v-62.1H375.4c-12.4 0-24.8-18.6-24.8-31 0-12.4 12.4-31 24.8-31H481v-99.3c0-12.4 12.4-24.8 31-24.8 12.4 0 31 12.4 31 24.8v99.3h105.5c12.4 0 24.8 18.6 24.8 31 0 12.4-12.4 31-31 31H543v62.1h99.3v-0.1zM513.5-61c-26.2 0-52.4 2.4-78.4 7.2-13.5 2.5-22.5 15.4-20 29 2.5 13.5 15.4 22.5 29 20 44.3-8.2 89.3-8.5 133.5-0.9 45.6 7.8 89.2 23.8 129.5 47.5 0.1 0 0.1 0.1 0.2 0.1 46.6 26.8 86.4 61.8 118.4 104.1 30.9 40.9 53.3 86.8 66.6 136.5 13.2 49.5 16.7 100.3 10.4 150.9-6.6 52.3-23.5 102.1-50.1 148-25.2 43.2-55.7 79-93.2 109.4-10.7 8.7-12.3 24.3-3.7 35.1 8.7 10.7 24.3 12.3 35.1 3.7 42.2-34.3 76.6-74.5 104.9-123.1 30.1-51.8 49.1-107.9 56.5-166.9 7.2-56.9 3.2-114.2-11.7-169.9-15.1-56-40.4-107.7-75.2-153.8-36.1-47.7-80.8-87.1-133.1-117.2C686.6-28 637.5-46 586-54.8c-24-4.1-48.3-6.2-72.5-6.2zM222.4 56.3c-6 0-12.2 2.2-17 6.7-32.8 30.5-57.9 63.1-77.2 99.6-30 51.6-48.9 107.6-56.3 166.4-7.2 57-3.2 114.2 11.7 169.9 14.9 55.9 40.2 107.6 75 153.7 36.1 47.7 80.9 87.2 133.3 117.3 73.4 42.4 157.8 62.7 244.2 58.6 13.7-0.7 24.3-12.4 23.7-26.1-0.7-13.7-12.4-24.3-26.1-23.7-76.7 3.7-151.8-14.2-216.9-51.9-46.6-26.8-86.4-61.9-118.4-104.2-30.9-40.9-53.3-86.8-66.6-136.5-13.2-49.5-16.7-100.3-10.4-150.9 6.6-52.3 23.5-102.1 50.1-148 0.2-0.3 0.3-0.6 0.5-0.9 16.6-31.6 38.7-60 67.4-86.8 10.1-9.4 10.6-25.1 1.2-35.2-4.9-5.3-11.6-8-18.2-8zM513.5-66c-26.4 0-53.1 2.4-79.3 7.3-7.9 1.4-14.7 5.8-19.2 12.4-4.5 6.6-6.2 14.5-4.8 22.4 1.4 7.9 5.8 14.7 12.4 19.2s14.5 6.2 22.4 4.8c43.8-8.1 88.2-8.4 131.8-0.9 44.9 7.7 88 23.5 127.8 46.9l0.3 0.2c45.9 26.4 85.3 61 116.9 102.8 30.5 40.3 52.7 85.7 65.8 134.7 13.1 48.9 16.5 99 10.3 149-6.4 51.6-23.2 100.8-49.5 146.2-24.9 42.7-55 78.1-92.1 108-12.8 10.4-14.8 29.2-4.4 42s29.2 14.8 42 4.4c42.7-34.6 77.5-75.3 106.1-124.5 30.4-52.4 49.7-109.1 57.1-168.8 7.3-57.6 3.2-115.4-11.8-171.8-15.1-56.5-40.6-108.8-75.9-155.4-36.5-48.2-81.7-88.1-134.6-118.5-46.1-27-95.8-45.2-147.9-54.1-24.3-4.2-49-6.3-73.4-6.3z m-74 56.6c-4 0-7.9-1.2-11.3-3.5-4.3-3-7.4-7.6-8.3-12.8-1-5.2 0.2-10.5 3.2-14.9 3-4.3 7.6-7.4 12.8-8.3 25.6-4.7 51.7-7.1 77.5-7.1 23.9 0 48.1 2 71.7 6 50.9 8.7 99.6 26.5 144.6 52.9 51.7 29.8 96 68.8 131.7 115.9 34.5 45.6 59.4 96.6 74.2 152 14.7 55.1 18.6 111.7 11.6 168-7.4 58.4-26.1 113.9-55.8 165.1-28 48.1-62 87.9-103.8 121.6-8.6 7-21.1 5.5-28-2.9-7-8.6-5.5-21.1 2.9-28 38-30.7 68.8-67 94.4-110.8 27-46.6 44.1-96.9 50.8-150 6.4-51.2 2.9-102.6-10.5-152.8-13.4-50.3-36.2-96.8-67.4-138.2C797.3 100 757 64.4 710 37.4l-0.1-0.1c-40.9-24-85.1-40.2-131.2-48.1-44.8-7.7-90.3-7.4-135.2 0.9-1.5 0.4-2.8 0.5-4 0.5z m-217.1 60.7c-7.6 0-14.8 2.8-20.4 8.1-33.1 30.9-58.7 63.9-78.2 100.8C93.6 212.4 74.4 269 67 328.3c-7.3 57.6-3.2 115.4 11.8 171.8 15.1 56.5 40.6 108.8 75.9 155.4 36.5 48.3 81.8 88.1 134.7 118.6 74.3 43 159.6 63.5 246.9 59.3 16.4-0.8 29.2-14.8 28.4-31.3-0.8-15.9-14-28.4-29.8-28.4h-1.5c-75.8 3.7-149.9-14-214.2-51.3-46-26.5-85.4-61.1-117-102.9-30.5-40.3-52.7-85.7-65.8-134.7-13.1-48.9-16.5-99-10.3-149 6.4-51.6 23.2-100.8 49.5-146.2 0.2-0.4 0.4-0.7 0.6-1.1 16.3-31.1 38.1-59.1 66.4-85.5 5.8-5.4 9.2-12.8 9.5-20.9 0.3-8-2.6-15.6-8.1-21.5s-13.4-9.3-21.6-9.3zM513.7 824c-77.6 0-153.1-20.1-219.4-58.5-51.8-29.8-96.1-68.8-131.8-116-34.5-45.6-59.4-96.6-74.2-152C73.6 442.4 69.8 386 76.8 329.7c7.3-58.1 26-113.5 55.6-164.6l0.1-0.2c18.9-36 43.9-68 76.2-98.3 3.7-3.4 8.6-5.3 13.6-5.3 5.5 0 10.8 2.2 14.6 6.3 3.6 3.9 5.5 9 5.3 14.3-0.2 5.3-2.4 10.3-6.3 13.9-29.1 27.2-51.5 56-68.4 88.1-0.1 0.2-0.3 0.5-0.4 0.7-27 46.6-44.1 96.9-50.8 150-6.4 51.2-2.9 102.6 10.5 152.8 13.4 50.3 36.2 96.8 67.4 138.2 32.5 42.8 72.8 78.4 119.9 105.5 66 38.2 141.9 56.4 219.6 52.6 11-0.5 20.4 8 20.9 18.9s-8 20.4-18.9 20.9c-7.3 0.3-14.6 0.5-22 0.5z m253.7-72L897 727.2c15.2-3.8 26.7-19 22.9-34.3v-1.9c-3.8-15.2-19-26.7-34.3-22.9L756 693c-15.2 3.8-26.7 19-22.9 34.3v1.9c3.7 15.3 19.1 26.7 34.3 22.8z m124.1-87.6c-2.2 0-4.4 0.3-6.7 0.8L755.2 690c-8.2 2-15.5 7.2-20.4 14.1-5 7.3-6.7 15.5-4.8 23.5v1.9l0.1 0.4c4.4 17.5 21.7 29 37.9 25.1l129.7-24.8c8.2-2 15.5-7.2 20.4-14.1 5-7.3 6.7-15.5 4.8-23.5v-1.9l-0.1-0.4c-2-8.2-7.2-15.5-14.1-20.4-5.3-3.5-11.2-5.5-17.2-5.5z m-134.9 31.5l129.7-24.8c6.3-1.6 13.1-0.2 19 3.8 5.6 3.9 9.9 9.9 11.6 16.5v1.9l0.1 0.4c1.6 6.3 0.2 13.1-3.8 19-3.9 5.7-10.1 10-16.7 11.7l-129.7 24.8c-12.9 3.2-26.8-6-30.6-20.4v-1.9l-0.1-0.4c-1.6-6.3-0.2-13.1 3.8-19 3.9-5.7 9.9-9.9 16.7-11.6z m-639-572.7l129.6-24.8c15.2-3.8 26.7-19 22.9-34.3v-1.9c-3.8-15.2-19-26.7-34.3-22.9l-129.6 24.8c-15.2 3.8-26.7 19-22.9 34.3v1.9c1.8 15.2 18.9 26.7 34.3 22.9z m124-87.6c-2.2 0-4.3 0.3-6.6 0.8l-129.7 24.8c-17.4 4.3-28.9 21.5-25.1 37.6v1.9c1 8 5.7 15.4 13.1 20.5 7.6 5.1 16.6 7 24.8 4.9l129.7-24.8c8.2-2 15.5-7.2 20.4-14.1 5-7.3 6.7-15.5 4.8-23.5v-1.9l-0.1-0.4c-3.9-15.1-17.3-25.8-31.3-25.8zM106.8 67l129.7-24.8c12.9-3.2 26.8 6 30.6 20.4v1.9l0.1 0.4c1.6 6.3 0.2 13.1-3.8 19-3.9 5.7-10.1 10-16.7 11.7L117 120.4c-6.6 1.6-13.9 0.2-20.1-4-5.8-4-9.7-9.9-10.5-16.1v-2.1l-0.1-0.4c-3.4-13.1 6-27.1 20.5-30.8z"  horiz-adv-x="1024" />

    
    <glyph glyph-name="zhifu" unicode="&#58914;" d="M268.943586-66.515686a26.467774 26.467774 0 0 0 25.044555 46.638572 454.324196 454.324196 0 0 1 105.345493-41.024196A459.027303 459.027303 0 1 1 53.150173 384.033737a458.092142 458.092142 0 0 1 109.198764-297.309377 26.389275 26.389275 0 1 0-40.188012-34.215271 510.853626 510.853626 0 1 0 146.786074-119.024775z m288.903171 427.648229v-83.13031h147.86458a29.744248 29.744248 0 1 0 0-59.485084h-147.86458v-93.263492a29.843225 29.843225 0 0 0-59.68645 0V218.520562h-147.854342a29.744248 29.744248 0 1 0 0 59.485084h147.854342v83.126897h-147.854342a29.740835 29.740835 0 1 0 0 59.481671h137.598293L330.831418 555.383134a29.675988 29.675988 0 1 0 38.942269 44.785316l158.267388-135.789405 158.192302 135.779166A29.693053 29.693053 0 1 0 725.185885 555.383134l-157.089905-134.758681h137.615357a29.740835 29.740835 0 1 0 0-59.481671h-147.86458z"  horiz-adv-x="1024" />

    
    <glyph glyph-name="gengduo" unicode="&#58889;" d="M282.692-106.53c-4.369 0-8.738 1.672-12.083 4.983-6.656 6.656-6.656 17.477 0 24.133l446.532 446.532L270.643 815.65c-6.656 6.656-6.656 17.476 0 24.132s17.476 6.656 24.132 0l458.616-458.58c3.208-3.21 4.983-7.544 4.983-12.084s-1.809-8.875-4.983-12.083L294.775-101.547a17.142 17.142 0 0 0-12.083-4.983z"  horiz-adv-x="1024" />

    
    <glyph glyph-name="arrow1" unicode="&#58886;" d="M624.981 384.1330000000001l-292.15500000000003-292.15999999999997c-12.280000000000003-12.269999999999996-12.280000000000003-32.18599999999999-7.105427357601002e-15-44.457 12.269999999999996-12.281 32.18599999999999-12.281000000000002 44.457-7.105427357601002e-15l314.388 314.3879999999999c12.280000000000003 12.269999999999996 12.280000000000003 32.18599999999999 7.105427357601002e-15 44.457l-314.3879999999999 314.387c-6.135999999999998 6.1400000000000015-14.182999999999998 9.211000000000002-22.228 9.211000000000006s-16.092-3.070999999999998-22.228-9.210999999999997c-12.280000000000003-12.269999999999996-12.280000000000003-32.18599999999999-7.105427357601002e-15-44.457l292.1549999999999-292.159z"  horiz-adv-x="1024" />

    
    <glyph glyph-name="liaojiewomen" unicode="&#58896;" d="M546.480354 655.638009c-15.774288 0-29.299973-5.519297-40.542986-16.728241a54.750067 54.750067 0 0 1-16.89859-40.338568c0-15.740218 5.621507-29.197764 16.89859-40.270428 11.243013-11.038595 24.768698-16.591962 40.542986-16.591962 15.672079 0 29.197764 5.553367 40.304498 16.591962 11.208943 11.038595 16.79638 24.496141 16.79638 40.270428s-5.587437 29.231834-16.79638 40.338568a54.511578 54.511578 0 0 1-40.304498 16.728241zM565.900104 138.595688c-11.208943 0-19.079052 2.62337-23.610328 7.904179-4.463135 5.280809-6.779878 15.092893-6.779877 29.572531 0 5.996274 0.681395 14.411499 2.078254 25.688582 1.362789 11.277083 2.998137 21.327655 4.803833 30.049507l21.532073 109.568273c2.146393 10.050572 3.543253 21.123237 4.292787 33.149853 0.851743 12.026617 1.226511 20.475912 1.22651 25.279745 0 23.031142-5.723716 42.042055-17.000798 56.453553-11.345222 14.411499-27.357998 21.634283-48.208677 21.634283-11.515571 0-23.746606-3.100346-36.727176-8.892201a474.932127 474.932127 0 0 1-40.645196-21.361725l-5.791855-33.899388c4.122438 2.384882 9.198829 4.837903 15.058824 7.222784 5.859995 2.657439 11.68592 3.84988 17.273356 3.84988 11.379292 0 19.113122-2.861858 23.167421-8.347085 4.054299-5.553367 6.064413-15.161033 6.064413-29.299974 0-7.69976-0.681395-16.319404-1.976045-25.722651-1.26058-9.369178-2.895928-19.45382-4.871972-30.015437l-21.634283-110.079319c-1.941975-11.515571-3.406974-21.838701-4.258717-30.96939a278.00905 278.00905 0 0 1-1.29465-26.949162c0-22.588235 5.791855-41.122172 17.443705-55.976577 11.61778-14.684056 28.005323-21.906841 48.924142-21.906841a80.745275 80.745275 0 0 1 35.909502 7.699761 762.480703 762.480703 0 0 1 41.462869 22.315677l5.757786 33.899388a80.643066 80.643066 0 0 0-14.343359-6.950226 46.368911 46.368911 0 0 0-17.852542-3.91802zM517.112241 896C237.161216 896 0.001781 657.273356 0.001781 377.867447S237.195286-128 517.112241-128s506.88954 226.461538 506.88954 505.867447S797.063266 896 517.112241 896z m-4.906042-966.047378c-249.49268 0-451.730636 202.306095-451.730636 451.764706 0 249.52675 202.237956 451.798776 451.730636 451.798775 249.56082 0 451.764706-202.272026 451.764706-451.798775 0-249.458611-202.203886-451.764706-451.764706-451.764706z"  horiz-adv-x="1025" />

    
    </font>
</defs>
</svg>
