<?xml version="1.0" standalone="no"?>
<!DOCTYPE svg PUBLIC "-//W3C//DTD SVG 1.1//EN" "http://www.w3.org/Graphics/SVG/1.1/DTD/svg11.dtd" >
<!--
2013-9-30: Created.
-->
<svg>
<metadata>
Created by iconfont
</metadata>
<defs>

<font id="iconfont" horiz-adv-x="1024" >
  <font-face
    font-family="iconfont"
    font-weight="500"
    font-stretch="normal"
    units-per-em="1024"
    ascent="896"
    descent="-128"
  />
    <missing-glyph />
    
    <glyph glyph-name="x" unicode="x" horiz-adv-x="1001"
d="M281 543q-27 -1 -53 -1h-83q-18 0 -36.5 -6t-32.5 -18.5t-23 -32t-9 -45.5v-76h912v41q0 16 -0.5 30t-0.5 18q0 13 -5 29t-17 29.5t-31.5 22.5t-49.5 9h-133v-97h-438v97zM955 310v-52q0 -23 0.5 -52t0.5 -58t-10.5 -47.5t-26 -30t-33 -16t-31.5 -4.5q-14 -1 -29.5 -0.5
t-29.5 0.5h-32l-45 128h-439l-44 -128h-29h-34q-20 0 -45 1q-25 0 -41 9.5t-25.5 23t-13.5 29.5t-4 30v167h911zM163 247q-12 0 -21 -8.5t-9 -21.5t9 -21.5t21 -8.5q13 0 22 8.5t9 21.5t-9 21.5t-22 8.5zM316 123q-8 -26 -14 -48q-5 -19 -10.5 -37t-7.5 -25t-3 -15t1 -14.5
t9.5 -10.5t21.5 -4h37h67h81h80h64h36q23 0 34 12t2 38q-5 13 -9.5 30.5t-9.5 34.5q-5 19 -11 39h-368zM336 498v228q0 11 2.5 23t10 21.5t20.5 15.5t34 6h188q31 0 51.5 -14.5t20.5 -52.5v-227h-327z" />
    

    
    <glyph glyph-name="paixingzhuanhuan" unicode="&#58895;" d="M271.872 479.985408 31.419392 479.985408c-18.228224 0-30.056448-3.008512-30.056448-20.64896l0-638.703616c0-17.66912 14.764032-31.935488 32.961536-31.935488l230.825984 0c18.198528 0 32.96256 14.266368 32.96256 31.935488L298.113024 459.336448C298.113024 476.976896 290.100224 479.985408 271.872 479.985408zM241.815552-151.188736 61.47584-151.188736 61.47584 419.871488l180.339712 0L241.815552-151.188736zM632.552448 299.63136 392.098816 299.63136c-18.228224 0-28.4416-12.532736-28.4416-30.189568l0-448.80896c0-17.66912 14.734336-31.935488 32.933888-31.935488l230.854656 0c18.197504 0 32.96256 14.266368 32.96256 31.935488l0 448.80896C660.407296 287.098624 650.779648 299.63136 632.552448 299.63136zM602.496-151.188736 422.156288-151.188736 422.156288 239.518464l180.339712 0L602.496-151.188736zM990.32576 810.608384 759.852032 810.608384c-18.228224 0-37.13024-12.416-37.13024-30.056448l0-961.79712c0-17.66912 18.902016-30.057472 37.13024-30.057472l230.472704 0c18.228224 0 32.96256 14.266368 32.96256 31.935488L1023.287296 778.672896C1023.28832 796.328704 1008.553984 810.608384 990.32576 810.608384zM963.1744-151.188736 782.835712-151.188736 782.835712 750.494464l180.338688 0L963.1744-151.188736z"  horiz-adv-x="1024" />

    
    <glyph glyph-name="more2" unicode="&#58902;" d="M511.968 396c-53.024 0-96.016-42.992-96.016-96.016 0-53.008 42.992-96.016 96.016-96.016 53.024 0 96.032 43.008 96.032 96.016C608 353.008 564.992 396 511.968 396zM511.968 507.984C564.992 507.984 608 550.976 608 604c0 53.008-43.008 96-96.032 96-53.024 0-96.016-42.976-96.016-96.016C415.952 550.96 458.944 507.984 511.968 507.984zM511.968 92c-53.024 0-96.016-43.008-96.016-96.016s42.992-96.016 96.016-96.016c53.024 0 96.032 43.008 96.032 96.016S564.992 92 511.968 92z"  horiz-adv-x="1024" />

    
    <glyph glyph-name="delete" unicode="&#58917;" d="M556.8 300l230.4 230.4c12.8 12.8 12.8 32 0 44.8s-32 12.8-44.8 0L512 344.8 281.6 575.2c-12.8 12.8-32 12.8-44.8 0s-12.8-32 0-44.8L467.2 300l-230.4-230.4c-12.8-12.8-12.8-32 0-44.8 6.4-6.4 12.8-6.4 25.6-6.4s19.2 0 25.6 6.4L512 255.2l230.4-230.4c6.4-6.4 12.8-6.4 25.6-6.4s19.2 0 25.6 6.4c12.8 12.8 12.8 32 0 44.8L556.8 300z"  horiz-adv-x="1024" />

    
    <glyph glyph-name="change" unicode="&#58903;" d="M128.512 299.04c0-74.496 18.389333-148.949333 58.048-216.789333l99.605333 81.898667 65.109333-363.968L0-71.2l107.477333 88.405333c-54.016 83.264-85.397333 182.442667-85.397333 281.856 0 229.184 144.298667 432.874667 356.48 500.778667l47.018667-84.885333C247.317333 655.52 128.512 485.770667 128.512 299.04zM737.856 435.808 672.725333 799.818667 1024 671.221333l-107.456-88.405333c54.016-83.221333 85.397333-182.4 85.397333-281.856 0-229.162667-144.277333-432.853333-356.48-500.778667l-46.997333 84.885333c178.218667 59.413333 297.045333 229.162667 297.045333 415.893333 0 74.474667-18.389333 148.906667-58.069333 216.789333L737.856 435.808z"  horiz-adv-x="1024" />

    
    <glyph glyph-name="hot" unicode="&#59224;" d="M726.4 694.4c-12.8 9.6-28.8 6.4-38.4 0-9.6-9.6-16-25.6-9.6-38.4 6.4-12.8 9.6-28.8 12.8-44.8-86.4 201.6-230.4 246.4-236.8 249.6-9.6 3.2-22.4 0-28.8-6.4-9.6-6.4-12.8-19.2-9.6-28.8 12.8-86.4-25.6-188.8-115.2-310.4-6.4 25.6-16 51.2-32 80-9.6 9.6-22.4 16-35.2 12.8-16-3.2-25.6-12.8-25.6-28.8-3.2-48-25.6-92.8-51.2-140.8-22.4-41.6-44.8-86.4-54.4-134.4-32-153.6 35.2-265.6 224-368 6.4-3.2 9.6-3.2 16-3.2 9.6 0 19.2 6.4 25.6 12.8 9.6 16 6.4 35.2-9.6 44.8l-3.2 3.2c-188.8 105.6-214.4 192-192 297.6 9.6 41.6 28.8 76.8 48 118.4 12.8 19.2 22.4 38.4 28.8 57.6 0-9.6 3.2-22.4 3.2-32 0-12.8 9.6-25.6 22.4-28.8 12.8-3.2 25.6 0 35.2 9.6 112 134.4 172.8 256 179.2 364.8 51.2-32 137.6-108.8 182.4-272 3.2-9.6 9.6-19.2 22.4-22.4 9.6-3.2 22.4 0 28.8 6.4 25.6 22.4 38.4 54.4 41.6 86.4 54.4-67.2 115.2-176 108.8-288-6.4-92.8-57.6-172.8-150.4-243.2 35.2 166.4-32 358.4-179.2 457.6-9.6 6.4-22.4 6.4-32 3.2-9.6-6.4-16-16-16-28.8-3.2-89.6-48-144-89.6-198.4-35.2-44.8-70.4-89.6-76.8-150.4 0-16 12.8-32 28.8-35.2 19.2-3.2 32 12.8 35.2 28.8 3.2 41.6 32 76.8 60.8 115.2 35.2 44.8 76.8 99.2 96 176 115.2-108.8 153.6-300.8 83.2-435.2v-3.2c0-3.2 0-3.2-3.2-6.4v-12.8c0-3.2 0-3.2 3.2-6.4v-3.2l3.2-3.2c0-3.2 3.2-3.2 3.2-6.4 0 0 3.2-3.2 6.4-3.2l3.2-3.2s3.2 0 3.2-3.2h19.2c3.2 0 6.4 0 9.6 3.2 163.2 89.6 252.8 208 259.2 345.6 9.6 214.4-169.6 393.6-204.8 416z"  horiz-adv-x="1024" />

    
    <glyph glyph-name="zixunlist" unicode="&#58901;" d="M762.84049-145.472817 261.160533-145.472817c-61.574381 0-111.48921 49.91483-111.48921 111.488187L149.671323 634.913792c0 61.58052 49.91483 111.49535 111.48921 111.49535l334.455351 0c37.304627 0.581238 52.151777-0.802272 55.737442-0.802272l0 0.802272 222.974327-222.968188c0-40.941458 0-47.041386 0-55.750745l0-501.67484C874.326631-95.557988 824.414871-145.472817 762.84049-145.472817zM651.353326 690.665561c0-66.3655 0-111.48921 0-111.48921 0-30.785144 24.949228-55.735395 55.735395-55.735395L818.576909 523.440955 651.353326 690.665561zM818.576909 467.69021c-64.885799 0-111.488187 0-111.488187 0-61.573357 0-111.472837 49.91483-111.472837 111.48614 0 0-1.300622 44.744064-0.784876 111.48921L261.160533 690.665561c-30.78719 0-55.745628-24.950252-55.745628-55.751768l0-668.898423c0-30.786167 24.957415-55.735395 55.745628-55.735395l501.679957 0c30.786167 0 55.736419 24.949228 55.736419 55.735395L818.576909 467.69021zM679.221024 77.502533 344.770789 77.502533c-15.392572 0-27.867698 12.475126-27.867698 27.867698 0 15.394618 12.475126 27.869744 27.867698 27.869744l334.450235 0c15.392572 0 27.866674-12.475126 27.866674-27.869744C707.087699 89.978682 694.613596 77.502533 679.221024 77.502533zM679.221024 244.728162 344.770789 244.728162c-15.392572 0-27.867698 12.475126-27.867698 27.867698 0 15.392572 12.475126 27.867698 27.867698 27.867698l334.450235 0c15.392572 0 27.866674-12.474103 27.866674-27.867698C707.087699 257.204311 694.613596 244.728162 679.221024 244.728162z"  horiz-adv-x="1024" />

    
    <glyph glyph-name="weibiaoti1" unicode="&#58880;" d="M514.594 728.888c-144.11 0-260.979-118.46-260.979-264.558 0-88.783 43.497-166.928 109.711-214.898-135.361-59.354-230.159-195.858-230.159-354.931h0.894c1.541-21.375 18.641-38.377 40.117-38.377s38.575 17.051 40.117 38.377h0.645c0 0.944-0.099 1.79-0.099 2.734 0 0.050 0 0.099 0 0.149 0 0.099-0.050 0.149-0.050 0.199 0.050 159.967 120 291.054 273.009 304.924 8.948-0.944 17.598-2.734 26.844-2.734 144.11 0 260.979 118.46 260.979 264.558s-116.919 264.558-261.029 264.558zM514.594 281.545c-99.769 0-180.698 81.972-180.698 183.183s80.879 183.183 180.698 183.183c99.719 0 180.647-81.972 180.647-183.183s-80.879-183.183-180.647-183.183zM896.021-102.615c0 0.348-0.199 0.645-0.199 0.994-1.043 105.038-43.397 200.034-111.35 269.131v0c-7.157 7.357-17.001 11.98-27.986 11.98-21.574 0-39.122-17.747-39.122-39.668 0-11.135 4.573-21.127 11.83-28.334l-0.099-0.050c52.742-55.229 85.302-130.589 85.302-213.853 0-1.043-0.149-1.987-0.149-3.034h0.994c1.491-21.375 18.691-38.377 40.117-38.377 21.475 0 38.575 17.051 40.117 38.377h0.597c0 0.796-0.099 1.491-0.099 2.287-0.050 0.149 0.050 0.348 0.050 0.547z"  horiz-adv-x="1024" />

    
    <glyph glyph-name="leixing" unicode="&#59030;" d="M213.333333 684l213.333333 0C473.770667 684 512 645.813333 512 598.666667l0-213.333333c0-47.104-38.229333-85.333333-85.333333-85.333333L213.333333 300C166.186667 300 128 338.229333 128 385.333333L128 598.666667C128 645.813333 166.186667 684 213.333333 684L213.333333 684zM640.042667 684l213.248 0C900.437333 684 938.666667 645.813333 938.666667 598.666667l0-213.333333c0-47.104-38.229333-85.333333-85.376-85.333333l-213.248 0C592.896 300 554.666667 338.229333 554.666667 385.333333L554.666667 598.666667C554.666667 645.813333 592.896 684 640.042667 684L640.042667 684zM640.042667 385.333333l213.333333 0-0.085333 213.376-213.333333-0.042667-0.042667-213.333333C639.914667 385.333333 639.957333 385.333333 640.042667 385.333333M640.042667 257.333333l213.248 0C900.437333 257.333333 938.666667 219.104 938.666667 171.957333l0-213.248C938.666667-88.437333 900.437333-126.666667 853.290667-126.666667l-213.248 0C592.896-126.666667 554.666667-88.437333 554.666667-41.290667l0 213.248C554.666667 219.104 592.896 257.333333 640.042667 257.333333L640.042667 257.333333zM639.914667-41.376c0 0 0.042667 0 0.128 0l213.333333 0.085333-0.085333 213.333333-213.333333-0.085333L639.914667-41.376M213.333333 257.333333l213.333333 0c47.104 0 85.333333-38.229333 85.333333-85.376l0-213.248C512-88.437333 473.770667-126.666667 426.666667-126.666667L213.333333-126.666667C166.186667-126.666667 128-88.437333 128-41.290667l0 213.248C128 219.104 166.186667 257.333333 213.333333 257.333333L213.333333 257.333333zM213.205333-41.376c0 0 0.085333 0 0.128 0l213.333333 0.085333 0 213.333333-213.376-0.085333L213.205333-41.376"  horiz-adv-x="1024" />

    
    <glyph glyph-name="delete8e" unicode="&#58999;" d="M920.771 624.705c0-10.452-8.129-18.58-18.58-18.58l-55.742 0 0-550.448c0-63.871-41.807-118.45-92.902-118.45L270.454-62.773c-51.097 0-92.903 52.258-92.903 116.128L177.551 606.125 121.81 606.125c-10.452 0-18.581 8.128-18.581 18.58l0 37.161c0 10.452 8.128 18.581 18.581 18.581l179.418 0 40.645 96.967c11.612 28.451 46.451 51.677 77.225 51.677l185.805 0c30.773 0 65.613-23.226 77.225-51.677l40.646-96.967 179.418 0c10.451 0 18.58-8.129 18.58-18.581L920.772 624.705zM772.127 606.125 251.873 606.125l0-550.448c0-27.87 15.678-44.128 18.581-44.128l483.093 0c2.902 0 18.58 16.258 18.58 44.128L772.127 606.125zM400.517 141.612c0-10.452-8.129-18.58-18.581-18.58l-37.161 0c-10.452 0-18.58 8.128-18.58 18.58L326.195 476.062c0 10.452 8.128 18.58 18.58 18.58l37.161 0c10.452 0 18.581-8.128 18.581-18.58L400.517 141.612zM642.063 680.447l-27.869 67.935c-1.742 2.323-6.969 5.807-9.869 6.387L420.259 754.769c-3.484-0.581-8.128-4.064-9.871-6.387l-28.451-67.935L642.063 680.447zM549.161 141.612c0-10.452-8.128-18.58-18.58-18.58l-37.162 0c-10.452 0-18.58 8.128-18.58 18.58L474.839 476.062c0 10.452 8.128 18.58 18.58 18.58l37.162 0c10.452 0 18.58-8.128 18.58-18.58L549.161 141.612zM697.805 141.612c0-10.452-8.129-18.58-18.58-18.58l-37.162 0c-10.449 0-18.578 8.128-18.578 18.58L623.485 476.062c0 10.452 8.129 18.58 18.578 18.58l37.162 0c10.451 0 18.58-8.128 18.58-18.58L697.805 141.612z"  horiz-adv-x="1024" />

    
    <glyph glyph-name="zhifubao" unicode="&#58998;" d="M817.2922 268.878405C905.047119 425.658802 936.958 574.600183 936.958 574.600183L921.002559 574.600183 785.381319 574.600183 641.782351 574.600183 641.782351 684.346464 992.802044 684.346464 992.802044 731.380581 641.782351 731.380581 641.782351 896 482.227948 896 482.227948 731.380581 163.119135 731.380581 163.119135 684.346464 482.227948 684.346464 482.227948 574.600183 210.985457 574.600183 210.985457 527.566062 761.448156 527.566062C761.448156 519.727045 761.448156 519.727045 753.470434 511.888023 753.470434 457.014885 713.581835 378.624686 681.670955 315.912526 274.807219 472.692924 155.141414 378.624686 123.230533 362.946642-148.011956 174.810167 107.275092-60.360433 147.163694-52.521414 434.361622-115.233573 617.849188 2.351726 745.492716 151.293107 753.470434 143.454085 761.448156 143.454085 769.425874 143.454085 857.180798 96.419964 1279.999974-99.555533 1279.999974-99.555533L1279.999974 135.615068C1216.178213 135.615068 984.824326 214.005267 817.2922 268.878405L817.2922 268.878405ZM609.871471 198.327223C410.428464-52.521414 171.096855 25.868787 131.208253 41.546825 35.47561 65.063886 3.564729 237.522327 123.230533 292.395466 322.67354 355.107626 498.183388 284.556444 625.826911 221.844284 617.849188 206.166245 609.871471 198.327223 609.871471 198.327223L609.871471 198.327223Z"  horiz-adv-x="1280" />

    
    <glyph glyph-name="time" unicode="&#58955;" d="M512 834c-248.523 0-450-201.477-450-450s201.477-450 450-450c248.543 0 450 201.477 450 450 0 248.523-201.457 450-450 450 0 0 0 0 0 0 0 0 0 0 0 0zM512-24.129c-225.062 0-408.15 183.785-408.15 408.601 0 224.796 183.088 407.679 408.15 407.679 225.041 0 408.129-182.884 408.129-407.679 0-224.816-183.088-408.601-408.129-408.601 0 0 0 0 0 0 0 0 0 0 0 0zM532.454 384c0 0 0 286.363 0 286.363 0 15.525-4.909 20.454-20.454 20.454-15.546 0-20.454-4.909-20.454-20.454 0 0 0-286.363 0-286.363 0 0 0-20.454 0-20.454 0 0 143.182-143.182 143.182-143.182 0 0 40.909 0 40.909 0 0 0 0 40.909 0 40.909 0 0-143.182 122.727-143.182 122.727z"  horiz-adv-x="1024" />

    
    <glyph glyph-name="yejianmoshi" unicode="&#58881;" d="M358.144 604.16c50.432 51.648 114.304 81.984 180.608 91.52C526.336 686.272 514.24 676.16 503.04 664.64 381.568 540.096 384 340.672 508.608 219.2c72.896-71.104 171.392-99.392 264.896-86.016-122.112-92.48-296.704-84.736-409.792 25.472C239.168 280.192 236.672 479.616 358.144 604.16zM288.512 667.776m-37.888 0a0.592 0.592 0 1 0 75.776 0 0.592 0.592 0 1 0-75.776 0ZM703.36 476.224m-43.008 0a0.672 0.672 0 1 0 86.016 0 0.672 0.672 0 1 0-86.016 0ZM619.456 310.272m-40.96 0a0.64 0.64 0 1 0 81.92 0 0.64 0.64 0 1 0-81.92 0Z"  horiz-adv-x="1024" />

    
    <glyph glyph-name="fabiao" unicode="&#58897;" d="M468.032 197.76c-6.272 6.272-6.272 16.384 0 22.656l457.28 457.216c18.688 18.688 18.688 49.216 0 67.904l-40.576 40.512c-18.688 18.688-49.152 18.688-67.904 0L359.616 328.704c-6.272-6.208-16.384-6.208-22.656 0-6.272 6.272-6.272 16.448 0 22.656l457.28 457.28c31.168 31.168 81.92 31.168 113.152 0l40.576-40.512c31.168-31.168 31.168-81.92 0-113.152L490.688 197.76C484.416 191.488 474.24 191.488 468.032 197.76zM468.032 197.76 337.024 328.704c-6.272 6.272-6.272 16.448 0 22.656 6.272 6.272 16.384 6.272 22.656 0l131.072-130.944c6.208-6.272 6.208-16.384 0-22.656C484.416 191.488 474.24 191.488 468.032 197.76zM878.208 607.872l-131.072 131.008c-6.272 6.208-6.272 16.384 0 22.656s16.384 6.208 22.656 0l131.072-131.008c6.208-6.272 6.272-16.384 0-22.656C894.592 601.536 884.352 601.6 878.208 607.872zM299.84 160.512c-3.776 3.648-5.568 9.28-4.352 14.72l37.248 168.256c1.92 8.64 10.432 14.08 19.072 12.16 8.64-2.048 14.08-10.56 12.16-19.136l-37.184-168.192c-1.92-8.768-10.496-14.144-19.072-12.224C304.576 156.864 301.888 158.4 299.84 160.512zM299.776 160.512c-2.048 2.112-3.648 4.736-4.288 7.872-1.92 8.64 3.52 17.152 12.16 19.136l168.32 37.12c8.576 1.856 17.088-3.648 19.072-12.096 1.856-8.64-3.584-17.152-12.16-19.136l-168.32-37.248C308.992 155.008 303.424 156.736 299.776 160.512zM897.984-81.984 126.016-81.984c-44.096 0-80 35.904-80 80L46.016 769.984c0 44.096 35.904 80 80 80l508.032 0c8.832 0 16-7.168 16-16s-7.168-16-16-16L126.016 817.984c-26.496 0-48-21.504-48-48l0-772.032c0-26.432 21.504-48 48-48l772.032 0c26.432 0 48 21.568 48 48l0 496c0 8.832 7.168 16 16 16s16-7.168 16-16l0-496C977.984-46.144 942.144-81.984 897.984-81.984z"  horiz-adv-x="1024" />

    
    <glyph glyph-name="paixing-copy" unicode="&#58896;" d="M186.111 101.454h177.609v409.642h-177.609v-409.642zM423.033 101.454h177.609v558.573h-177.609v-558.573zM656.697 404.204v-302.751h181.194v302.751h-181.194zM656.697 404.204z"  horiz-adv-x="1024" />

    
    <glyph glyph-name="gonggao" unicode="&#59115;" d="M602.368301-127.999994c-7.288471 0-14.456471 2.650353-20.118588 7.770353L289.686891 143.058828 120.485951 143.058828c-48.429176 0-120.470588 32.105412-120.470588 120.470588l0 180.705881c0 48.429176 32.105412 120.470588 120.470588 120.470588l169.140705 0 292.562822 263.348704c8.854588 8.011294 21.564235 9.938823 32.406588 5.12C625.558889 828.29553 632.485948 817.513412 632.485948 805.647059l0-903.529406c0-11.866353-6.927059-22.708706-17.829647-27.527529C610.741006-127.1567 606.524536-127.999994 602.368301-127.999994zM120.485951 504.470591c-57.344 0-60.235294-50.176-60.235294-60.235294l0-180.705881c0-57.283764 50.176-60.235294 60.235294-60.235294l180.705881 0c7.469176 0 14.637176-2.770824 20.118588-7.770353L572.250654-30.238112 572.250654 738.002824 321.370655 512.240943C315.829008 507.241414 308.661008 504.470591 301.191832 504.470591L120.485951 504.470591zM752.956535 534.588237c-7.649882 0-15.420235 2.951529-21.323294 8.794353-11.745882 11.745882-11.745882 30.84047 0 42.586353l120.470588 120.470588c11.745882 11.745882 30.84047 11.745882 42.586353 0s11.745882-30.84047 0-42.586353l-120.470588-120.470588C768.37677 537.539767 760.726888 534.588237 752.956535 534.588237zM933.662416 323.764709l-180.705881 0C736.391829 323.764709 722.838888 337.257415 722.838888 353.882356s13.552941 30.117647 30.117647 30.117647l180.705881 0C950.347593 384.000003 963.780063 370.507297 963.780063 353.882356S950.347593 323.764709 933.662416 323.764709zM873.427123-7.529406c-7.649882 0-15.420235 2.951529-21.323294 8.794353l-120.470588 120.470588c-11.745882 11.745882-11.745882 30.84047 0 42.586353s30.84047 11.745882 42.586353 0l120.470588-120.470588c11.745882-11.745882 11.745882-30.84047 0-42.586353C888.847358-4.577877 881.197475-7.529406 873.427123-7.529406z"  horiz-adv-x="1025" />

    
    <glyph glyph-name="news" unicode="&#59177;" d="M794.403347 116.744143l-59.709917 0 0-179.128727L406.289911 116.744143 242.088152 116.744143c-91.619674 0-164.274414 52.597939-164.274414 144.524604L77.813738 667.011702c0 91.940992 74.286913 166.461219 165.907611 166.461219l533.787212 0c91.619674 0 165.907611-74.520227 165.907611-166.461219l0-405.742954C943.416172 169.342082 886.036323 116.744143 794.403347 116.744143zM898.909515 677.52208c0 61.188594-50.248428 110.957091-111.970164 110.957091L234.566852 788.479171c-61.736063 0-111.970164-49.768497-111.970164-110.957091l0-413.718603c0-61.181431 59.8409-102.274338 119.492488-102.274338l179.12975 0 268.693602-149.274792L689.912527 161.529139l104.490819 0c62.741973 0 104.506169 41.092907 104.506169 102.274338L898.909515 677.52208zM660.055522 489.931634l104.491843 0 0-44.782949L660.055522 445.148685 660.055522 489.931634zM465.999828 489.931634l104.491843 0 0-44.782949L465.999828 445.148685 465.999828 489.931634zM271.943111 489.931634l104.491843 0 0-44.782949L271.943111 445.148685 271.943111 489.931634z"  horiz-adv-x="1024" />

    
    <glyph glyph-name="none" unicode="&#58907;" d="M512.672-62.01599999999996c-246.496 0-447.04 200.544-447.04 447.04s200.544 447.072 447.04 447.072 447.04-200.576 447.04-447.072S759.168-62.01599999999996 512.672-62.01599999999996zM512.672 768.096c-211.232 0-383.04-171.84-383.04-383.072s171.84-383.04 383.04-383.04 383.04 171.808 383.04 383.04S723.872 768.096 512.672 768.096zM356.864 545.9839999999999m-52.352 0a1.636 1.636 0 1 1 104.704 0 1.636 1.636 0 1 1-104.704 0ZM680.064 545.9839999999999m-52.352 0a1.636 1.636 0 1 1 104.704 0 1.636 1.636 0 1 1-104.704 0ZM715.392 160.25599999999997c-9.248 0-18.432 4-24.736 11.68-56.928 69.344-116.8 102.816-174.88 101.76-95.936-2.912-166.752-99.2-167.456-100.16-10.336-14.304-30.336-17.568-44.64-7.232s-17.6 30.24-7.328 44.608c3.584 4.992 89.376 122.56 216.992 126.72 79.776 3.488 156.416-39.456 226.752-125.056 11.2-13.664 9.248-33.824-4.416-45.024C729.76 162.62400000000002 722.56 160.25599999999997 715.392 160.25599999999997z"  horiz-adv-x="1024" />

    
    <glyph glyph-name="delete1" unicode="&#58887;" d="M511.014556 831.89703c-246.704798 0-447.402773-200.714348-447.402773-447.410959s200.697975-447.420169 447.402773-447.420169c246.714008 0 447.420169 200.723557 447.420169 447.420169S757.728564 831.89703 511.014556 831.89703zM728.915331 211.15949c12.313443-12.313443 12.313443-32.253588 0-44.567032-6.152117-6.152117-14.219863-9.228175-22.279423-9.228175-8.067746 0-16.135492 3.076058-22.287609 9.228175L511.022743 339.914946 337.697185 166.592458c-6.152117-6.152117-14.219863-9.228175-22.279423-9.228175-8.067746 0-16.135492 3.076058-22.287609 9.228175-12.313443 12.313443-12.313443 32.253588 0 44.567032l173.323511 173.323511L293.131177 557.802418c-12.313443 12.313443-12.313443 32.261775 0 44.575218 12.313443 12.304234 32.253588 12.304234 44.567032 0L511.022743 429.052079l173.325557 173.325557c12.313443 12.304234 32.253588 12.304234 44.567032 0 12.313443-12.313443 12.313443-32.261775 0-44.575218L555.591821 384.483001 728.915331 211.15949z"  horiz-adv-x="1024" />

    
    <glyph glyph-name="jilu" unicode="&#58884;" d="M903.234369 779.753739 824.751407 779.753739C808.113562 779.753739 794.583059 766.441739 794.583059 750.07258 794.583059 733.70342 808.113562 720.39142 824.751407 720.39142L903.234369 720.39142 903.234369-61.217392 130.879353-61.217392 130.879353 720.39142 209.814842 720.39142C226.452687 720.39142 239.983192 733.70342 239.983192 750.07258 239.983192 766.441739 226.452687 779.753739 209.814842 779.753739L130.879353 779.753739C97.618748 779.753739 70.542653 753.129739 70.542653 720.39142L70.542653-61.217392C70.542653-93.95571 97.618748-120.57971 130.879353-120.57971L903.234369-120.57971C936.510059-120.57971 963.57107-93.95571 963.57107-61.217392L963.57107 720.39142C963.57107 753.129739 936.510059 779.753739 903.234369 779.753739M315.938047 755.014493 315.922963 755.014493 315.938047 769.855072 315.938047 755.014493ZM426.550303 784.695652 426.550303 836.637681 607.560406 836.637681 607.560406 784.205913C607.560406 767.836753 621.090909 754.524753 637.728754 754.524753 639.569022 754.524753 641.10761 754.791884 642.027743 755.014493L718.187743 755.014493 718.187743 715.434667 315.938047 715.434667 315.953132 755.014493 396.381953 755.014493C413.019798 755.014493 426.550303 768.326493 426.550303 784.695652L426.550303 784.695652ZM315.938047 656.072348 718.187743 656.072348C751.448348 656.072348 778.524444 682.696348 778.524444 715.434667L778.524444 755.014493C778.524444 787.752812 751.448348 814.376812 718.187743 814.376812L667.897107 814.376812 667.897107 836.637681C667.897107 869.376 640.836096 896 607.560406 896L426.550303 896C393.274613 896 366.213603 869.376 366.213603 836.637681L366.213603 814.376812 315.938047 814.376812C282.662357 814.376812 255.601347 787.752812 255.601347 755.014493L255.601347 715.434667C255.601347 682.696348 282.662357 656.072348 315.938047 656.072348L315.938047 656.072348ZM272.733953 529.970458 272.718868 529.970458 272.733953 544.811038 272.733953 529.970458ZM328.967758 529.970458 328.967758 56.273994 272.733953 56.273994 272.749037 529.970458 328.967758 529.970458ZM272.733953 589.332777C239.458263 589.332777 212.397252 562.708777 212.397252 529.970458L212.397252-3.088323 389.304458-3.088323 389.304458 529.970458C389.304458 562.708777 362.243448 589.332777 328.967758 589.332777L272.733953 589.332777ZM495.092795 322.20234 495.077711 322.20234 495.092795 337.042921 495.092795 322.20234ZM551.326599 322.20234 551.326599 56.273994 495.092795 56.273994 495.107879 322.20234 551.326599 322.20234ZM495.092795 381.564663C461.817104 381.564663 434.756094 354.940663 434.756094 322.20234L434.756094-3.088323 611.663299-3.088323 611.663299 322.20234C611.663299 354.940663 584.602289 381.564663 551.326599 381.564663L495.092795 381.564663ZM717.444096 440.92698 717.429011 440.92698 717.444096 455.767559 717.444096 440.92698ZM773.692984 440.92698 773.692984 56.273994 717.444096 56.273994 717.459177 440.92698 773.692984 440.92698ZM717.444096 500.289299C684.168406 500.289299 657.107395 473.665299 657.107395 440.92698L657.107395-3.088323 834.029684-3.088323 834.029684 440.92698C834.029684 473.665299 806.953588 500.289299 773.692984 500.289299L717.444096 500.289299Z"  horiz-adv-x="1024" />

    
    <glyph glyph-name="dashang" unicode="&#58883;" d="M482.742857 296.228572 551.706122 296.228572C549.616326 277.420408 545.436735 260.702041 539.167347 246.073472L752.326528 189.648979 718.889798 129.044896C639.477551 156.212243 566.334694 179.2 505.730612 195.918368 472.293878 160.391834 401.240817 137.404083 296.75102 129.044896 288.391837 147.853062 277.942857 170.840819 265.404082 193.82857 342.726531 198.008166 399.15102 208.457146 430.497959 223.085715 463.934694 239.804083 480.653061 262.791837 482.742857 296.228572L482.742857 296.228572 482.742857 296.228572ZM482.742857 632.685715 551.706122 632.685715 551.706122 574.171428 603.95102 574.171428C616.489796 592.979592 629.028572 611.787755 639.477551 630.595918L695.902042 605.518367 672.914285 572.081633 756.506125 572.081633 756.506125 459.232653 693.812243 459.232653 693.812243 519.836735 336.457143 519.836735 336.457143 459.232653 273.763265 459.232653 273.763265 572.081633 355.265306 572.081633C348.995918 582.530612 342.726531 592.979592 336.457143 603.428572L390.791837 628.506122C403.330612 609.697959 415.869388 590.889796 428.408163 572.081633L482.742857 572.081633 482.742857 632.685715 482.742857 632.685715 482.742857 632.685715ZM319.738776 223.085715 319.738776 361.012245 716.8 361.012245 716.8 223.085715 647.836736 223.085715 647.836736 306.677551 386.612245 306.677551 386.612245 223.085715 319.738776 223.085715 319.738776 223.085715 319.738776 223.085715ZM361.534694 386.089796 361.534694 496.84898 675.004083 496.84898 675.004083 386.089796 361.534694 386.089796 361.534694 386.089796 361.534694 386.089796ZM422.138776 425.795918 612.310204 425.795918 612.310204 452.963265 422.138776 452.963265 422.138776 425.795918 422.138776 425.795918 422.138776 425.795918ZM512 883.461225C236.146939 883.461225 10.44898 659.853061 10.44898 381.910204 10.44898 106.057146 234.057143-119.640819 512-119.640819 787.853062-119.640819 1013.551021 103.967347 1013.551021 381.910204 1013.551021 657.763265 789.942854 883.461225 512 883.461225L512 883.461225 512 883.461225ZM512-84.114285C254.955102-84.114285 45.97551 124.865306 45.97551 381.910204 45.97551 638.955102 254.955102 847.934694 512 847.934694 769.044896 847.934694 978.024493 638.955102 978.024493 381.910204 978.024493 124.865306 769.044896-84.114285 512-84.114285L512-84.114285 512-84.114285Z"  horiz-adv-x="1024" />

    
    <glyph glyph-name="list" unicode="&#59005;" d="M915.348211 161.199158c0.080842 0.296421 0.080842 0.565895 0.134737 0.835368C915.887158 164.486737 916.210526 166.938947 916.210526 169.445053L916.210526 747.789474C916.210526 814.645895 861.830737 869.052632 794.947368 869.052632L229.106526 869.052632c-66.883368 0-121.263158-54.406737-121.263158-121.263158l0-727.578947c0-66.829474 54.379789-121.263158 121.263158-121.263158l416.633263 0c2.694737 0 5.281684 0.269474 7.868632 0.781474 0.916211 0.161684 1.697684 0.538947 2.667789 0.727579 1.670737 0.512 3.314526 0.835368 4.931368 1.536 0.754526 0.323368 1.428211 0.781474 2.155789 1.104842 1.670737 0.835368 3.287579 1.616842 4.850526 2.640842 2.182737 1.482105 4.257684 3.152842 6.170947 5.066105l230.049684 230.103579c2.533053 2.533053 4.527158 5.416421 6.251789 8.461474 0.485053 0.781474 0.916211 1.643789 1.320421 2.479158C913.408 154.839579 914.620632 157.938526 915.348211 161.199158zM188.685474 20.210526l0 727.578947c0 22.285474 18.108632 40.421053 40.421053 40.421053L794.947368 788.210526C817.259789 788.210526 835.368421 770.074947 835.368421 747.789474l0-537.923368-135.733895 0c-66.829474 0-94.315789-27.459368-94.315789-94.315789L605.318737-20.210526 229.106526-20.210526C206.794105-20.210526 188.685474-2.074947 188.685474 20.210526zM312.158316 586.105263l402.000842 0c22.312421 0 40.421053 18.108632 40.421053 40.421053s-18.108632 40.421053-40.421053 40.421053L312.158316 666.947368c-22.312421 0-40.421053-18.108632-40.421053-40.421053S289.845895 586.105263 312.158316 586.105263zM312.158316 422.292211l402.000842 0c22.312421 0 40.421053 18.108632 40.421053 40.421053s-18.108632 40.421053-40.421053 40.421053L312.158316 503.134316c-22.312421 0-40.421053-18.108632-40.421053-40.421053S289.845895 422.292211 312.158316 422.292211zM554.684632 343.201684l-244.736 0c-22.339368 0-40.421053-18.108632-40.421053-40.421053 0-22.285474 18.081684-40.421053 40.421053-40.421053l244.736 0c22.312421 0 40.421053 18.135579 40.421053 40.421053C595.105684 325.093053 576.997053 343.201684 554.684632 343.201684z"  horiz-adv-x="1024" />

    
    <glyph glyph-name="big" unicode="&#59109;" d="M250.951697 677.901087L13.565644 110.35829899999999l98.232573 0 57.296396 136.43017L422.851064 246.78846899999996l54.573086-136.43017 100.955882 0L340.99398 677.901087 250.951697 677.901087zM201.840501 328.64555299999995c0 0 93.666576 237.386052 95.493993 253.756451l2.7284 0c0-12.741016 90.042283-253.756451 90.042283-253.756451L201.840501 328.64555299999995zM853.963682 424.144636L853.963682 590.5872039999999l-68.215085 0 0-166.442568L622.034429 424.144636l0-65.486685 163.714168 0 0-163.714168 68.215085 0 0 163.714168 160.980678 0L1014.94436 424.144636 853.963682 424.144636z"  horiz-adv-x="1025" />

    
    <glyph glyph-name="small" unicode="&#59110;" d="M250.870252 676.521616L14.644788 111.73776999999995 112.393782 111.73776999999995l57.021519 135.768431L421.93481 247.50620100000003l54.308391-135.768431 100.462124 0L340.47986 676.521616 250.870252 676.521616zM202.00339 328.96115199999997c0 0 82.208314 220.669513 95.030775 252.519509l2.718219 0c14.319009-43.532229 89.604518-252.519509 89.604518-252.519509L202.00339 328.96115199999997zM617.43789 424.002108l0-67.884216 396.432417 0L1013.870307 424.002108 617.43789 424.002108z"  horiz-adv-x="1025" />

    
    <glyph glyph-name="index" unicode="&#58947;" d="M959.716928 341.049792M64.446801 301.373141M868.216981 474.707908 868.216981 690.037115 743.55475 690.037115l0-90.666976L512.378623 830.546266 61.023842 379.191484l74.231655 0 377.123127 377.123127 377.123127-377.123127 74.231655 0L868.216981 474.707908zM787.295973 646.295891l37.179784 0 0-127.84676-37.179784 37.179784L787.295973 646.295891zM781.828448 47.037549 632.604822 47.037549 632.604822 347.396337 397.85838 347.396337 397.85838 47.037549 249.278413 47.037549 249.278413 379.191484 201.162556 379.191484 201.162556-1.077286 445.973214-1.077286 445.973214 299.28048 584.488964 299.28048 584.488964-1.077286 829.943282-1.077286 829.943282 379.191484 781.828448 379.191484Z"  horiz-adv-x="1024" />

    
    <glyph glyph-name="dfergnairr" unicode="&#58885;" d="M496.82963 824.32c-7.205926-5.688889-20.48-14.791111-29.202963-19.721481-8.722963-4.93037-96.711111-57.647407-195.318519-116.811852-98.607407-59.543704-182.802963-109.985185-186.974815-111.881481-16.308148-8.722963-20.859259-14.791111-20.859259-28.823704 0-16.308148 12.515556-30.340741 26.927407-30.340741 5.688889 0 17.445926 6.826667 29.582222 17.066667 25.031111 21.238519 32.995556 21.238519 31.478519 0-0.758519-8.343704-1.896296-131.223704-3.034074-273.066667-1.517037-197.594074-1.137778-261.688889 2.654815-274.962963 5.688889-20.48 21.617778-42.097778 39.442963-53.096296 13.274074-7.964444 13.653333-7.964444 326.162963-7.964444 288.616296 0 314.026667 0.379259 323.508148 6.447407 17.066667 10.619259 27.685926 21.617778 35.271111 36.788148 7.205926 14.032593 7.585185 23.893333 6.826667 297.718519-0.379259 235.140741 0.379259 283.306667 4.551111 284.444444 3.034074 0.379259 14.791111-6.826667 26.168889-16.308148 28.823704-23.893333 42.477037-22.755556 56.50963 4.93037 3.792593 7.205926 3.413333 10.619259-3.413333 21.617778-4.551111 7.205926-9.860741 13.274074-12.136296 13.274074-4.93037 0-399.36 237.416296-416.805926 251.06963-17.445926 13.274074-24.651852 13.274074-41.339259-0.379259zm38.305185-62.957037c7.205926-5.30963 26.168889-17.825185 42.477037-27.685926 16.308148-9.860741 34.512593-20.859259 39.822222-24.272593 5.688889-3.792593 13.653333-8.343704 17.825185-10.24 4.171852-1.896296 14.032593-7.964444 21.997037-13.274074 8.343704-5.688889 28.823704-17.825185 45.511111-27.685926 17.066667-9.481481 42.097778-24.651852 55.751111-33.374815 13.653333-8.722963 35.271111-21.997037 48.165926-28.823704l23.893333-12.894815 0-295.063704c0-288.616296-0.379259-295.063704-7.585185-302.26963-4.171852-4.171852-10.619259-7.585185-14.032593-7.585185-102.4-1.896296-176.734815-1.137778-178.251852 1.137778-1.137778 1.517037-2.275556 58.405926-2.275556 125.914074-0.758519 117.94963-1.137778 123.259259-8.722963 133.499259-14.411852 19.721481-23.893333 21.997037-98.228148 23.134815-77.368889 1.517037-89.125926-1.137778-106.192593-23.514074l-9.860741-12.894815 0.758519-121.362963c0.379259-66.74963-0.379259-122.88-1.517037-124.397037-2.275556-3.792593-172.562963-3.413333-184.699259 0.379259-4.171852 1.137778-9.481481 5.688889-11.377778 9.860741-2.654815 4.551111-4.171852 105.813333-4.171852 299.994074l0 292.408889 20.100741 10.998519c10.998519 6.068148 26.168889 15.17037 33.374815 20.100741 15.928889 10.619259 79.265185 48.545185 87.22963 52.337778 3.034074 1.517037 10.24 5.688889 15.928889 9.481481 5.688889 3.413333 36.408889 22.376296 68.645926 41.718519 31.857778 19.342222 64.094815 39.442963 70.921481 44.373333 15.928889 11.757037 18.204444 11.757037 34.512593 0zm41.339259-663.703704c1.137778-60.302222 1.137778-111.881481 0.758519-114.536296-1.517037-5.30963-106.192593-8.722963-113.398519-3.413333-3.792593 2.275556-4.93037 29.582222-4.93037 114.157037 0 60.681481 0.758519 111.502222 1.896296 112.64 1.137778 1.137778 27.306667 1.896296 58.026667 1.517037l55.751111-0.379259 1.896296-109.985185zM487.348148 655.54963c-33.754074-10.619259-53.854815-27.685926-71.68-59.922963-8.343704-15.17037-9.860741-22.376296-9.860741-48.545185 0-35.271111 8.343704-56.13037 32.616296-80.782222 24.272593-24.651852 40.201481-30.72 79.265185-31.099259 30.72 0 36.02963 1.137778 51.958519 10.998519 62.198519 36.788148 79.265185 110.743704 38.684444 166.494815-28.065185 38.684444-78.127407 56.50963-120.983704 42.856296zm46.648889-53.475556c45.511111-19.342222 55.751111-64.853333 21.997037-98.986667-21.617778-21.997037-62.577778-18.204444-83.437037 7.205926-9.860741 12.515556-11.757037 17.825185-11.757037 36.02963 0 25.78963 7.585185 37.546667 32.237037 51.579259 20.100741 11.377778 22.376296 11.757037 40.96 4.171852z"  horiz-adv-x="1024" />

    
    <glyph glyph-name="fenlei" unicode="&#58956;" d="M0 90.715l146.643 0 0-146.643L0-55.928 0 90.715zM0 457.321l146.643 0 0-146.643L0 310.678 0 457.321zM0 823.928l146.643 0 0-146.643L0 677.285 0 823.928zM293.285 90.715l733.213 0 0-146.643L293.285-55.928 293.285 90.715zM293.285 457.321l733.213 0 0-146.643L293.285 310.678 293.285 457.321zM293.285 823.928l733.213 0 0-146.643L293.285 677.285 293.285 823.928z"  horiz-adv-x="1027" />

    
    <glyph glyph-name="iphone" unicode="&#58923;" d="M734.464 857.216 289.792 857.216c-32.256 0-58.624-26.496-58.624-59.136L231.168-33.28c0-32.384 26.368-58.88 58.624-58.88l444.544 0c32.256 0 58.624 26.496 58.624 58.88L792.96 798.08C793.216 830.72 766.848 857.216 734.464 857.216L734.464 857.216zM487.424 768.384c0 5.248 4.224 9.6 9.6 9.6l59.904 0c5.12 0 9.6-4.224 9.6-9.6l0-0.768c0-5.248-4.224-9.6-9.6-9.6l-59.904 0c-5.12 0-9.6 4.224-9.6 9.6L487.424 768.384 487.424 768.384zM457.856 778.112c5.376 0 9.856-4.48 9.856-9.856 0-5.376-4.48-9.856-9.856-9.856-5.376 0-9.856 4.48-9.856 9.856C448 773.632 452.48 778.112 457.856 778.112L457.856 778.112zM526.976-52.864c-21.888 0-39.68 17.792-39.68 39.808 0 22.016 17.792 39.808 39.68 39.808s39.68-17.792 39.68-39.808C566.656-35.072 548.608-52.864 526.976-52.864L526.976-52.864zM753.792 66.048 270.464 66.048 270.464 699.008l483.2 0L753.664 66.048 753.792 66.048z"  horiz-adv-x="1024" />

    
    <glyph glyph-name="jindu" unicode="&#58889;" d="M157.538462 738.461538 157.538462 580.923077C157.538462 585.176615 145.250462 580.923077 157.538462 580.923077L787.692308 580.923077C783.517538 580.923077 779.500308 589.115077 787.692308 580.923077L787.692308 738.461538C787.692308 731.372308 799.901538 738.461538 787.692308 738.461538L157.538462 738.461538C145.329231 738.540308 157.538462 750.592 157.538462 738.461538L157.538462 738.461538ZM1024 423.384615C1024 435.357538 1014.468923 423.384615 1024 423.384615L157.538462 423.384615C145.329231 423.384615 157.538462 435.357538 157.538462 423.384615L157.538462 265.846154C157.538462 253.873231 145.250462 265.846154 157.538462 265.846154L1024 265.846154C1036.288 265.846154 1024 253.873231 1024 265.846154L1024 379.667692 1023.921231 379.667692 1024 423.384615ZM630.153846 108.307692C630.153846 120.280615 642.363077 108.307692 630.153846 108.307692L157.538462 108.307692C145.329231 108.307692 157.538462 120.280615 157.538462 108.307692L157.538462-49.230769C157.538462-61.203692 145.250462-49.230769 157.538462-49.230769L630.153846-49.230769C642.363077-49.230769 630.153846-61.203692 630.153846-49.230769L630.153846 108.307692 633.777231 103.502769 630.153846 108.307692ZM73.806769-91.687385 73.806769 859.687385C73.806769 879.694769 57.265231 896 36.864 896 16.462769 896 0 879.694769 0 859.687385L0-91.687385C0-111.773538 16.462769-128 36.864-128 57.265231-128 73.806769-111.773538 73.806769-91.687385L73.806769-91.687385Z"  horiz-adv-x="1032" />

    
    <glyph glyph-name="books" unicode="&#59180;" d="M544.768 578.56l30.72 53.248-79.872 45.056-30.72-52.224zM803.84 551.936h92.16v-60.416h-92.16zM803.84 64.512h92.16v-60.416h-92.16zM1018.88 764.928c0 33.792 5.12 60.416-28.672 60.416H712.704c-33.792 0-30.72-27.648-30.72-60.416v-25.6l-204.8 110.592c-29.696 16.384-37.888-2.048-55.296-30.72l-399.36-686.08c-17.408-28.672-29.696-50.176 0-66.56l242.688-143.36c29.696-16.384 31.744 13.312 49.152 41.984l366.592 631.808v-623.616c0-33.792-3.072-60.416 30.72-60.416h277.504c33.792 0 28.672 27.648 28.672 60.416V764.928z m-757.76-769.024L75.776 102.4l398.336 685.056L659.456 680.96 261.12-4.096z m696.32-22.528h-215.04V764.928h214.016v-791.552zM803.84 704.512h92.16v-60.416h-92.16zM143.36 101.376l79.872-46.08 30.72 53.248-79.872 45.056zM388.096 492.544l79.872-46.08 30.72 53.248-79.872 45.056z"  horiz-adv-x="1024" />

    
    <glyph glyph-name="bookshelf" unicode="&#59181;" d="M793.6-47.104l128 20.48-111.616 700.416-200.704-31.744 109.568-689.152H563.2V763.904H360.448v-811.008h-51.2V865.28H106.496v-912.384H5.12v-51.2h1013.76v51.2h-225.28z m-534.528 51.2h-101.376V815.104h101.376v-811.008z m252.928 0h-101.376V713.728H512v-709.632z m155.648 595.968l100.352 15.36L863.232 15.36l-100.352-15.36-95.232 600.064z"  horiz-adv-x="1024" />

    
    <glyph glyph-name="jiarushujia" unicode="&#59023;" d="M990.718501 408.232914H147.879514c-12.196787 0-28.837792 4.166903-39.567158 9.939373-4.279467 2.282996-105.337093 58.202587-105.337093 221.227544 0 163.027004 101.057627 218.958874 105.362676 221.255173 10.703783 5.734608 27.344788 9.91379 39.541575 9.91379h842.838987c23.793916 0 30.04427-16.150842 31.400151-21.106713 1.356904-4.944616 4.193509-22.036899-16.285919-34.133402-1.006933-0.602727-108.227933-66.033949-109.983926-176.34124-1.75804-109.554138 108.575858-174.886099 109.677958-175.538969 20.658506-11.919471 17.947767-29.061896 16.615423-34.032094-1.331321-4.969175-7.528464-21.183462-31.423687-21.183462zM147.879514 819.168124c-3.802606 0-11.933797-2.033309-15.271822-3.827165-3.037173-1.694595-78.231759-45.152363-78.231759-175.941128 0-130.798998 75.194586-174.243463 78.394465-176.028109 3.175319-1.705851 11.30651-3.738138 15.109116-3.738138h779.165805c-38.603203 36.69269-83.931574 97.555873-82.599229 180.181709 1.329275 82.271772 46.282093 142.859685 84.028788 179.352831H147.879514zM606.049514 25.847947H375.278617c-7.086395 0-12.821003-5.733585-12.821003-12.81998v-25.644053c0-7.084349 5.734608-12.81691 12.821003-12.81691h230.770897c7.086395 0 12.822027 5.733585 12.822027 12.81691v25.644053c0 7.086395-5.736655 12.81998-12.822027 12.81998zM503.485581 128.413927h-25.644054c-7.084349 0-12.81691-5.734608-12.81691-12.821003v-230.770897c0-7.086395 5.733585-12.822027 12.81691-12.822027h25.644054c7.087419 0 12.81998 5.735631 12.81998 12.822027V115.592924c-0.001023 7.087419-5.733585 12.821003-12.81998 12.821003zM917.709697 349.854319c-10.716063 5.721305-27.355021 9.91379-39.554878 9.91379H35.327088c-23.793916 0-30.043247-16.138562-31.398104-21.10876-1.355881-4.944616-4.192485-22.035876 16.287965-34.131355 1.003863-0.603751 108.22384-66.034972 109.980857-176.343287C131.953799 18.631592 21.621948-46.700369 20.517801-47.351192-0.137635-59.273732 2.573103-76.415135 3.902378-81.385333c1.330298-4.969175 7.529487-21.183462 31.423687-21.184485h293.755394v51.401694H99.00027c38.601156 36.69269 83.929528 97.558943 82.59923 180.181709-1.330298 82.271772-46.281069 142.859685-84.028789 179.353854h780.583085c3.815909 0 11.946077-2.033309 15.286148-3.839445 3.038196-1.684362 78.230736-45.128827 78.230735-175.941128 0-130.788765-75.192539-174.234253-78.406744-176.016852-3.164063-1.705851-11.294231-3.738138-15.110139-3.738138h-225.362724v-51.401694h225.363747c12.199856 0 28.839839 4.166903 39.578414 9.939373 4.26821 2.284019 105.340163 58.20361 105.340163 221.218334 0 163.03826-101.074 218.957851-105.363699 221.26643z"  horiz-adv-x="1024" />

    
    <glyph glyph-name="hot1" unicode="&#58987;" d="M512-128C252.785778-128 42.638222 82.602667 42.638222 342.414222c0 81.92 16.156444 149.333333 52.906667 216.405334-18.744889-111.559111 62.663111-146.915556 62.663111-146.915556S127.004444 632.007111 259.072 716.8C236.373333 584.448 327.111111 490.296889 327.111111 490.296889S243.939556 802.986667 555.52 896.028444c0 0-91.192889-341.674667 128.597333-341.674666 4.465778 0 9.073778 0.142222 13.795556 0.426666 107.150222 6.542222 72.362667 179.342222 29.127111 205.568C878.023111 682.183111 981.333333 524.458667 981.333333 342.414222 981.333333 82.602667 771.214222-128 512-128z m-140.202667 451.868444H320.284444v-77.397333H244.224v77.397333h-51.484444v-231.054222h51.484444v103.224889H320.284444v-103.224889h51.512889v231.054222z m235.036445-37.745777c-19.399111 20.110222-45.255111 30.151111-77.596445 30.151111-17.863111 0-33.621333-2.901333-47.303111-8.675556a86.044444 86.044444 0 0 1-28.359111-19.825778 103.623111 103.623111 0 0 1-20.423111-30.151111c-6.684444-15.189333-10.012444-33.991111-10.012444-56.376889 0-35.015111 9.614222-62.492444 28.871111-82.432 19.256889-19.968 45.198222-29.923556 77.824-29.923555 32.227556 0 57.969778 10.012444 77.226666 30.065778s28.899556 47.815111 28.899556 83.342222c0 35.783111-9.699556 63.744-29.127111 83.825778z m47.985778 37.745777l-0.398223-51.598222h65.109334l0.398222-179.456h44.288l-0.369778 179.456h64.938667l0.398222 51.598222h-174.364444z m-125.127112-197.034666c-17.664 0-32.227556 6.428444-43.719111 19.256889-11.463111 12.856889-17.208889 31.744-17.208889 56.632889 0 25.315556 5.603556 44.231111 16.782223 56.775111 11.178667 12.572444 25.884444 18.830222 44.145777 18.830222s32.910222-6.200889 43.918223-18.602667c11.036444-12.401778 16.554667-31.203556 16.554666-56.405333 0-25.486222-5.660444-44.600889-17.009777-57.372445-11.320889-12.743111-25.799111-19.114667-43.463112-19.114666z"  horiz-adv-x="1024" />

    
    <glyph glyph-name="paixu" unicode="&#58906;" d="M374.9888 755.9168H36.5568c-19.6096 0-35.584 27.904-35.584 62.1568C0.9728 852.2752 16.896 880.2304 36.5568 880.2304h338.432c19.6096 0 35.584-27.9552 35.584-62.1568 0-34.2528-15.9744-62.1568-35.584-62.1568zM447.744 307.3536H61.7984A61.44 61.44 0 0 0 1.024 369.5104c0 34.2016 27.3408 62.1568 60.8256 62.1568h385.9456c33.4848 0 60.8256-27.9552 60.8256-62.1568a61.44 61.44 0 0 0-60.8256-62.1568zM659.712-127.5904H61.7984A61.44 61.44 0 0 0 1.024-65.4336a61.44 61.44 0 0 0 60.8256 62.1056h597.9136a61.44 61.44 0 0 0 60.8768-62.1056 61.44 61.44 0 0 0-60.8768-62.1568zM1311.3344 477.7472a61.44 61.44 0 0 0-87.4496-0.2048l-198.656 201.9328v-743.424c0-34.5088-27.136-62.464-60.8256-62.464-33.792 0-60.8256 27.9552-60.8256 62.464V682.8032L703.4368 475.648a59.6992 59.6992 0 0 0-86.016-0.512 63.6416 63.6416 0 0 0-0.512 88.3712L920.0128 876.032a60.416 60.416 0 0 0 43.52 18.688c15.36 0 31.0784-6.0928 43.008-17.92l0.2048-0.3072s0.256 0 0.256-0.2048l304.64-309.9648a63.744 63.744 0 0 0-0.256-88.576z"  horiz-adv-x="1331" />

    
    <glyph glyph-name="gonggao1" unicode="&#59009;" d="M930.133333 558.933333h-55.466666l-307.2 285.866667C563.2 870.4 541.866667 896 512 896c-29.866667 0-51.2-21.333333-55.466667-51.2L149.333333 558.933333H93.866667C42.666667 558.933333 0 516.266667 0 465.066667v-494.933334C0-85.333333 42.666667-128 93.866667-128h836.266666c51.2 0 93.866667 42.666667 93.866667 93.866667V465.066667c0 51.2-42.666667 93.866667-93.866667 93.866666zM473.6 802.133333c8.533333-8.533333 21.333333-17.066667 38.4-17.066666 12.8 0 29.866667 4.266667 38.4 17.066666L810.666667 558.933333H213.333333l260.266667 243.2zM981.333333-29.866667c0-29.866667-21.333333-51.2-51.2-51.2H93.866667c-29.866667-4.266667-51.2 21.333333-51.2 51.2V465.066667c0 29.866667 21.333333 51.2 51.2 51.2h836.266666c29.866667 0 51.2-21.333333 51.2-51.2v-494.933334zM857.6 384H157.866667c-12.8 0-21.333333-8.533333-21.333334-21.333333s8.533333-21.333333 21.333334-21.333334h704c12.8 0 21.333333 8.533333 21.333333 21.333334s-12.8 21.333333-25.6 21.333333zM857.6 238.933333H157.866667c-12.8 0-21.333333-8.533333-21.333334-21.333333s8.533333-21.333333 21.333334-21.333333h704c12.8 0 21.333333 8.533333 21.333333 21.333333s-12.8 21.333333-25.6 21.333333zM558.933333 98.133333H157.866667c-12.8 0-21.333333-8.533333-21.333334-21.333333s8.533333-21.333333 21.333334-21.333333h401.066666c12.8 0 21.333333 8.533333 21.333334 21.333333s-8.533333 21.333333-21.333334 21.333333z"  horiz-adv-x="1024" />

    
    <glyph glyph-name="rank" unicode="&#59042;" d="M352.075 829.772c-17.673 0-32-14.327-32-32v-734.681L202.981 219.927c-10.573 14.161-30.624 17.072-44.786 6.497-14.162-10.573-17.071-30.624-6.498-44.786l174.691-233.981c0.367-0.493 0.751-0.974 1.145-1.445 0.135-0.162 0.275-0.318 0.413-0.477a29.614 29.614 0 0 1 1.865-1.968c0.233-0.227 0.466-0.454 0.705-0.672 0.115-0.104 0.234-0.204 0.35-0.307a32.103 32.103 0 0 1 1.841-1.516c0.084-0.064 0.166-0.131 0.251-0.195 0.293-0.219 0.592-0.427 0.892-0.634 0.172-0.119 0.342-0.239 0.516-0.354a32.888 32.888 0 0 1 3.191-1.862c0.17-0.086 0.338-0.178 0.509-0.261 1.057-0.516 2.147-0.972 3.265-1.371l0.07-0.023a31.78 31.78 0 0 1 3.333-0.975l0.248-0.057c0.488-0.111 0.981-0.209 1.478-0.297 0.102-0.018 0.203-0.037 0.305-0.054 0.471-0.079 0.945-0.145 1.422-0.203 0.122-0.015 0.244-0.033 0.367-0.047 0.448-0.049 0.899-0.085 1.352-0.115 0.146-0.01 0.291-0.025 0.438-0.033 0.443-0.024 0.889-0.033 1.336-0.038 0.14-0.002 0.279-0.012 0.419-0.012 0.063 0 0.126 0.007 0.188 0.007a35.957 35.957 0 0 1 2.617 0.127c0.706 0.062 1.407 0.14 2.099 0.247 0.114 0.018 0.228 0.042 0.342 0.061a31.627 31.627 0 0 1 1.906 0.378c0.167 0.038 0.334 0.074 0.501 0.116a31.37 31.37 0 0 1 2.101 0.594c0.133 0.043 0.265 0.09 0.397 0.134 0.688 0.231 1.366 0.48 2.032 0.755 0.051 0.021 0.103 0.039 0.154 0.061a31.407 31.407 0 0 1 2.119 0.989c0.112 0.057 0.223 0.113 0.334 0.171a32.036 32.036 0 0 1 2.049 1.169c0.071 0.044 0.141 0.091 0.213 0.136a32.174 32.174 0 0 1 3.324 2.404c0.183 0.151 0.357 0.309 0.535 0.464 0.208 0.18 0.418 0.357 0.621 0.542 0.294 0.267 0.577 0.543 0.859 0.819 0.079 0.078 0.162 0.153 0.24 0.232 0.322 0.322 0.633 0.652 0.939 0.985 0.036 0.04 0.074 0.078 0.111 0.118 0.319 0.351 0.627 0.708 0.927 1.071l0.076 0.089c0.297 0.36 0.583 0.726 0.862 1.097l0.096 0.126c0.262 0.352 0.514 0.709 0.76 1.069 0.05 0.073 0.102 0.146 0.151 0.219 0.22 0.327 0.43 0.659 0.637 0.993 0.074 0.119 0.149 0.237 0.221 0.358 0.173 0.289 0.339 0.58 0.502 0.874 0.099 0.178 0.199 0.355 0.295 0.534 0.127 0.238 0.248 0.478 0.368 0.719 0.122 0.244 0.244 0.487 0.36 0.734 0.085 0.182 0.166 0.365 0.248 0.548 0.138 0.309 0.274 0.619 0.403 0.932 0.052 0.127 0.101 0.255 0.151 0.383 0.146 0.369 0.287 0.74 0.419 1.115l0.08 0.236c0.144 0.418 0.281 0.839 0.407 1.265 0.013 0.045 0.025 0.091 0.039 0.136 0.132 0.451 0.255 0.904 0.368 1.363l0.023 0.098c0.112 0.463 0.215 0.929 0.307 1.4l0.025 0.139c0.085 0.451 0.164 0.904 0.231 1.361 0.015 0.102 0.025 0.204 0.039 0.306 0.054 0.399 0.106 0.8 0.145 1.204 0.025 0.254 0.039 0.51 0.058 0.765 0.019 0.254 0.043 0.507 0.055 0.763 0.028 0.558 0.041 1.117 0.04 1.676V797.772c0.002 17.674-14.326 32-31.998 32zM859.176 582.877L684.494 816.844a32.8 32.8 0 0 1-1.043 1.33c-0.15 0.182-0.308 0.355-0.461 0.533-0.181 0.208-0.358 0.42-0.544 0.623a33.373 33.373 0 0 1-0.819 0.859c-0.078 0.079-0.153 0.161-0.231 0.239a31.345 31.345 0 0 1-0.989 0.943l-0.113 0.106a31.696 31.696 0 0 1-1.08 0.935l-0.078 0.066c-0.364 0.3-0.734 0.589-1.109 0.871l-0.113 0.087a32.276 32.276 0 0 1-1.083 0.771l-0.203 0.14a30.701 30.701 0 0 1-1.008 0.646c-0.114 0.071-0.228 0.143-0.343 0.212-0.293 0.176-0.59 0.344-0.888 0.51-0.173 0.097-0.345 0.194-0.52 0.287a33.799 33.799 0 0 1-0.734 0.376c-0.239 0.12-0.477 0.239-0.719 0.353-0.186 0.087-0.374 0.17-0.562 0.254-0.304 0.136-0.609 0.27-0.918 0.397-0.132 0.054-0.265 0.104-0.397 0.157a32.352 32.352 0 0 1-1.102 0.414l-0.248 0.084a30.995 30.995 0 0 1-1.253 0.403l-0.147 0.042a32.463 32.463 0 0 1-1.353 0.365l-0.104 0.024a33.54 33.54 0 0 1-1.395 0.306l-0.14 0.025a32.19 32.19 0 0 1-1.361 0.231c-0.099 0.015-0.199 0.024-0.298 0.038a30.41 30.41 0 0 1-1.213 0.146c-0.244 0.024-0.489 0.037-0.734 0.056-0.265 0.02-0.528 0.045-0.795 0.058a32.34 32.34 0 0 1-3.236-0.001l-0.045-0.003c-0.512-0.027-1.024-0.065-1.535-0.117-0.119-0.012-0.237-0.029-0.356-0.043-0.401-0.045-0.802-0.093-1.202-0.153-0.179-0.027-0.355-0.061-0.532-0.09-0.336-0.056-0.671-0.112-1.005-0.18-0.216-0.043-0.43-0.094-0.645-0.142-0.292-0.065-0.584-0.128-0.874-0.202-0.243-0.061-0.484-0.13-0.725-0.197-0.258-0.072-0.517-0.141-0.773-0.22-0.266-0.081-0.527-0.17-0.79-0.258-0.229-0.076-0.458-0.15-0.686-0.232-0.286-0.103-0.568-0.214-0.85-0.324-0.201-0.079-0.403-0.154-0.602-0.237-0.308-0.128-0.611-0.265-0.914-0.402-0.17-0.077-0.342-0.151-0.511-0.231-0.34-0.161-0.674-0.332-1.007-0.505-0.129-0.067-0.26-0.13-0.389-0.199-0.388-0.208-0.77-0.426-1.148-0.65-0.073-0.043-0.147-0.083-0.22-0.127a32.07 32.07 0 0 1-3.946-2.793c-0.196-0.162-0.383-0.332-0.575-0.498-0.194-0.169-0.392-0.334-0.582-0.508-0.299-0.272-0.587-0.552-0.874-0.833-0.075-0.073-0.152-0.144-0.226-0.218a32.81 32.81 0 0 1-0.948-0.994l-0.101-0.108c-0.321-0.353-0.631-0.714-0.934-1.078-0.023-0.028-0.047-0.054-0.069-0.082-0.299-0.363-0.588-0.732-0.869-1.106l-0.089-0.116a31.83 31.83 0 0 1-0.765-1.076l-0.148-0.214c-0.22-0.328-0.432-0.661-0.638-0.996-0.073-0.118-0.148-0.236-0.22-0.355-0.174-0.289-0.34-0.582-0.504-0.876-0.099-0.177-0.198-0.353-0.294-0.532-0.127-0.238-0.248-0.479-0.369-0.72-0.122-0.244-0.244-0.487-0.36-0.734a26.87 26.87 0 0 1-0.247-0.547c-0.138-0.309-0.274-0.619-0.403-0.933-0.052-0.127-0.101-0.255-0.151-0.383-0.146-0.369-0.287-0.739-0.419-1.115-0.028-0.079-0.053-0.158-0.08-0.237-0.144-0.418-0.28-0.839-0.407-1.265l-0.038-0.134c-0.132-0.451-0.256-0.906-0.368-1.365l-0.022-0.096c-0.112-0.464-0.215-0.93-0.307-1.401l-0.025-0.14c-0.085-0.45-0.164-0.903-0.23-1.359-0.015-0.103-0.025-0.207-0.039-0.311-0.054-0.398-0.106-0.796-0.145-1.199-0.025-0.259-0.04-0.519-0.059-0.778-0.018-0.25-0.042-0.498-0.055-0.75a32.344 32.344 0 0 1-0.04-1.678v-830.949c0-17.673 14.327-32 32-32s32 14.327 32 32V701.423l117.094-156.834c6.283-8.417 15.913-12.858 25.667-12.858a31.863 31.863 0 0 1 19.119 6.36c14.155 10.573 17.064 30.625 6.491 44.786z"  horiz-adv-x="1024" />

    
    <glyph glyph-name="shujia" unicode="&#59010;" d="M792 832H344v-896h448c61.825 0 112 50.176 112 112V720c0 61.824-50.12 112-112 112z m-0.448-358.569c0.449-24.976-1.847-32.703-11.872-32.703-4.369-0.728-11.424 1.96-21.672 10.807-15.399 10.92-26.151 20.44-35.448 26.376-8.289 7.169-21.336 6.328-29.512 0-10.752-6.048-26.152-19.376-35-26.376-10.92-9.631-18.256-10.807-20.832-10.807-10.471 0-13.16 9.072-12.768 32.703L624 746.263c0 25.816 10.416 29.736 21 29.736h126c12.824 0 21-5.88 21-29.736l-0.448-272.832zM120 720v-672c0-61.824 50.176-112 112-112h56V832h-56c-61.824 0-112-50.176-112-112z"  horiz-adv-x="1024" />

    
    <glyph glyph-name="iconfonticozhuce" unicode="&#58900;" d="M504.003 337.046c155.467 0 281.542 124.74 281.542 278.631 0 153.817-126.075 278.592-281.542 278.592-155.553 0-281.623-124.777-281.623-278.592 0-153.891 126.071-278.631 281.623-278.631zM511.004 310.694c-217.675 0-492.737-174.644-492.737-390.061v-47.643h985.478v47.643c0 215.415-275.067 390.061-492.741 390.061z"  horiz-adv-x="1024" />

    
    <glyph glyph-name="hot2" unicode="&#59012;" d="M523.13088 577.792l-35.26656 35.26656 68.3008 68.3008-70.54336 70.54848-68.29568-68.3008-35.27168 35.27168 165.56032 165.56032 35.26656-35.27168-66.79552-66.80064 70.53312-70.54848 66.81088 66.81088 35.28192-35.28192-165.5808-165.5552z m108.92288 52.25984c25.92768 25.93792 54.62016 39.4752 86.03648 40.61696 31.42656 1.14176 59.57632-10.72128 84.44416-35.58912 23.6544-23.65952 34.82112-50.57536 33.5104-80.75264-1.31584-30.17728-14.336-57.63072-39.0656-82.3552-25.79456-25.79968-54.23104-39.22944-85.2992-40.2944-31.06304-1.06496-58.74176 10.5472-83.0464 34.85184-23.72096 23.72608-35.21536 50.77504-34.46272 81.17248 0.73728 30.39232 13.36832 57.83552 37.88288 82.35008z m39.00928-35.16416c-16.10752-16.10752-25.37984-33.15712-27.83744-51.14368-2.46272-17.99168 3.072-33.76128 16.62464-47.29856 13.80352-13.81888 29.47072-19.6864 46.96064-17.5872 17.50016 2.10432 34.49856 11.41248 51.04128 27.95008 17.24416 17.24928 27.136 34.61632 29.66528 52.10624 2.52416 17.49504-3.01568 33.0496-16.62976 46.65856-13.80864 13.824-29.82912 19.57376-48.04096 17.26464-18.2016-2.31424-35.46624-11.63264-51.78368-27.95008z m311.35232-202.97216l-47.25248 47.24736-136.69888-136.704-35.37408 35.3792 136.704 136.69888-47.1296 47.13472 28.85632 28.86144 129.76128-129.76128-28.86656-28.85632zM942.92992 896H3.93728L1024-124.0576V790.3488C1024 848.72192 987.72992 896 942.92992 896z"  horiz-adv-x="1024" />

    
    <glyph glyph-name="shujia1" unicode="&#58893;" d="M792 832H344v-896h448c61.825 0 112 50.176 112 112V720c0 61.824-50.12 112-112 112z m-0.448-358.569c0.449-24.976-1.847-32.703-11.872-32.703-4.369-0.728-11.424 1.96-21.672 10.807-15.399 10.92-26.151 20.44-35.448 26.376-8.289 7.169-21.336 6.328-29.512 0-10.752-6.048-26.152-19.376-35-26.376-10.92-9.631-18.256-10.807-20.832-10.807-10.471 0-13.16 9.072-12.768 32.703L624 746.263c0 25.816 10.416 29.736 21 29.736h126c12.824 0 21-5.88 21-29.736l-0.448-272.832zM120 720v-672c0-61.824 50.176-112 112-112h56V832h-56c-61.824 0-112-50.176-112-112z"  horiz-adv-x="1024" />

    
    <glyph glyph-name="jinrongtubiao_jindu" unicode="&#58890;" d="M806 6.64h-24c-3.008 158.224-84 257.12-176.992 339.056-27.008 25.424-18 56.512 0 70.64 92.992 84.768 174 180.832 176.992 341.888h24c21.008 0 39.008 16.96 39.008 36.736s-18 36.736-39.008 36.736h-588C194 834.512 176 817.568 176 797.792s18-36.736 39.008-36.736h24C242 600 320 503.936 416 419.168c20.992-19.776 20.992-50.864 0-70.64-93.008-81.936-174-180.832-176.992-339.056h-21.008c-20.992 0-39.008-16.96-39.008-36.736 0-19.776 18-36.736 39.008-36.736h591.008C830-64 848-47.04 848-27.264c0 16.944-18 33.904-42 33.904zM743.008 758.224c0-50.864-12-96.064-27.008-135.632-68.992-19.776-342-19.776-411.008 0-18 39.552-27.008 84.768-27.008 135.632h465.024zM508.992 65.968c-39.008 0-128.992-59.328-192-59.328h-39.008c2.992 132.8 66 217.568 147.008 291.024 20.992 19.776 54 62.16 87.008 62.16s66-45.216 87.008-64.992c80.992-73.456 144-158.224 146.992-291.024h-44.992c-63.008 2.832-150.016 62.16-192.016 62.16z"  horiz-adv-x="1024" />

    
    <glyph glyph-name="zuijinbofang" unicode="&#59017;" d="M510.46912 832.17408c-246.28736 0-446.66368-200.35584-446.66368-446.6432 0-246.29248 200.37632-446.64832 446.66368-446.64832a28.09856 28.09856 0 1 1 0 56.19712c-215.30112 0-390.46656 175.15008-390.46656 390.4512s175.16544 390.4512 390.46656 390.4512 390.46656-175.15008 390.46656-390.4512a28.09856 28.09856 0 1 1 56.19712 0c0 246.28736-200.37632 446.6432-446.66368 446.6432zM510.46912 739.15904a28.09856 28.09856 0 0 1-28.09856-28.09856v-325.5296l0.00512-0.128c0.00512-0.88064 0.04608-1.76128 0.13312-2.6368 0.04096-0.4352 0.12288-0.86016 0.18432-1.29536 0.07168-0.47616 0.12288-0.95232 0.21504-1.42336 0.09728-0.49152 0.2304-0.96768 0.35328-1.45408 0.1024-0.40448 0.18944-0.80896 0.31232-1.20832 0.14848-0.48128 0.32768-0.9472 0.49664-1.42336 0.14336-0.38912 0.27136-0.78336 0.43008-1.16736 0.18944-0.45568 0.4096-0.89088 0.61952-1.33632 0.18432-0.384 0.35328-0.77312 0.55296-1.152 0.24064-0.45056 0.512-0.87552 0.77824-1.31072 0.20992-0.34816 0.40448-0.70144 0.63488-1.03936 0.35328-0.52736 0.7424-1.02912 1.1264-1.53088 0.16896-0.22016 0.32256-0.45568 0.50176-0.67072 1.18784-1.44896 2.51904-2.78016 3.968-3.968 0.2304-0.18944 0.47104-0.34816 0.70656-0.52736 0.49152-0.37888 0.97792-0.75776 1.49504-1.1008 0.34816-0.2304 0.70656-0.43008 1.06496-0.64512 0.43008-0.26112 0.84992-0.52736 1.29024-0.76288 0.384-0.2048 0.77312-0.37376 1.16224-0.5632 0.44032-0.20992 0.8704-0.43008 1.32608-0.6144 0.38912-0.15872 0.78848-0.29184 1.18272-0.4352 0.46592-0.16896 0.92672-0.34816 1.408-0.49152 0.40448-0.12288 0.8192-0.20992 1.2288-0.31744 0.47616-0.12288 0.9472-0.256 1.4336-0.35328 0.48128-0.09728 0.96768-0.1536 1.45408-0.22016 0.41984-0.06144 0.83456-0.13824 1.26464-0.18432a27.87328 27.87328 0 0 1 5.53984 0c0.42496 0.04096 0.83968 0.12288 1.26464 0.18432 0.4864 0.07168 0.9728 0.128 1.45408 0.22016 0.4864 0.09728 0.95744 0.2304 1.4336 0.35328 0.4096 0.1024 0.8192 0.19456 1.2288 0.31744 0.47616 0.14336 0.93696 0.32256 1.408 0.49152 0.39424 0.14336 0.7936 0.27136 1.18272 0.4352 0.45056 0.18432 0.88064 0.40448 1.31584 0.60928 0.39424 0.18432 0.78848 0.3584 1.17248 0.5632 0.4352 0.2304 0.84992 0.49664 1.26976 0.74752 0.36352 0.22016 0.73216 0.42496 1.08544 0.66048 0.49152 0.32768 0.96256 0.69632 1.4336 1.05472 0.256 0.19456 0.52224 0.37376 0.77312 0.57856a28.7232 28.7232 0 0 1 2.10944 1.90976l185.99936 185.984a28.09344 28.09344 0 1 1-39.7312 39.7312l-138.07104-138.05568V711.06048a28.10368 28.10368 0 0 1-28.09856 28.09856zM928.7936 176.59392l-263.53664 170.5216a28.11904 28.11904 0 0 1-28.69248 1.08032 28.07296 28.07296 0 0 1-14.6688-24.6784v-341.0432a28.0832 28.0832 0 0 1 28.09856-28.09856c5.3248 0 10.63424 1.51552 15.26784 4.50048l263.53664 170.5216a28.11392 28.11392 0 0 1-0.00512 47.19616z m-250.70592-142.47936v237.76256l183.72096-118.88128-183.72096-118.88128z"  horiz-adv-x="1024" />

    
    <glyph glyph-name="more" unicode="&#59209;" d="M333.251432 807.839101l415.421384-369.273345c15.446807-13.734816 19.883863-35.975353 12.68081-54.639434 7.121188-18.639522 2.657526-40.780799-12.762675-54.486962l-415.394778-369.289717c-19.117406-16.991999-47.545876-14.458293-63.458287 5.655813-15.940041 20.1182-13.365402 50.202379 5.750981 67.210751l394.880559 351.017562-394.797672 350.950024c-19.117406 17.008372-21.718651 47.095621-5.77861 67.210751 15.941064 20.119223 44.341904 22.649859 63.458288 5.644557z"  horiz-adv-x="1024" />

    
    <glyph glyph-name="jiarushujia1" unicode="&#58894;" d="M486.3944-128h-102.3944a76.886799 76.886799 0 0 0-76.8028 76.8028V819.1972A76.886799 76.886799 0 0 0 384 896h102.3944a76.886799 76.886799 0 0 0 76.8028-76.8028v-870.3944a76.886799 76.886799 0 0 0-76.8028-76.8028zM384 844.8028A25.6196 25.6196 0 0 1 358.3944 819.1972v-870.3944a25.6196 25.6196 0 0 1 25.6056-25.6056h102.3944a25.6196 25.6196 0 0 1 25.6056 25.6056V819.1972a25.6196 25.6196 0 0 1-25.6056 25.5916zM179.1972-128H76.8028A76.886799 76.886799 0 0 0 0-51.1972V768a76.886799 76.886799 0 0 0 76.8028 76.8028H179.1972a76.886799 76.886799 0 0 0 76.8028-76.8028v-819.1972A76.886799 76.886799 0 0 0 179.1972-128zM76.8028 793.6056a25.6196 25.6196 0 0 1-25.6056-25.6056v-819.1972a25.6196 25.6196 0 0 1 25.6056-25.6056H179.1972a25.6196 25.6196 0 0 1 25.6056 25.6056V768A25.6196 25.6196 0 0 1 179.1972 793.6056zM799.38751 259.20595l-130.925955 488.592366a25.647599 25.647599 0 0 0 18.087718 31.373509l98.922454 26.501586a25.339604 25.339604 0 0 0 6.677896 0.881987 25.6196 25.6196 0 0 0 24.681614-18.969704l141.565788-528.379744h53.003172L866.264465 800.801487a76.746801 76.746801 0 0 1-94.050531 54.319152l-98.922454-26.501586a76.900798 76.900798 0 0 1-54.305152-94.07853l127.39801-475.348573zM1065.59335 54.40315h-128v128h-51.1972v-128h-128v-51.1972h128v-128h51.1972v128h128v51.1972z"  horiz-adv-x="1065" />

    
    <glyph glyph-name="fabiao1" unicode="&#58937;" d="M1002.01984 757.51424L893.62432 865.90976c-12.81536 12.81536-33.68448 12.81536-46.39744 0l-46.39744-46.39744c-12.81536-12.81536-12.81536-33.68448 0-46.39744l108.39552-108.39552c12.81536-12.81536 33.68448-12.81536 46.39744 0l46.39744 46.39744c12.71296 12.71296 12.71296 33.58208 0 46.39744zM354.84672 327.02976l108.39552-108.39552c12.81536-12.81536 33.68448-12.81536 46.39744 0l379.23328 379.23328c12.81536 12.81536 12.81536 33.68448 0 46.39744l-108.39552 108.39552c-12.81536 12.81536-33.68448 12.81536-46.39744 0l-379.23328-379.23328c-12.70784-12.71296-12.70784-33.58208 0-46.39744zM310.51776 320.52224c-14.77632-3.30752-29.55264-18.08384-32.86016-32.86016l-35.85536-161.09568c-3.30752-14.77632 6.09792-24.18176 20.87424-20.87424l161.19808 35.85536c14.77632 3.30752 29.55264 18.08384 32.86016 32.86016l1.34144 6.09792-141.4656 141.46048-6.0928-1.44384zM943.43168 480.27136a29.76768 29.76768 0 0 1-29.75744-29.75744v-467.68128a39.30624 39.30624 0 0 0-11.67872-28.00128 39.33696 39.33696 0 0 0-28.00128-11.67872H119.04512a39.30624 39.30624 0 0 0-28.00128 11.67872 39.33696 39.33696 0 0 0-11.67872 28.00128V737.77664c0 10.53696 4.13184 20.45952 11.67872 28.00128a39.33696 39.33696 0 0 0 28.00128 11.67872h467.57888a29.7728 29.7728 0 0 1 29.13792 29.75744c0 16.22016-13.02016 29.45024-29.13792 29.75744H119.04512c-54.66112 0-99.3024-44.74368-99.3024-99.3024v-754.94912c0-54.66112 44.74368-99.3024 99.3024-99.3024h754.94912c54.66112 0 99.3024 44.74368 99.3024 99.3024V450.4064a29.81376 29.81376 0 0 1-29.86496 29.86496z"  horiz-adv-x="1024" />

    
    <glyph glyph-name="rank1" unicode="&#58904;" d="M994.355345 616.991485L741.116367 870.230464c-0.581268 0.581268-1.356291 1.162535-1.937559 1.743803l-0.775024 0.775023c-0.193756 0.193756-0.775024 0.581268-0.968779 0.775024-0.193756 0.387512-0.775024 0.775024-1.162536 0.96878-0.193756 0.193756-0.387512 0.387512-0.775023 0.581267-0.387512 0.387512-0.775024 0.775024-1.356292 0.96878-0.193756 0.193756-0.387512 0.193756-0.775023 0.387512s-0.96878 0.581268-1.356292 0.775023c-0.193756 0.193756-0.387512 0.193756-0.775023 0.387512s-0.96878 0.581268-1.356292 0.775024c-0.193756 0.193756-0.581268 0.193756-0.775024 0.387512-0.387512 0.193756-0.775024 0.387512-1.356291 0.775023-0.193756 0.193756-0.581268 0.193756-0.775024 0.387512-0.387512 0.193756-0.775024 0.387512-1.356291 0.581268-0.387512 0.193756-0.775024 0.193756-1.162535 0.387512-0.387512 0.193756-0.775024 0.193756-1.162536 0.387512-0.387512 0.193756-0.775024 0.193756-1.356291 0.387511-0.193756 0-0.775024 0.193756-0.96878 0.193756-0.387512 0.193756-0.96878 0.193756-1.356291 0.387512-0.193756 0.193756-0.581268 0.193756-0.775024 0.193756-0.581268 0.193756-0.96878 0.193756-1.550047 0.387512-0.193756 0-0.581268 0.193756-0.775024 0.193756-0.387512 0-0.96878 0.193756-1.550047 0.193756-0.193756 0-0.581268 0.193756-0.775024 0.193756-0.581268 0.96878-1.162535 0.96878-1.743803 1.162535-0.193756 0-0.775024 0.193756-0.96878 0.193756-0.581268 0-0.96878 0.193756-1.550047 0.193756-0.387512 0.193756-0.775024 0.193756-1.356291 0.193756-0.193756 0.193756-0.775024 0.193756-1.162536 0.193756-1.743803 0.193756-3.487606 0.193756-5.037654 0-0.193756-0.193756-0.775024-0.193756-1.162535-0.193756-0.387512-0.193756-0.775024-0.193756-1.356291-0.193756-0.581268 0-0.96878-0.193756-1.550048-0.193756-0.193756 0-0.775024-0.193756-0.968779-0.193756-0.387512-0.193756-0.96878-0.193756-1.550048-0.193756-0.193756 0-0.581268-0.193756-0.775023-0.193756-0.387512 0-0.96878-0.193756-1.550048-0.193756-0.193756 0-0.581268-0.193756-0.775023-0.193756-0.581268-0.193756-0.96878-0.193756-1.550047-0.387511-0.193756-0.193756-0.581268-0.193756-0.775024-0.193756-0.387512-0.193756-0.96878-0.193756-1.356292-0.387512-0.193756 0-0.775024-0.193756-0.968779-0.193756-0.387512-0.193756-0.775024-0.193756-1.356291-0.387512-0.387512-0.193756-0.775024-0.193756-1.162536-0.387512-0.387512-0.193756-0.775024-0.193756-1.162535-0.387511-0.387512-0.193756-0.775024-0.387512-1.356292-0.581268-0.193756-0.193756-0.581268-0.193756-0.775023-0.387512-0.387512-0.193756-0.775024-0.387512-1.356292-0.775024-0.193756-0.193756-0.581268-0.193756-0.775024-0.387512-0.387512-0.193756-0.96878-0.581268-1.356291-0.775023-0.193756-0.193756-0.387512-0.193756-0.775024-0.387512s-0.96878-0.581268-1.356291-0.775024c-0.193756-0.193756-0.387512-0.193756-0.775024-0.387511-0.387512-0.387512-0.775024-0.775024-1.356291-0.96878-0.193756-0.193756-0.387512-0.387512-0.775024-0.581268-0.193756-0.387512-0.775024-0.775024-1.162535-0.968779-0.193756-0.193756-0.775024-0.581268-0.96878-0.775024-0.193756-0.193756-0.581268-0.387512-0.775023-0.775024-1.356291-1.162535-2.518827-2.325071-3.487607-3.487606-0.193756-0.193756-0.387512-0.581268-0.775023-0.775024-0.193756-0.193756-0.581268-0.775024-0.775024-0.968779-0.387512-0.193756-0.775024-0.775024-0.96878-1.162536-0.193756-0.193756-0.387512-0.387512-0.581267-0.775023-0.387512-0.387512-0.775024-0.775024-0.96878-1.356292-0.193756-0.193756-0.193756-0.387512-0.387512-0.775023s-0.581268-0.96878-0.775023-1.356292c-0.193756-0.193756-0.193756-0.387512-0.387512-0.775024s-0.581268-0.96878-0.775024-1.356291c-0.193756-0.193756-0.193756-0.581268-0.387512-0.775024-0.193756-0.387512-0.387512-0.775024-0.775023-1.356291-0.193756-0.387512-0.193756-0.775024-0.387512-0.96878-0.193756-0.387512-0.387512-0.775024-0.581268-1.356291-0.193756-0.387512-0.193756-0.775024-0.387512-1.162535-0.193756-0.387512-0.193756-0.775024-0.387512-1.162536-0.193756-0.387512-0.193756-0.775024-0.387511-1.356291 0-0.193756-0.193756-0.775024-0.193756-0.96878-0.193756-0.387512-0.193756-0.96878-0.387512-1.356291-0.193756-0.193756-0.193756-0.581268-0.193756-0.775024-0.193756-0.581268-0.193756-0.96878-0.387512-1.550047 0-0.193756-0.193756-0.581268-0.193756-0.775024-0.193756-0.387512-0.193756-0.96878-0.387512-1.550047 0-0.193756-0.193756-0.581268-0.193756-0.775024-0.193756-0.387512-0.193756-0.96878-0.193755-1.550047 0-0.193756-0.193756-0.775024-0.193756-0.96878 0-0.581268-0.193756-0.96878-0.193756-1.550047-0.193756-0.387512-0.193756-0.775024-0.193756-1.356291-0.193756-0.193756-0.193756-0.775024-0.387512-1.356292v-903.09631c0-28.482119 23.056954-51.345317 51.345317-51.345317s51.345317 23.056954 51.345317 51.345317V709.800568l165.46755-165.46755c19.956859-20.150615 52.507852-20.150615 72.658467 0 19.181835 19.956859 19.181835 52.507852-0.96878 72.658467zM324.928666 885.343425c-28.482119 0-51.345317-23.056954-51.345317-51.345317v-776.573699l-165.46755 165.467549c-19.956859 20.150615-52.507852 20.150615-72.658467 0-20.150615-19.956859-20.150615-52.507852 0-72.658467l253.432734-253.238978c0.581268-0.581268 1.356291-1.162535 1.937559-1.743803l0.775024-0.775024c0.193756-0.193756 0.775024-0.581268 0.96878-0.775024 0.193756-0.387512 0.775024-0.775024 1.162535-0.968779 0.193756-0.193756 0.387512-0.387512 0.775024-0.581268 0.387512-0.387512 0.775024-0.775024 1.356291-0.96878 0.193756-0.193756 0.387512-0.193756 0.775024-0.387511s0.96878-0.581268 1.356291-0.775024c0.193756-0.193756 0.387512-0.193756 0.775024-0.387512s0.96878-0.581268 1.356291-0.775024c0.193756-0.193756 0.581268-0.193756 0.775024-0.387511 0.387512-0.193756 0.775024-0.387512 1.356291-0.775024 0.193756-0.193756 0.581268-0.193756 0.775024-0.387512 0.387512-0.193756 0.775024-0.387512 1.356291-0.581268 0.387512-0.193756 0.775024-0.193756 1.162536-0.387511 0.387512-0.193756 0.775024-0.193756 1.162535-0.387512 0.387512-0.193756 0.775024-0.193756 1.356292-0.387512 0.193756 0 0.775024-0.193756 0.968779-0.193756 0.387512-0.193756 0.96878-0.193756 1.356292-0.387512 0.193756-0.193756 0.581268-0.193756 0.775023-0.193756 0.581268-0.193756 0.96878-0.193756 1.550048-0.387512 0.193756 0 0.581268-0.193756 0.775023-0.193755 0.387512 0 0.96878-0.193756 1.550047-0.193756 0.193756 0 0.581268-0.193756 0.775024-0.193756 0.387512-0.193756 0.96878-0.193756 1.550047-0.193756 0.193756 0 0.775024-0.193756 0.96878-0.193756 0.581268 0 0.96878-0.193756 1.550047-0.193756 0.387512-0.193756 0.775024-0.193756 1.356292-0.193756 0.193756-0.193756 0.775024-0.193756 1.162535-0.193756 1.743803-0.193756 3.487606-0.193756 5.037654 0 0.193756 0.193756 0.775024 0.193756 1.162535 0.193756 0.387512 0.193756 0.775024 0.193756 1.356292 0.193756 0.581268 0 0.96878 0.193756 1.550047 0.193756 0.193756 0 0.775024 0.193756 0.96878 0.193756 0.387512 0.193756 0.96878 0.193756 1.550047 0.193756 0.193756 0 0.581268 0.193756 0.775024 0.193756 0.387512 0 0.96878 0.193756 1.550047 0.193756 0.193756 0 0.581268 0.193756 0.775024 0.193755 0.581268 0.193756 0.96878 0.193756 1.550047 0.387512 0.193756 0.193756 0.581268 0.193756 0.775024 0.193756 0.387512 0.193756 0.96878 0.193756 1.356291 0.387512 0.193756 0 0.775024 0.193756 0.968779 0.193756 0.387512 0.193756 0.775024 0.193756 1.356292 0.387512s0.775024 0.193756 1.162535 0.387512c0.387512 0.193756 0.775024 0.193756 1.162536 0.387511 0.387512 0.193756 0.775024 0.387512 1.356291 0.581268 0.193756 0.193756 0.581268 0.193756 0.775024 0.387512 0.387512 0.193756 0.775024 0.387512 1.356291 0.775024 0.193756 0.193756 0.581268 0.193756 0.775024 0.387511 0.387512 0.193756 0.96878 0.581268 1.356291 0.775024 0.193756 0.193756 0.387512 0.193756 0.775024 0.387512s0.96878 0.581268 1.356291 0.775024c0.193756 0.193756 0.387512 0.193756 0.775024 0.387511 0.387512 0.387512 0.775024 0.775024 1.356291 0.96878 0.193756 0.193756 0.387512 0.387512 0.775024 0.581268 0.193756 0.387512 0.775024 0.775024 1.162536 0.968779 0.193756 0.193756 0.775024 0.581268 0.968779 0.775024 0.193756 0.193756 0.581268 0.387512 0.775024 0.775024 1.356291 1.162535 2.518827 2.325071 3.487606 3.487606 0.193756 0.193756 0.387512 0.581268 0.775024 0.775024 0.193756 0.193756 0.581268 0.775024 0.775023 0.968779 0.387512 0.193756 0.775024 0.775024 0.96878 1.162536 0.193756 0.193756 0.387512 0.387512 0.581268 0.775023 0.387512 0.387512 0.775024 0.775024 0.968779 1.356292 0.193756 0.193756 0.193756 0.387512 0.387512 0.775023s0.581268 0.96878 0.775024 1.356292c0.193756 0.193756 0.193756 0.387512 0.387512 0.775023s0.581268 0.96878 0.775023 1.356292c0.193756 0.193756 0.193756 0.581268 0.387512 0.775023 0.193756 0.387512 0.387512 0.775024 0.775024 1.356292 0.193756 0.387512 0.193756 0.775024 0.387512 0.968779 0.193756 0.387512 0.387512 0.775024 0.581267 1.356292 0.193756 0.387512 0.193756 0.775024 0.387512 1.162535 0.193756 0.387512 0.193756 0.775024 0.387512 1.162536 0.193756 0.387512 0.193756 0.775024 0.387512 1.356291 0 0.193756 0.193756 0.775024 0.193756 0.96878 0.193756 0.387512 0.193756 0.96878 0.387512 1.356291 0.193756 0.193756 0.193756 0.581268 0.193755 0.775024 0.193756 0.581268 0.193756 0.96878 0.387512 1.550047 0 0.193756 0.193756 0.581268 0.193756 0.775024 0.193756 0.387512 0.193756 0.96878 0.387512 1.550047 0 0.193756 0.193756 0.581268 0.193756 0.775024 0.193756 0.387512 0.193756 0.96878 0.193756 1.550047 0 0.193756 0.193756 0.775024 0.193756 0.96878 0 0.581268 0.193756 0.96878 0.193756 1.550047 0.193756 0.387512 0.193756 0.775024 0.193756 1.356291 0.193756 0.193756 0.193756 0.775024 0.193755 1.162536V833.998108c1.162535 28.288363-21.700662 51.345317-50.182781 51.345317z"  horiz-adv-x="1024" />

    
    <glyph glyph-name="arrow-up" unicode="&#58928;" d="M512.2288065654308 678.5884529918974c0.005362653877279683-1.734723475976807e-18 0.010725307754559366-3.469446951953614e-18 0.014300410339412487-5.204170427930421e-18 16.332856158901485-5.329070518200751e-15 31.065853911081206-6.844533898701313 41.48906549722047-17.821886385492828l449.17052610706867-474.7986489865885c9.679590248489824-10.22479339267993 15.62856094968541-24.067590601231217 15.630348500977842-39.29752761270551-8.881784197001252e-15-31.600331747516748-25.615610020472637-57.215941767989364-57.215941767989385-57.21594176798935-16.36860718475002 5.329070518200751e-15-31.131993308900974 6.873134719380136-41.56056754891753 17.891600885897454l-407.64213448141487 430.9839792579211-407.9621061627594-430.9571659885345c-10.466112817157518-11.02025371780974-25.227711390016058-17.877300475558016-41.589168369596365-17.87730047555801-15.222786806304594 5.329070518200751e-15-29.058433809686168 5.934670290856191-39.322553330799465 15.616048090638444-22.852055722381145 21.70981044652059-23.881685266818835 57.977438618563085-2.259464833627149 80.85630761033059l449.6049010711287 474.7736232684945c10.446449752940824 11.002378204885478 25.17944750512054 17.846912103586774 41.51230366402203 17.846912103586767 0.04468878231066403-6.938893903907228e-18 0.09116511591375459-3.469446951953614e-17 0.13585389822441857-4.163336342344337e-17z"  horiz-adv-x="1024" />

    
    <glyph glyph-name="arrow-right" unicode="&#58930;" d="M806.5884529918974 383.77119343456934c-8.673617379884035e-19-0.005362653877279683-1.734723475976807e-18-0.010725307754559366-2.6020852139652106e-18-0.014300410339412485-3.552713678800501e-15-16.332856158901485-6.844533898701307-31.065853911081206-17.821886385492824-41.48906549722048l-474.79864898658843-449.1705261070687c-10.224793392679928-9.679590248489825-24.067590601231213-15.628560949685413-39.29752761270551-15.630348500977846-31.600331747516744 5.329070518200751e-15-57.21594176798937 25.61561002047263-57.21594176798936 57.21594176798938 1.7763568394002505e-15 16.36860718475002 6.873134719380133 31.13199330890098 17.891600885897454 41.56056754891753l430.983979257921 407.6421344814149-430.95716598853454 407.96210616275937c-11.020253717809743 10.466112817157516-17.87730047555802 25.227711390016054-17.877300475558016 41.589168369596365 1.7763568394002505e-15 15.222786806304592 5.934670290856186 29.05843380968617 15.616048090638438 39.32255333079947 21.709810446520585 22.85205572238115 57.977438618563085 23.881685266818845 80.85630761033059 2.259464833627163l474.77362326849453-449.60490107112867c11.002378204885481-10.446449752940824 17.846912103586778-25.179447505120535 17.846912103586774-41.51230366402202-3.469446951953614e-18-0.04468878231066403-2.0816681711721685e-17-0.09116511591375459-2.7755575615628914e-17-0.1358538982244186z"  horiz-adv-x="1024" />

    
    <glyph glyph-name="line1" unicode="&#58882;" d="M437.497 831.014h149.005v-894.029H437.497V831.014z"  horiz-adv-x="1024" />

    
    <glyph glyph-name="fabiao2" unicode="&#58898;" d="M1064.578986 889.331602Q547.18522 677.998476 30.489691 465.501621a50.73857 50.73857 0 0 1-30.256945-32.118911 53.99701 53.99701 0 0 1 31.65342-31.886166c95.658497-41.894232 191.549739-83.090227 288.604709-121.493273a65.634297 65.634297 0 0 0 47.945621-64.005077c7.913355-101.709886 18.619659-203.419771 30.256946-304.896911a32.351657 32.351657 0 0 1 61.677619-18.619658q83.322973 98.916937 162.922014 200.859568a33.980877 33.980877 0 0 0 51.669553 11.404541c101.709886-48.643858 203.885263-95.658497 306.293385-142.905881 39.101283-17.921421 55.160739-8.844338 59.117417 33.049894q38.868538 428.019404 77.271583 856.271555c2.792949 41.195995-13.731998 54.229756-53.066027 38.1703zM368.901988 318.63906299999996c-77.969821 34.91186-157.10337 67.263517-235.538683 100.778903-8.146101 3.491186-16.059456 7.680609-31.653419 15.361218L932.612155 774.820701l4.422169-7.447863L674.962628 543.238696c-83.555718-71.685686-167.809674-142.673135-250.667155-215.289804a45.152672 45.152672 0 0 0-55.626231-9.542575z m73.08216-276.734677c-7.913355 77.504329-16.059456 155.008659-23.274573 232.745733a33.748131 33.748131 0 0 0 12.335524 23.274574q233.909462 201.557805 468.749907 402.184627a31.187928 31.187928 0 0 0 9.30983 3.723932l5.585897-5.585897-142.207643-156.405133c-82.624735-90.770836-164.551234-182.472655-248.572443-272.079763a159.663573 159.663573 0 0 1-41.661487-83.090227A772.250344 772.250344 0 0 0 442.216894 41.671640000000025z m36.54108-38.868538l-7.447863 3.956678 44.919927 202.488788 93.098293-46.549147z m505.989226 18.619659L527.867324 232.523141 1047.355802 802.982935l7.913355-2.327458z"  horiz-adv-x="1118" />

    
    <glyph glyph-name="index1" unicode="&#58979;" d="M471.771429 811.885714L120.685714 424.228571c-21.942857-25.6-3.657143-62.171429 29.257143-62.171428h65.828572V18.285714c0-21.942857 18.285714-36.571429 36.571428-36.571428h98.742857c21.942857 0 36.571429 18.285714 36.571429 36.571428v186.514286c0 21.942857 18.285714 36.571429 36.571428 36.571429h149.942858c21.942857 0 36.571429-18.285714 36.571428-36.571429V18.285714c0-21.942857 18.285714-36.571429 36.571429-36.571428h91.428571c21.942857 0 36.571429 18.285714 36.571429 36.571428v343.771429H841.142857c32.914286 0 51.2 40.228571 29.257143 62.171428L526.628571 811.885714c-14.628571 14.628571-40.228571 14.628571-54.857142 0z"  horiz-adv-x="1024" />

    
    <glyph glyph-name="xiaoxi-" unicode="&#58886;" d="M1012-51.52L717.12 243.36a390.56 390.56 0 1 1-65.76-69.92L944-119.2z m-912 525.28a302.72 302.72 0 1 0 302.4-302.72A303.04 303.04 0 0 0 99.84 473.76z"  horiz-adv-x="1024" />

    
    <glyph glyph-name="arrow-left" unicode="&#58976;" d="M217.41154700810262 384.22880656543055c-1.734723475976807e-18 0.005362653877279683-3.469446951953614e-18 0.010725307754559366-2.6020852139652106e-18 0.014300410339412485-3.552713678800501e-15 16.332856158901485 6.8445338987012985 31.06585391108121 17.821886385492814 41.48906549722048l474.7986489865883 449.17052610706884c10.224793392679924 9.679590248489829 24.067590601231206 15.628560949685422 39.29752761270551 15.630348500977856 31.600331747516744 5.329070518200751e-15 57.21594176798938-25.615610020472616 57.21594176798937-57.215941767989364 1.7763568394002505e-15-16.36860718475002-6.87313471938012-31.13199330890098-17.891600885897446-41.56056754891753l-430.9839792579209-407.64213448141504 430.95716598853465-407.96210616275926c11.020253717809746-10.466112817157512 17.877300475558027-25.227711390016047 17.87730047555803-41.58916836959635 1.7763568394002505e-15-15.222786806304592-5.934670290856175-29.05843380968618-15.616048090638424-39.32255333079948-21.709810446520578-22.852055722381156-57.97743861856307-23.88168526681886-80.85630761033059-2.2594648336271916l-474.7736232684947 449.6049010711285c-11.002378204885483 10.446449752940818-17.84691210358679 25.179447505120528-17.84691210358679 41.51230366402201-1.734723475976807e-17 0.04468878231066403-2.0816681711721685e-17 0.09116511591375459-2.7755575615628914e-17 0.1358538982244186z"  horiz-adv-x="1024" />

    
    <glyph glyph-name="weixin" unicode="&#58905;" d="M849.855955 586.582121a382.90902 382.90902 0 0 0 42.798501-2.567911C854.166376 762.988372 662.780649 896 444.309585 896 200.067709 896 0 729.5444 0 518.150374c0-122.06744 66.55167-222.215933 177.797203-299.956354l-44.449301-133.653605 155.32799 77.954413c55.576911-10.990044 100.179063-22.316361 155.633693-22.316362 13.940083 0 27.757885 0.703118 41.483976 1.773081a331.031123 331.031123 0 0 0-13.756662 93.102026c0 194.121774 166.684878 351.559118 377.757915 351.559118m-241.994954 129.465466a68.691595 68.691595 0 1 0-68.691595-68.691594 68.691595 68.691595 0 0 0 68.691595 68.691594M296.929888 577.304017a68.691595 68.691595 0 1 0 68.691595 68.691594 68.691595 68.691595 0 0 0-68.691595-68.691594m955.323691-338.429149c0 177.629066-177.751347 322.425567-377.406356 322.425566-211.470452 0-377.926052-144.796501-377.926052-322.425566 0-177.934769 166.501455-322.425567 377.910767-322.425567 44.235308 0 88.883316 11.173466 133.317331 22.301076l121.884018-66.750377-33.413401 111.031541c89.173735 66.918514 155.603123 155.633693 155.603122 255.843327m-493.482005 49.783828a48.912573 48.912573 0 1 0 48.912573 48.912573 48.912573 48.912573 0 0 0-48.912573-48.912573m244.241876-2.705477a48.912573 48.912573 0 1 0 48.912573 48.912573 48.912573 48.912573 0 0 0-48.912573-48.912573m0 0z"  horiz-adv-x="1252" />

    
    <glyph glyph-name="shuxing" unicode="&#58974;" d="M866.816 537.4976c-17.92 6.912-37.4784 13.4144-58.2656 19.3536 5.3248 21.1456 9.5232 41.472 12.544 60.6208 17.152 108.1344-1.7408 184.2176-53.0944 214.1696A99.9936 99.9936 0 0 1 716.9024 844.8c-45.2096 0-100.2496-25.5488-159.1808-73.8304-14.848-12.1856-30.208-26.112-45.7216-41.3184a686.592 686.592 0 0 1-45.7216 41.3184C407.3984 819.2512 352.3072 844.8 307.0464 844.8c-18.8416 0-36.0448-4.4544-51.0464-13.1584-51.3536-29.952-70.2464-105.984-53.0944-214.1696 3.0208-19.0976 7.2704-39.4752 12.544-60.6208-20.7872-5.9392-40.3968-12.4416-58.2656-19.3536C55.808 498.3808 0 443.904 0 384c0-59.904 55.808-114.3808 157.184-153.4976 17.92-6.912 37.4784-13.4144 58.2656-19.3536-5.2736-21.0944-9.5232-41.472-12.544-60.6208-17.152-108.1856 1.7408-184.2176 53.0944-214.1696 15.0016-8.704 32.1536-13.1584 51.0464-13.1584 45.2608 0 100.352 25.5488 159.232 73.8304 14.848 12.1856 30.208 26.112 45.7216 41.3184 15.4624-15.2576 30.8736-29.1328 45.7216-41.3184 58.88-48.2816 113.9712-73.8304 159.232-73.8304 18.8928 0 36.0448 4.4544 51.0464 13.1584 51.3536 29.952 70.2464 105.984 53.0944 214.1696-3.0208 19.1488-7.2192 39.5264-12.544 60.6208 20.736 5.9392 40.3456 12.4416 58.2656 19.3536C968.192 269.6192 1024 324.096 1024 384c0 59.904-55.808 114.3808-157.184 153.4976z m-150.1696 265.728c11.776 0 22.1184-2.56 30.72-7.5776 42.7008-24.8832 50.8928-112.3328 21.6064-228.608a1051.4432 1051.4432 0 0 1-139.6736 22.016 1068.8 1068.8 0 0 1-88.7808 111.104c66.56 65.536 130.6624 103.0656 176.128 103.0656zM331.4688 278.784c10.7008-18.6368 21.8112-36.9664 33.3312-55.0912a967.936 967.936 0 0 0-98.6624 16.9472c9.4208 30.6688 21.0944 62.464 34.816 94.7712 9.728-19.0976 19.9168-37.9904 30.5152-56.6272zM266.1376 527.36c31.0272 7.0656 64.1536 12.8 98.6624 16.896A1332.6848 1332.6848 0 0 1 300.9024 432.64a992.9728 992.9728 0 0 0-34.816 94.72zM322.8672 384a1309.8496 1309.8496 0 0 0 94.5664 165.376 1284.0448 1284.0448 0 0 0 189.1328 0A1306.5216 1306.5216 0 0 0 701.184 384a1309.0816 1309.0816 0 0 0-94.6176-165.376 1282.816 1282.816 0 0 0-189.1328 0A1309.184 1309.184 0 0 0 322.8672 384z m369.664-105.216c10.5984 18.6368 20.8384 37.5296 30.5664 56.6272 13.6704-32.256 25.344-64.1024 34.816-94.72-31.0272-7.1168-64.2048-12.8-98.7136-16.9984 11.52 18.1248 22.6304 36.4544 33.28 55.0912z m0 210.432a1332.5312 1332.5312 0 0 1-33.3312 55.0912c34.5088-4.1984 67.6864-9.8816 98.6624-16.9472a991.744 991.744 0 0 0-34.816-94.7712c-9.728 19.0976-19.9168 37.9904-30.5152 56.6272z m-116.6336 103.6288a1304.7296 1304.7296 0 0 1-127.744 0c20.8384 28.1088 42.2912 54.272 63.8464 77.7728 21.5552-23.552 43.008-49.664 63.8976-77.824z m-299.3152 202.752c8.6528 5.0688 18.9952 7.6288 30.7712 7.6288 45.4656 0 109.568-37.5296 176.128-103.0144A1068.4928 1068.4928 0 0 1 394.752 589.056c-49.3568-4.608-96.3584-11.9808-139.776-22.016-29.2352 116.224-20.992 203.776 21.6064 228.608zM41.1648 384c0 49.7664 70.9632 100.7104 185.344 133.2224 13.056-43.008 30.208-87.7568 50.944-133.2224-20.736-45.4144-37.888-90.2656-50.9952-133.2224C112.128 283.2896 41.1648 334.2336 41.1648 384z m266.1888-419.2256c-11.776 0-22.1184 2.56-30.72 7.6288-42.7008 24.832-50.8928 112.2816-21.6064 228.5568 43.3664-10.0352 90.368-17.408 139.7248-22.016a1067.9296 1067.9296 0 0 1 88.7296-111.104c-66.56-65.536-130.6624-103.0656-176.128-103.0656z m140.8 210.432a1304.3712 1304.3712 0 0 1 127.6928 0A983.4496 983.4496 0 0 0 512 97.3312c-21.5552 23.552-43.008 49.664-63.8464 77.824z m299.264-202.8032c-8.6528-5.0688-18.9952-7.6288-30.7712-7.6288-45.4656 0-109.568 37.5296-176.128 103.0144a1067.9296 1067.9296 0 0 1 88.7296 111.1552c49.3568 4.608 96.3584 11.9808 139.776 22.016 29.2352-116.224 20.992-203.776-21.6064-228.5568z m50.1248 278.3744c-13.1072 43.008-30.208 87.808-50.9952 133.2224 20.7872 45.4656 37.888 90.2656 50.9952 133.2224 114.3296-32.512 185.2928-83.456 185.2928-133.2224s-70.9632-100.7104-185.344-133.2224zM418.6112 384.1024c0 33.024 17.408 63.5392 45.824 80.0768a90.88 90.88 0 0 0 91.5968 0c28.3648-16.5376 45.824-47.0528 45.7728-80.0768a92.672 92.672 0 0 0-45.7728-80.128 90.88 90.88 0 0 0-91.648 0 92.672 92.672 0 0 0-45.7728 80.128z"  horiz-adv-x="1024" />

    
    <glyph glyph-name="line" unicode="&#58888;" d="M512 896a128 128 0 0 0 128-128v-768a128 128 0 1 0-256 0V768a128 128 0 0 0 128 128z"  horiz-adv-x="1024" />

    
    <glyph glyph-name="line2" unicode="&#58891;" d="M477.132 849.74c16.71 0 30.459-10.16 30.459-22.603v-904.91c0-12.443-13.75-22.603-30.46-22.603s-30.352 10.16-30.352 22.603V827.137c-0.001 12.443 13.642 22.602 30.353 22.602z"  horiz-adv-x="1024" />

    
    <glyph glyph-name="yuecopy" unicode="&#59013;" d="M512 71.111111c-12.714667 0-22.471111 10.325333-22.471111 23.836445v66.787555h-97.28c-12.743111 0-22.471111 10.325333-22.471111 23.836445s9.728 23.836444 22.471111 23.836444h97.28v60.416h-97.28c-12.743111 0-22.471111 10.325333-22.471111 23.836444s9.728 23.864889 22.471111 23.864889h104.021333l-104.049778 110.478223a23.580444 23.580444 0 0 0-6.712888 16.696888c0 6.343111 2.247111 12.714667 6.712888 16.696889a20.963556 20.963556 0 0 0 15.729778 7.139556c5.973333 0 11.975111-2.389333 15.729778-7.139556L512 368.355556l87.580444 93.809777a20.963556 20.963556 0 0 0 15.729778 7.139556c5.973333 0 11.946667-2.389333 15.701334-7.139556 8.988444-9.557333 8.988444-24.661333 0-33.393777l-103.281778-111.274667h104.049778c12.714667 0 22.442667-10.353778 22.442666-23.864889s-9.728-23.836444-22.471111-23.836444h-97.28v-60.416h97.28c12.743111 0 22.471111-10.325333 22.471111-23.836445s-9.728-23.836444-22.471111-23.836444h-97.28v-66.787556c0-12.714667-9.756444-23.836444-22.471111-23.836444zM292.494222-99.555556c-31.004444 0-108.942222 6.968889-167.253333 68.977778-48.412444 51.911111-71.111111 127.857778-68.096 227.043556 7.566222 203.804444 183.125333 340.963556 258.048 389.802666l12.117333 7.736889-9.102222 10.837334C299.292444 626.545778 267.52 669.184 259.982222 718.791111c-4.551111 30.236444 2.275556 57.344 18.915556 78.279111 20.423111 27.107556 44.657778 32.540444 61.297778 32.540445 18.147556 0 37.831111-6.968889 57.514666-19.370667l8.305778-6.200889 6.826667 9.301333c17.408 24.007111 49.180444 53.475556 97.621333 54.243556h1.507556c49.180444 0 80.952889-29.44 99.128888-54.243556l6.826667-9.301333 9.045333 6.200889c19.683556 13.169778 39.367111 19.370667 57.514667 19.370667 16.64 0 40.874667-5.404444 61.297778-32.540445 16.64-21.703111 22.698667-48.839111 18.176-78.279111-5.319111-36.408889-26.510222-78.250667-58.282667-113.92l-9.102222-10.837333 12.145778-7.736889c74.894222-49.607111 250.453333-185.998222 258.019555-389.802667 3.783111-99.185778-19.683556-175.900444-68.096-227.043555-58.282667-62.008889-136.96-68.977778-167.253333-68.977778H292.494222z m80.952889 667.221334c-27.221333-15.502222-262.542222-154.225778-270.876444-372.736-3.043556-86.812444 15.872-151.893333 55.239111-193.735111 46.136889-48.839111 109.710222-54.243556 134.684444-54.243556h438.897778c24.974222 0 88.519111 5.404444 134.684444 54.243556 39.338667 41.813333 58.254222 106.951111 55.239112 192.938666-7.566222 219.306667-243.655111 358.030222-270.136889 372.736l-4.551111 3.128889-5.290667-1.564444c-2.275556-0.768-4.551111-1.564444-6.826667-1.564445h-243.655111c-2.275556 0-4.551111 0.796444-7.566222 1.564445l-5.290667 1.536-4.551111-2.304z m-34.048 216.177778c-6.058667 0-15.132444-1.536-25.713778-14.705778-9.102222-11.633778-12.117333-25.571556-9.102222-43.406222 6.058667-44.942222 45.425778-92.216889 68.864-111.587556l4.551111-3.868444 6.058667 1.564444c3.015111 0.768 4.551111 1.536 6.058667 1.536h243.655111c0.739556 0 2.275556-0.768 3.783111-0.768l7.566222-2.332444 4.551111 3.868444c23.438222 19.370667 62.805333 66.645333 68.835556 111.587556 2.275556 17.834667-0.739556 31.772444-9.073778 43.406222-9.841778 13.169778-18.915556 14.734222-25.713778 14.734222-21.959111 0-48.440889-23.267556-56.775111-32.568889-4.551111-4.636444-10.581333-7.736889-16.64-7.736889-1.507556 0-3.015111 0-4.551111 0.768a21.731556 21.731556 0 0 0-16.64 14.734222c-2.275556 6.968889-25.713778 62.008889-77.169778 62.008889h-1.507555c-53.76-0.796444-75.662222-59.676444-76.430223-62.008889a22.954667 22.954667 0 0 0-16.668444-14.734222c-1.507556 0-3.015111-0.768-4.551111-0.768a21.248 21.248 0 0 0-16.611556 7.736889c-8.334222 9.301333-34.816 32.568889-56.775111 32.568889z"  horiz-adv-x="1024" />

    
    <glyph glyph-name="arrow-down" unicode="&#58892;" d="M472.064 144.44799999999998L72.832 543.6800000000001c-22.08 22.08-22.08 57.792 0 79.872 22.016 22.016 57.792 22.08 79.872 0L512 264.25599998999996l359.296 359.29600001c22.016 22.016 57.792 22.08 79.872 0 22.08-22.08 22.016-57.792 0-79.872l-399.232-399.232C529.856 122.43199999000001 494.144 122.43199999000001 472.064 144.44799999999998z"  horiz-adv-x="1024" />

    


  </font>
</defs>
</svg>
