<?xml version="1.0" standalone="no"?>
<!DOCTYPE svg PUBLIC "-//W3C//DTD SVG 1.1//EN" "http://www.w3.org/Graphics/SVG/1.1/DTD/svg11.dtd" >
<!--
2013-9-30: Created.
-->
<svg>
<metadata>
Created by iconfont
</metadata>
<defs>

<font id="iconfont" horiz-adv-x="1024" >
  <font-face
    font-family="iconfont"
    font-weight="500"
    font-stretch="normal"
    units-per-em="1024"
    ascent="896"
    descent="-128"
  />
    <missing-glyph />
    
    <glyph glyph-name="x" unicode="x" horiz-adv-x="1001"
d="M281 543q-27 -1 -53 -1h-83q-18 0 -36.5 -6t-32.5 -18.5t-23 -32t-9 -45.5v-76h912v41q0 16 -0.5 30t-0.5 18q0 13 -5 29t-17 29.5t-31.5 22.5t-49.5 9h-133v-97h-438v97zM955 310v-52q0 -23 0.5 -52t0.5 -58t-10.5 -47.5t-26 -30t-33 -16t-31.5 -4.5q-14 -1 -29.5 -0.5
t-29.5 0.5h-32l-45 128h-439l-44 -128h-29h-34q-20 0 -45 1q-25 0 -41 9.5t-25.5 23t-13.5 29.5t-4 30v167h911zM163 247q-12 0 -21 -8.5t-9 -21.5t9 -21.5t21 -8.5q13 0 22 8.5t9 21.5t-9 21.5t-22 8.5zM316 123q-8 -26 -14 -48q-5 -19 -10.5 -37t-7.5 -25t-3 -15t1 -14.5
t9.5 -10.5t21.5 -4h37h67h81h80h64h36q23 0 34 12t2 38q-5 13 -9.5 30.5t-9.5 34.5q-5 19 -11 39h-368zM336 498v228q0 11 2.5 23t10 21.5t20.5 15.5t34 6h188q31 0 51.5 -14.5t20.5 -52.5v-227h-327z" />
    

    
    <glyph glyph-name="moon" unicode="&#58936;" d="M609.277534 592.8455389999999L576.490803 492.30058801 640.742153 408.24724 534.971178 408.38948 474.893894 321.308169 442.325128 421.94317099 340.944136 452.15730901 426.625564 514.2464130000001 424.003853 619.994875 509.533832 557.721577ZM349.51227901 648.956488L306.02074199 607.810369 315.174216 548.611082 262.629489 577.287191 209.216999 550.230975 220.222657 609.079268 177.98467 651.51987 237.377362 659.302113 264.717034 712.565201 290.388716 658.484492ZM586.262354 734.08533L560.223305 709.483003 565.735855 674.1093539999999 534.301935 691.252803 502.367619 675.06921501 508.932128 710.252529 483.67795401 735.655082 519.204076 740.240517 535.50432 772.140041 550.886659 739.789239ZM362.374214 390.80294001L344.785627 354.14299500000004 364.99592501 318.901353 324.69301 324.271664 297.468972 294.174182 290.136983 334.150662 253.008364 350.785527 288.850687 370.07587301 293.160853 410.503631 322.589093 382.46913400000005ZM725.74001201 543.5999509999999c0-181.207062-146.910954-328.149738-328.17532102-328.149738-76.628238 0-146.992819 26.505677-202.84487099 70.523193C223.564775 134.23858600000005 356.711238 19.437956999999983 516.915963 19.437956999999983c181.24901699 0 328.157925 146.900721 328.157925 328.157925 0 104.60338299-49.086975 197.55642499-125.297704 257.625522C723.567533 585.24749 725.740012 564.711781 725.74001201 543.5999509999999z"  horiz-adv-x="1024" />

    
    <glyph glyph-name="lishi" unicode="&#58898;" d="M0.021488 748.550922l1023.957021 0 0-127.995139-1023.957021 0 0 127.995139ZM0.021488 364.542992l1023.957021 0 0-127.995139-1023.957021 0 0 127.995139ZM0.021488-19.445496l1023.957021 0 0-127.995139-1023.957021 0 0 127.995139Z"  horiz-adv-x="1024" />

    
    <glyph glyph-name="lishi1" unicode="&#58972;" d="M512-120.977778C279.483733-120.977778 91.022222 67.506489 91.022222 299.977244 91.022222 532.493511 279.483733 720.977778 512 720.977778 744.493511 720.977778 932.977778 532.493511 932.977778 299.977244 932.977778 67.506489 744.493511-120.977778 512-120.977778zM512 675.466667C304.651378 675.466667 136.533333 507.348622 136.533333 300 136.533333 92.628622 304.651378-75.466667 512-75.466667 719.371378-75.466667 887.466667 92.628622 887.466667 300 887.466667 507.348622 719.371378 675.466667 512 675.466667zM728.177778 265.866667 500.622222 265.866667c-12.583822 0-22.755556 10.171733-22.755556 22.755556L477.866667 538.933333c0 12.583822 10.171733 22.755556 22.755556 22.755556s22.755556-10.171733 22.755556-22.755556l0-227.555556 204.8 0c12.583822 0 22.755556-10.171733 22.755556-22.755556S740.7616 265.866667 728.177778 265.866667z"  horiz-adv-x="1024" />

    
    <glyph glyph-name="yuedu" unicode="&#58935;" d="M999.48544 533.50272l-15.27808 0c-11.47904 0-20.86912 9.37984-20.86912 20.85888l0 40.81664c0.0512 11.84768-8.15104 21.66784-19.73248 23.86944-158.09536 30.24896-301.81376 29.70624-411.21792-47.40096-19.51744-13.73184-21.34016-13.62944-40.59136 0-109.568 77.0048-253.29664 77.64992-411.38176 47.40096-11.53024-2.2016-19.73248-12.01152-19.73248-23.86944l0-40.81664c0-11.47904-9.33888-20.85888-20.86912-20.85888L24.5248 533.50272c-13.4144 0-24.29952-10.93632-24.29952-24.35072L0.39936 20.5504c0-13.4144 10.93632-24.35072 24.34048-24.35072l412.88704 0c7.66976 0 13.89568-6.21568 13.89568-13.83424 0-8.26368 5.41696-14.96064 13.93664-14.96064l93.10208 0c7.72096 0 13.93664 6.26688 13.93664 13.89568 0 8.26368 5.36576 14.8992 13.94688 14.8992l412.88704 0c13.34272 0 24.29952 10.93632 24.29952 24.35072l0.2048 488.6016C1023.83616 522.5664 1012.89984 533.50272 999.48544 533.50272zM477.83936 43.65184c-97.3824 60.86656-224.32768 67.7888-359.6288 45.2608-13.83424-2.304-26.28608 8.26368-26.28608 22.26176L91.78112 572.65024c0 11.96032 8.46848 21.98528 20.2752 24.03328 141.08672 23.7568 271.03232 14.41792 365.63968-57.10848 12.11392-9.1136 18.60608-22.21056 18.60608-37.38624l0.16384-448.16384C496.45568 44.3584 486.05184 38.56256 477.83936 43.65184zM932.13696 111.1744c0-13.99808-12.4416-24.56576-26.33728-22.26176-135.30112 22.528-262.1952 15.60576-359.5776-45.2608-8.15104-5.08928-18.65728 0.70656-18.65728 10.36288l0.2048 448.16384c0 15.17568 6.44096 28.27264 18.56512 37.38624 94.64832 71.5264 224.54272 80.86528 365.63968 57.10848 11.84768-2.048 20.31616-12.07296 20.31616-24.03328L932.13696 111.1744z"  horiz-adv-x="1024" />

    
    <glyph glyph-name="rank" unicode="&#58908;" d="M358.7-11.100000000000023l328.5 0 0-57.1-328.5 0 0 57.1ZM227.7 853.1l587.8 0 0-57.1-587.8 0 0 57.1ZM952.4 635.1c-4.4 0-146.2 0-168.8 0 0 54.8 0 97.6 0 97.6L783.6 754 263.4 756l-0.6-20.9c0-0.6-1-33.1-1.8-100.1-18.3 0-165.5 0-170 0-38.2-2.2-26.4-48.5-26.4-48.5s53.6-151.2 87.7-247.6c13.8-38.9 23.1-47.8 57.7-42.8l-61.4 278.3 111.8 0c-0.4-44.6-0.6-98.8-0.6-163 0-189.2 181.3-286.9 233.1-310.9l0.8-83.7 59.4 0 0 83.8c51.5 24.2 230.7 121.7 230.7 305.2 0 18.2 0 94.4-0.1 168.6l111.2 0-61.4-278.3c34.6-5 43.9 3.8 57.7 42.8 34.4 96.7 87.7 247.6 87.7 247.6S990.6 632.8 952.4 635.1zM522.9 127c0 0-227.5 80.5-227.5 284.5S297 673 297.9 713l449.9-1.7c0-67.5 0.1-292.5 0.1-305.5C747.9 207.5 522.9 127 522.9 127z"  horiz-adv-x="1024" />

    
    <glyph glyph-name="lishi2" unicode="&#58983;" d="M512-128C229.230217-128 0 101.230217 0 384 0 666.769783 229.230217 896 512 896 794.769783 896 1024 666.769783 1024 384 1024 101.230217 794.769783-128 512-128L512-128ZM512 834.56C263.16217 834.56 61.44 632.83783 61.44 384 61.44 135.16217 263.16217-66.56 512-66.56 760.83783-66.56 962.56 135.16217 962.56 384 962.56 632.83783 760.83783 834.56 512 834.56L512 834.56ZM471.04 384 471.038833 384 471.038833 629.76 532.48 629.76 532.48 404.48 757.76 404.48 757.761167 343.04 471.038833 343.04 471.04 384 471.04 384Z"  horiz-adv-x="1024" />

    
    <glyph glyph-name="line2" unicode="&#58927;" d="M157.538462 777.846154l708.923077 0 0-78.769231-708.923077 0 0 78.769231ZM157.538462 580.9230769999999l708.923077 0 0-78.769231-708.923077 0 0 78.769231ZM157.538462 384l708.923077 0 0-78.769231-708.923077 0 0 78.769231Z"  horiz-adv-x="1024" />

    
    <glyph glyph-name="huobandashang" unicode="&#59369;" d="M526.080 820.549c-243.046 0-440.074-197.027-440.074-440.074 0-243.052 197.027-440.074 440.074-440.074 243.052 0 440.079 197.021 440.079 440.074 0 243.046-197.027 440.074-440.079 440.074zM554.13 269.822c-5.499-5.486-15.404-23.046-20.903-37.321-7.699-19.213-34.101-47.201-55.010-59.274-37.407-21.953-105.616-47.747-156.227-52.14-2.752 15.366-9.904 31.28-20.903 45.001 64.363 3.294 130.924 21.406 166.126 48.3 22.010 18.108 32.455 42.806 36.306 72.441 17.056-4.939 35.207-8.227 45.659-7.129 10.458 1.106 11.557-3.287 4.953-9.881zM362.148 349.955c15.404-2.199 77.562-3.845 164.478-3.845 86.359 0 161.721 1.106 179.877 3.845-1.099-12.62-1.653-24.153-1.653-36.227v-56.532c0-12.62 1.106-26.893 2.199-40.061h-51.706v94.394h-242.587v-102.079h-51.158c1.653 12.62 2.752 24.146 2.752 37.321v65.866c0 12.627-0.553 24.7-2.206 37.321zM385.805 479.482c39.607-2.199 69.861-2.741 146.323-2.741 77.012 0 106.169 0.547 146.323 2.741-1.653-15.919-2.199-33.481-2.199-50.494s0.547-33.481 2.199-49.939c-39.6 1.641-69.308 1.641-146.323 1.641-76.461 0-107.268 0-146.323-1.641 1.653 16.46 2.199 32.927 2.199 49.939s-0.547 34.58-2.199 50.494zM712.556 119.442c-29.702 25.799-103.422 62.572-154.028 79.033l23.108 34.58c53.357-18.113 118.82-46.654 165.031-71.346l-34.114-42.267zM772.519 452.594h-47.307v56.532h-383.963v-66.966h-47.858v105.927c23.103-1.646 56.663-2.741 106.721-3.294-8.805 21.401-19.257 37.867-31.355 51.041l48.412 20.313c11.006-17.566 27.502-39.52 35.754-47.201l-44.013-24.146h98.47c0 48.294-1.099 76.287-3.299 89.46 15.404-2.747 48.412-3.84 57.211-3.294 8.799 0.547 10.451-2.747 3.845-8.233-7.147-6.034-10.451-13.721-10.451-33.481v-44.453h51.712c13.198 24.146 23.655 49.948 30.249 79.033 15.951-6.587 33.007-10.974 51.706-13.173 9.904-1.099 11.006-4.939 1.653-10.979-9.899-6.041-18.151-16.467-37.949-54.334 58.304 0.547 94.617 1.646 120.466 2.741v-95.493zM432.562 442.161h199.685v-26.893h-199.685v26.893z"  horiz-adv-x="1046" />

    
    <glyph glyph-name="biaoqian" unicode="&#58964;" d="M894.23872-23.87456 894.23872 758.3488C894.23872 827.91424 834.28864 885.76 766.82752 885.76L257.16736 885.76C187.66336 885.76 129.75104 825.93792 129.75104 758.3488l0-782.22336c-1.97632-67.584 19.49184-98.93376 67.27168-98.93376 11.97568 0 39.18336-4.45952 89.19552 28.34432 40.83712 25.29792 119.9616 68.75648 157.29152 88.75008 37.33504 18.2272 96.96256 20.70016 135.05536 0.128 51.59936-27.5968 85.30944-46.83264 159.13984-88.87808 31.86688-20.06528 73.27744-30.32576 93.2096-28.34432C876.71808-122.80832 896.22016-95.47776 894.23872-23.87456zM760.97024 495.45728l-104.2176-101.59616 24.60672-143.44192c1.48992-8.71936-2.07872-17.53088-9.23648-22.72768-4.03968-2.92864-8.84736-4.41856-13.64992-4.41856-3.69664 0-7.40352 0.896-10.78784 2.66752l-128.8192 67.73248-128.82944-67.73248c-7.8336-4.13184-17.3056-3.44576-24.45824 1.75104-7.15264 5.21216-10.72128 14.00832-9.23648 22.72768l24.60672 143.44192L276.70528 495.45728c-6.32832 6.1696-8.60672 15.38048-5.87776 23.79264 2.72384 8.41216 9.98912 14.52544 18.7392 15.80032l144.04096 20.93056L498.0224 686.49472c3.90656 7.93088 11.97568 12.94848 20.8128 12.94848 8.84736 0 16.91648-5.0176 20.82304-12.94848l64.4096-130.51392 144.02048-20.93056c8.73984-1.2544 16.01536-7.38816 18.74944-15.80032C769.57184 510.83776 767.27808 501.62688 760.97024 495.45728z"  horiz-adv-x="1024" />

    
    <glyph glyph-name="shuku" unicode="&#58905;" d="M923.733333 603.733333c-12.8 0-21.333333-10.666667-21.333333-21.333333L902.4 49.066667c0-34.133333-27.733333-61.866667-61.866667-61.866667l-631.466667 0c-61.866667 0-110.933333 49.066667-110.933333 110.933333 0 61.866667 51.2 110.933333 110.933333 110.933333l499.2 0c59.733333 0 106.666667 49.066667 106.666667 106.666667l6.4 413.866667c0 59.733333-49.066667 106.666667-106.666667 106.666667l-552.533333 0c-57.6 0-104.533333-44.8-106.666667-102.4 0-2.133333 0-4.266667 0-6.4l0-631.466667c0 0 0 0 0 0 0 0 0 0 0 0 0 0 0 0 0 0 0-85.333333 70.4-155.733333 155.733333-155.733333l631.466667 0c59.733333 0 106.666667 49.066667 106.666667 106.666667L949.333333 582.4C947.2 595.2 936.533333 603.733333 923.733333 603.733333zM96 725.333333c0 2.133333 0 4.266667 0 4.266667 0 34.133333 27.733333 61.866667 61.866667 61.866667l552.533333 0c34.133333 0 61.866667-27.733333 61.866667-61.866667l-6.4-413.866667c0-34.133333-27.733333-61.866667-61.866667-61.866667l-499.2 0c-42.666667 0-83.2-17.066667-110.933333-46.933333L93.866667 725.333333zM797.866667 130.133333l-625.066667 0c-12.8 0-21.333333-10.666667-21.333333-21.333333 0-12.8 10.666667-23.466667 21.333333-23.466667l625.066667 0c12.8 0 21.333333 10.666667 21.333333 23.466667C819.2 119.466667 810.666667 130.133333 797.866667 130.133333z"  horiz-adv-x="1024" />

    
    <glyph glyph-name="yuanquan1" unicode="&#58914;" d="M511.464 180.937c-112.208 0-203.483 91.276-203.483 203.482s91.276 203.482 203.482 203.482 203.483-91.276 203.483-203.482-91.276-203.482-203.483-203.482zM511.464 497.465c-62.351 0-113.046-50.693-113.046-113.046s50.693-113.046 113.046-113.046 113.046 50.693 113.046 113.046-50.693 113.046-113.046 113.046z"  horiz-adv-x="1024" />

    
    <glyph glyph-name="bookshelf" unicode="&#59181;" d="M793.6-47.104l128 20.48-111.616 700.416-200.704-31.744 109.568-689.152H563.2V763.904H360.448v-811.008h-51.2V865.28H106.496v-912.384H5.12v-51.2h1013.76v51.2h-225.28z m-534.528 51.2h-101.376V815.104h101.376v-811.008z m252.928 0h-101.376V713.728H512v-709.632z m155.648 595.968l100.352 15.36L863.232 15.36l-100.352-15.36-95.232 600.064z"  horiz-adv-x="1024" />

    
    <glyph glyph-name="shujia" unicode="&#59022;" d="M990.718501 408.232914H147.879514c-12.196787 0-28.837792 4.166903-39.567158 9.939373-4.279467 2.282996-105.337093 58.202587-105.337093 221.227544 0 163.027004 101.057627 218.958874 105.362676 221.255173 10.703783 5.734608 27.344788 9.91379 39.541575 9.91379h842.838987c23.793916 0 30.04427-16.150842 31.399127-21.106713 1.356904-4.944616 4.193509-22.036899-16.285918-34.133402-1.006933-0.602727-108.22691-66.033949-109.983927-176.34124-1.75804-109.554138 108.574834-174.886099 109.677959-175.538969 20.658506-11.920494 17.947767-29.062919 16.615422-34.032094-1.330298-4.969175-7.52744-21.183462-31.422663-21.183462zM147.879514 819.168124c-3.802606 0-11.933797-2.033309-15.271822-3.827165-3.037173-1.694595-78.231759-45.152363-78.231759-175.941128 0-130.798998 75.194586-174.243463 78.394465-176.027086 3.175319-1.705851 11.30651-3.739161 15.109116-3.739161h779.165805c-38.603203 36.693714-83.930551 97.555873-82.599229 180.181709 1.329275 82.271772 46.282093 142.859685 84.029811 179.352831H147.879514zM3.902378-81.385333c-1.329275 4.969175-4.040013 22.110577 16.615423 34.034141 1.104147 0.650823 111.435998 65.982784 109.680005 175.535899-1.757017 110.308315-108.976994 175.739537-109.980857 176.343287-20.48045 12.095479-17.643845 29.186739-16.287965 34.132378 1.354857 4.969175 7.604188 21.107737 31.398104 21.107737h842.827731c12.199856 0 28.838815-4.192485 39.554878-9.91379 4.2897-2.308579 105.363699-58.228169 105.363699-221.267453 0-163.013701-101.072977-218.933291-105.340163-221.217311-10.739599-5.77247-27.378557-9.939373-39.578414-9.939373H35.326065c-23.8942 0.001023-30.093389 16.21531-31.423687 21.184485z m93.668333 389.752772c37.747719-36.493146 82.69849-97.081059 84.028789-179.353854 1.330298-82.622766-43.998073-143.487995-82.59923-180.181709h779.153526c3.814886 0 11.946077 2.033309 15.109116 3.739161 3.214205 1.782599 78.407768 45.228087 78.407767 176.015829 0 130.812301-75.193563 174.256766-78.231759 175.941128-3.339048 1.806135-11.470239 3.839445-15.285124 3.839445H97.570711z"  horiz-adv-x="1024" />

    
    <glyph glyph-name="line" unicode="&#58889;" d="M-80.64288753 1044.1315760100001h219.46899929v-1316.81252286H-80.64288753V1044.1315760100001z"  horiz-adv-x="1024" />

    
    <glyph glyph-name="tuijian" unicode="&#58896;" d="M553.535 664.516l44.886-44.899-34.76-34.75-44.886 44.899 34.76 34.75zM506.977 616.285l44.905-44.886-37.646-37.662-44.905 44.886 37.646 37.662zM599.911 709.018l44.886-44.899-34.76-34.75-44.886 44.899 34.76 34.75zM1024 896h-1024l1024-1024v1024zM833.536 580.608l12.288-12.288-18.432-18.432 65.536-63.488 18.432 18.432 12.288-12.288-18.432-18.432 53.248-53.248-12.288-12.288-53.248 53.248-16.384-16.384-12.288 12.288 18.432 18.432-63.488 63.488-18.432-18.432-12.288 12.288 18.432 18.432-53.248 53.248 12.288 12.288 53.248-53.248 14.336 16.384zM698.368 715.776c-8.192-18.432-14.336-34.817-22.528-47.104l-14.337 6.144c8.192 18.432 16.384 34.816 22.528 49.152l14.336-8.193zM374.785 635.904l-20.48 20.48 8.193 14.336c8.192-10.24 14.336-16.384 18.432-20.48 6.144-6.144 12.287-6.144 18.432-2.048l61.44 61.44c-14.337 6.144-26.624 12.288-40.961 20.48l10.24 16.384c14.336-8.193 28.672-16.384 43.008-24.576l55.296 55.296-30.72 30.72 12.288 12.288 30.72-30.72 43.008 43.008 12.288-12.288-43.008-43.008 24.576-24.576-12.288-12.288-24.576 24.576-51.2-51.2c12.288-4.096 22.528-8.192 32.768-12.287l-10.24-10.24c-14.336 4.096-24.575 8.192-32.768 12.287l-69.632-69.632c-12.288-10.24-22.528-10.24-34.816 2.048zM446.464 556.032l-12.288 12.288 139.264 139.264c-16.384-4.096-32.768-6.144-49.152-8.192l8.192 16.384c45.056 6.144 86.016 20.48 122.88 43.008l10.24-14.336c-16.384-10.24-34.816-18.432-51.2-24.576l96.256-96.256-12.288-12.288-40.96 40.96-34.816-34.816 36.864-36.864-12.288-12.288-36.864 36.864-34.816-34.816 36.864-36.864-12.288-12.288-36.864 36.864-36.864-36.864 43.008-43.008-12.288-12.288-98.304 102.4-12.288-12.288zM612.352 388.096l83.968 83.968c-20.481 0-40.96 2.048-61.44 6.144l2.048 18.432c47.104-10.24 90.112-10.24 129.024 0l-57.344 57.344 12.288 12.288 63.488-63.488c10.24 4.096 18.432 6.144 26.624 10.24l10.24-14.336c-6.144-2.048-14.337-6.144-22.528-10.24l112.64-112.64-12.288-12.288-118.784 118.784c-18.432-6.144-38.912-8.193-59.392-10.24l-96.256-96.256-12.288 12.288zM704.512 300.032l-26.624 26.624 8.192 16.384c10.24-10.24 18.432-18.432 24.576-24.576s12.287-6.144 18.431 0l28.672 26.624-63.488 63.488 12.288 12.288 63.488-63.488 16.384 16.384c18.432-4.096 36.864-8.192 53.248-10.24l-79.872 79.872 12.288 12.288 96.256-96.256-8.192-8.192c-20.48 2.048-40.96 4.096-63.488 10.24l-12.288-12.288 51.2-51.2-14.336-16.384-51.2 51.2-32.768-32.768c-12.288-10.24-22.528-12.288-32.767 0z"  horiz-adv-x="1024" />

    
    <glyph glyph-name="chongzhi2" unicode="&#59238;" d="M631.736906 668.998782h212.034105l-224.506699 224.506699v-212.034105c0-6.236297 6.236297-12.472594 12.472594-12.472594zM630.489647 289.831912H217.646772c-14.967113 0-27.439708 12.472594-27.439707 27.439708 0 14.967113 12.472594 27.439708 27.439707 27.439708h430.304507c13.719854 0 23.697929-9.978076 26.192448-22.45067 39.912302 23.697929 86.060901 37.417783 135.951279 37.417783 12.472594 0 24.945189-1.247259 36.170524-2.494519V615.366626H631.736906c-36.170524 0-66.10475 29.934227-66.10475 66.10475V896H55.503045C25.568819 896 1.870889 872.302071 1.870889 842.367844v-861.856273c0-29.934227 23.697929-53.632156 53.632156-53.632156h538.816078c-33.676005 44.90134-53.632156 101.028015-53.632156 160.896468 0 81.071864 34.923264 152.165652 89.80268 202.056029zM217.646772 505.607795h430.304507c14.967113 0 27.439708-12.472594 27.439708-27.439707 0-14.967113-12.472594-27.439708-27.439708-27.439708H217.646772c-14.967113 0-27.439708 12.472594-27.439707 27.439708 0 14.967113 12.472594 27.439708 27.439707 27.439707zM806.353228 303.55176600000004c-118.489647 0-215.775883-96.038977-215.775883-215.775883 0-118.489647 96.038977-215.775883 215.775883-215.775883 118.489647 0 215.775883 96.038977 215.775883 215.775883 0 119.736906-96.038977 215.775883-215.775883 215.775883z m84.813642-239.473812c8.730816 0 16.214373-7.483557 16.214372-16.214373 0-8.730816-7.483557-16.214373-16.214372-16.214373h-63.610232v-63.610231c0-8.730816-7.483557-16.214373-16.214372-16.214373-8.730816 0-16.214373 7.483557-16.214373 16.214373v63.610231h-63.610232c-8.730816 0-16.214373 7.483557-16.214372 16.214373 0 8.730816 7.483557 16.214373 16.214372 16.214373h63.610232v47.395858h-63.610232c-8.730816 0-16.214373 7.483557-16.214372 16.214373 0 8.730816 7.483557 16.214373 16.214372 16.214373H773.924482L731.517661 197.534714c-6.236297 7.483557-4.989038 17.461632 2.494519 23.697929 7.483557 6.236297 17.461632 4.989038 23.69793-2.494519l51.137637-63.610231 51.137637 63.610231c6.236297 7.483557 16.214373 8.730816 23.697929 2.494519 7.483557-6.236297 8.730816-16.214373 2.494519-23.697929l-42.406821-52.384897h46.148599c8.730816 0 16.214373-7.483557 16.214373-16.214372 0-8.730816-7.483557-16.214373-16.214373-16.214373h-63.610231v-47.395859h64.857491z"  horiz-adv-x="1024" />

    
    <glyph glyph-name="up1" unicode="&#58891;" d="M1004.53262218-133.18826667000008h-172.57813334V499.23413333h-229.92213333l402.50026667 402.50026667v-1034.92266667z"  horiz-adv-x="1024" />

    
    <glyph glyph-name="catalog2" unicode="&#59034;" d="M146.790047 691.34326c-24.251824 0-43.898871-19.647047-43.898871-43.898871s19.647047-43.898871 43.898871-43.898871 43.898871 19.647047 43.898871 43.898871S170.939542 691.34326 146.790047 691.34326z m0-263.08624c-24.251824 0-43.898871-19.647047-43.898871-43.898871s19.647047-43.898871 43.898871-43.89887 43.898871 19.647047 43.898871 43.89887-19.749375 43.898871-43.898871 43.898871z m0-263.188568c-24.251824 0-43.898871-19.647047-43.898871-43.898871s19.647047-43.898871 43.898871-43.89887 43.898871 19.647047 43.898871 43.89887-19.749375 43.898871-43.898871 43.898871z m146.124913 438.579395h584.704307c24.251824 0 43.898871 19.647047 43.89887 43.89887S901.87109 691.34326 877.619267 691.34326H292.91496c-24.251824 0-43.898871-19.647047-43.898871-43.898871s19.647047-43.796542 43.898871-43.796542z m584.704307-175.390827H292.91496c-24.251824 0-43.898871-19.647047-43.898871-43.898871s19.647047-43.898871 43.898871-43.89887h584.704307c24.251824 0 43.898871 19.647047 43.89887 43.89887s-19.647047 43.898871-43.89887 43.898871z m0-263.188568H292.91496c-24.251824 0-43.898871-19.647047-43.898871-43.898871s19.647047-43.898871 43.898871-43.89887h584.704307c24.251824 0 43.898871 19.647047 43.89887 43.89887s-19.647047 43.898871-43.89887 43.898871z"  horiz-adv-x="1024" />

    
    <glyph glyph-name="top" unicode="&#58899;" d="M523.776 821.248c-240.64 0-436.224-195.072-436.224-436.224S282.624-51.2 523.776-51.2s436.224 195.072 436.224 436.224-195.584 436.224-436.224 436.224zM681.472 315.392c-3.072-3.072-7.168-4.608-11.776-4.608-4.096 0-8.192 1.536-11.776 4.608l-118.272 118.272v-272.384c0-9.216-7.168-16.384-16.384-16.384s-16.384 7.168-16.384 16.384v272.384l-118.272-118.272c-6.144-6.144-16.896-6.144-23.04 0-6.144 6.144-6.144 16.896 0 23.04l138.24 138.24c5.12 5.12 12.288 8.192 19.968 8.192s14.336-3.072 19.968-8.192l138.24-138.24c6.144-6.656 6.144-16.896-0.512-23.04zM707.072 521.728h-367.104c-9.216 0-16.384 7.168-16.384 16.384 0 9.216 7.168 16.384 16.384 16.384h367.104c9.216 0 16.384-7.168 16.384-16.384 0-8.704-7.168-16.384-16.384-16.384z"  horiz-adv-x="1024" />

    
    <glyph glyph-name="dashang" unicode="&#58954;" d="M870.517817 5.427723c-45.611118 47.557192-47.070673 150.334244-47.070674 150.334244V376.763036c0 121.143129-96.938829 229.758404-238.515738 257.854852l61.058083 61.058083c14.595558 14.595558 18.852595 36.367265 11.189927 55.706378C649.395118 770.721463 630.542523 782.884428 610.108742 782.884428H413.311973c-20.79867 0-39.286376-12.162965-47.070674-31.502079-7.784297-18.852595-3.40563-40.745932 11.189928-55.706378l61.058083-61.058083c-141.45528-28.096449-238.394109-136.590094-238.394109-257.854852v-221.001069S198.635645 52.984915 153.024528 5.427723c-7.784297-8.270816-2.432593-21.285188 8.757334-21.285188h699.97862c11.189928 0 16.541632 13.014372 8.757335 21.285188zM324.887219 393.183038c0 30.285782 24.325929 54.976601 53.760304 54.976601h1.702815v35.880746h28.947856v-35.880746H497.236429v46.097636h28.947856v-46.097636H614.000891v35.880746h29.191115v-35.880746h1.337926c29.434375 0 53.760304-24.690818 53.760304-54.976601V371.77622h-28.947856v21.285189c0 14.473928-11.068298 26.028745-24.690818 26.028744H378.647523c-13.62252 0-24.690818-11.554816-24.690818-26.028744V371.77622h-28.947856v21.406818z m294.343746-145.955576H403.82486c-13.62252 0-24.690818-11.554816-24.690818-25.542226v-52.908897H350.064556v52.908897c0 29.920893 24.325929 54.611712 53.760304 54.611711h215.406105c29.434375 0 53.760304-24.690818 53.760304-54.611711v-52.908897h-28.947856v52.908897c0 13.987409-11.189928 25.542226-24.812448 25.542226zM373.174189 334.314289v27.245041c0 20.920299 17.514669 38.434969 37.94845 38.434969h200.932177c20.433781 0 37.94845-17.514669 37.94845-38.434969v-27.245041c0-20.920299-17.514669-37.94845-37.94845-37.94845H411.122639c-20.433781-0.12163-37.94845 17.028151-37.94845 37.94845z m317.696639-230.001663l-197.040029 54.976601c-25.177337-23.839411-72.977788-41.840599-162.497209-54.976601l-3.892148 29.069486c145.833947 21.285188 164.200024 53.273785 164.200023 103.628459h28.947856c0-19.582373-2.189334-37.097042-9.000593-52.422378l186.823138-52.057489-7.541038-28.218078zM612.054816 325.313695c5.108445 0 9.000594 3.892149 9.000594 9.000594v27.245041c0 5.108445-3.892149 9.000594-9.000594 9.000594H411.122639c-4.743556 0-9.000594-3.892149-9.000594-9.000594v-27.245041c0-5.108445 4.257038-9.000594 9.000594-9.000594h200.932177z"  horiz-adv-x="1024" />

    
    <glyph glyph-name="note" unicode="&#58909;" d="M887.467 541.013h-266.24c-47.787 0-75.093 34.133-75.093 75.093v273.067h-464.213c-40.96 0-81.92-34.133-81.92-75.093v-805.547c0-40.96 34.133-75.093 81.92-75.093h361.813l443.733 436.907v170.667zM546.133 206.507h-409.6v68.267h409.6v-68.267zM546.133 411.307h-409.6v68.267h409.6v-68.267zM621.227-5.12l-47.787-122.88 122.88 40.96 238.933 238.933-81.92 81.92-232.107-238.933zM942.080 315.733l-54.613-54.613 81.92-81.92 54.613 54.613-81.92 81.92zM723.627 616.107h163.84l-245.76 273.067h-27.307v-157.013c0-61.44 47.787-116.053 109.227-116.053z"  horiz-adv-x="1024" />

    
    <glyph glyph-name="yg-book" unicode="&#58882;" d="M823.327 96.653v-73.874c19.269-6.182 35.695-16.642 48.8-30.311-6.672 5.893-0.127-5.153 2.086-17.694l-663.844 6.94c-0.047-0-0.102-0-0.157-0-32.354 0-58.595 26.175-58.702 58.504l-0 687.553c0.107 32.34 26.348 58.514 58.702 58.514 0.055 0 0.11-0 0.166-0l603.253 0c0.047 0 0.102 0 0.157 0 32.354 0 58.595-26.175 58.702-58.504l0-570.525c-2.141-29.201-22.41-53.137-49.51-60.721zM192.47 39.184c0.578-8.83 7.606-15.847 16.389-16.405 11.008-0.313 573.508 0 573.508 0v73.874h-573.503c-8.826-0.593-15.834-7.62-16.395-16.401 0.262-8.259 0-32.396 0-41.069zM241.58 745.221c-32.507 0-49.11-16.927-49.11-49.215v-558.289h49.11v607.504zM831.467 696.007c0 32.287-16.645 49.215-49.11 49.215h-499.775v-607.504h499.775c32.507 0 49.11 16.927 49.11 49.215v509.074zM716.8 490.684h-319.498c-13.617 0.003-24.655 11.042-24.655 24.66 0 13.617 11.038 24.657 24.654 24.66l319.499 0c13.617-0.003 24.655-11.042 24.655-24.66 0-13.617-11.038-24.657-24.654-24.66zM547.756 580.963l-150.455 0.104c-13.59 0-24.607 11.017-24.607 24.607 0 13.59 11.017 24.607 24.607 24.607h147.466c13.237-1.116 23.68-11.688 24.589-24.883 0.006-0.212 0.010-0.479 0.010-0.746 0-12.364-9.432-22.526-21.493-23.683zM634.87 392.255h-237.568c-13.59 0-24.607 11.017-24.607 24.607 0 13.59 11.017 24.607 24.607 24.607h237.589c13.59-0 24.607-11.017 24.607-24.607 0-13.59-11.017-24.607-24.607-24.607z"  horiz-adv-x="1024" />

    
    <glyph glyph-name="yhq3" unicode="&#58923;" d="M908.54912 466.24768c10.99776 0.02048 19.95776 8.6016 19.99872 19.1488V641.18784c0 17.64864-7.72096 35.13856-21.20192 47.95904a72.48896 72.48896 0 0 1-50.29888 20.21888H192.77824c-18.8416 0-36.79232-7.168-50.54976-20.1984l-1.3312-1.37216c-12.68224-12.84096-19.64032-29.40928-19.64032-46.592v-155.79136c0.02048-10.55232 9.0112-19.12832 20.04992-19.12832 25.6 0 49.65888-9.46176 67.76832-26.61888 17.87904-17.01888 28.09856-40.57088 28.04224-64.67584 0.06144-24.07936-10.1376-47.66208-28.00128-64.64-18.12992-17.21856-42.20928-26.68032-67.7888-26.68032-11.03872 0-20.02944-8.58112-20.04992-19.15904v-137.86112c0-17.96096 7.40864-34.97984 20.992-48.04096l0.27136-0.22016a72.82688 72.82688 0 0 1 50.2784-19.95776h70.09792c11.03872 0 20.00896 8.58112 20.00896 19.11808-0.04096 10.54208-9.0112 19.0976-20.00896 19.0976h-70.1952c-8.25856 0-16.31232 3.13856-22.13888 8.76032a29.24544 29.24544 0 0 0-9.2416 21.23776v120.12032l4.68992 0.8192a137.4976 137.4976 0 0 1 70.77888 35.35872l0.45056 0.50176c25.75872 24.45824 39.94112 56.93952 39.94112 91.54048 0 34.54976-14.14144 67.00544-39.7824 91.39712l-0.8192 0.8192c-19.34848 18.28864-43.76064 30.4384-70.54848 35.16928l-4.68992 0.83968V641.24928c0 7.22944 2.88768 14.32064 8.02816 19.8912l1.44896 1.35168a32.2048 32.2048 0 0 0 22.00064 8.76032h664.22784c8.12032 0 15.91808-3.18976 22.00064-8.99072 6.08256-5.79072 9.44128-13.27104 9.44128-21.01248v-138.03008l-4.70016-0.83968a138.15808 138.15808 0 0 1-70.79936-35.36896l-0.41984-0.47104c-25.71776-24.51968-39.83872-57.02144-39.83872-91.5456 0-34.51904 14.12096-67.00032 39.72096-91.4176l0.75776-0.79872c19.3792-18.29888 43.8016-30.41792 70.5792-35.17952l4.70016-0.8192v-120.12032c0-7.76192-3.39968-15.44192-9.3184-21.09952-6.15936-5.71904-13.99808-8.89856-22.1184-8.89856H385.2288c-10.99776 0-19.94752-8.56064-19.98848-19.0976 0-10.5216 8.97024-19.0976 20.00896-19.11808h471.81824c18.8416 0 36.7616 7.15776 50.40128 20.08064 13.39904 12.75904 21.12 30.27968 21.12 48.1024v137.86112c-0.04096 10.54208-8.98048 19.13856-20.28032 19.15904-25.48224 0-49.47968 9.46176-67.52256 26.63936-18.07872 17.28-28.04224 40.27904-28.04224 64.68096-0.08192 24.07936 10.12224 47.63648 28.00128 64.65536 18.00704 17.18272 42.00448 26.624 67.80416 26.624zM402.54976 333.62944000000005c-11.72992 0-21.27872-9.04192-21.27872-20.17792 0.03072-11.1616 9.56928-20.25984 21.27872-20.25984h101.2224v-67.57888c0-11.1616 9.51808-20.21888 21.19168-20.21888 11.6992 0 21.22752 9.0624 21.26848 20.21888v67.57888h101.20192c11.67872 0.02048 21.20192 9.09824 21.20192 20.25984-0.04096 11.14112-9.51808 20.17792-21.16096 20.17792h-101.23776v64.6656h101.23776c11.63776 0.02048 21.16096 9.10848 21.16096 20.27008-0.04096 11.12064-9.51808 20.17792-21.16096 20.17792h-102.35904l116.1216 88.30976a19.55328 19.55328 0 0 1 7.26016 13.76256 19.10784 19.10784 0 0 1-5.07904 14.60224 21.504 21.504 0 0 1-16 6.99904c-5.07904 0-9.93792-1.7408-13.7984-4.8896l-108.63104-82.07872-108.5696 82.07872a21.8112 21.8112 0 0 1-13.82912 4.92032c-6.15936 0-12.02176-2.56-16.07168-7.00928a19.44576 19.44576 0 0 1-5.07904-14.60224 19.8144 19.8144 0 0 1 7.24992-13.76256L504.832 438.76864H402.54976c-11.72992 0-21.27872-9.0624-21.27872-20.1984 0.02048-11.1616 9.56928-20.2496 21.27872-20.2496h101.2224v-64.68608h-101.2224v-0.00512z"  horiz-adv-x="1024" />

    
    <glyph glyph-name="circle" unicode="&#58893;" d="M897.4336 261.12v9.8304a395.6736 395.6736 0 0 1-791.1424 0v-10.0352z"  horiz-adv-x="1024" />

    
    <glyph glyph-name="right" unicode="&#59358;" d="M281.241-40.601999999999975l36.198-36.198 450.56 450.56-450.56 450.56-36.198-36.198 414.362-414.362z"  horiz-adv-x="1024" />

    
    <glyph glyph-name="zan" unicode="&#59055;" d="M858.4 465.7H637.8c85.5 315.8-58.9 331.9-58.9 331.9-61.2 0-48.5-48.4-53.1-56.5 0-154.4-164-275.4-164-275.4v-438c0-43.2 58.9-58.8 82-58.8h331.6c31.2 0 56.6 81.8 56.6 81.8 82 278.9 82 361.9 82 361.9-0.1 57.7-55.6 53.1-55.6 53.1z m-587.3-0.1H139c-27.3 0-27.7-26.8-27.7-26.8l27.3-441.7c0-28.1 28.2-28.1 28.2-28.1h114.4c23.8 0 23.6 18.6 23.6 18.6V432.1c-0.1 33.9-33.7 33.5-33.7 33.5z m0 0"  horiz-adv-x="1024" />

    
    <glyph glyph-name="up" unicode="&#58913;" d="M1521.664-128L1638.4-35.84000000000003 819.2 896 0-35.84000000000003 116.736-128 819.2 670.72z"  horiz-adv-x="1638" />

    
    <glyph glyph-name="left" unicode="&#58979;" d="M742.758 808.602L706.56 844.8 256 394.24l450.56-450.56 36.198 36.198L328.397 394.24z"  horiz-adv-x="1024" />

    
    <glyph glyph-name="yhq" unicode="&#58888;" d="M959.294 88.34199999999998c0-39.019-31.629-70.647-70.647-70.647H135.075c-39.019 0-70.647 31.629-70.647 70.647 0 0-0.693 96.293-0.693 158.597 0 31.673-3.912 48.13 12.468 53.345 43.375 13.811 82.422 36.901 82.422 82.422s-37.095 78.228-82.422 82.422c-14.655 1.356-12.468 18.779-12.507 28.987-0.032 8.267 0.733 182.955 0.733 182.955 0 39.016 31.629 70.647 70.647 70.647h753.572c39.019 0 70.647-31.631 70.647-70.647l0.298-192.636c-0.104-9.855 2.536-16.191-12.073-19.307-44.519-9.496-83.418-29.97-82.422-82.422 0.865-45.512 36.903-82.736 82.422-82.422 15.035 0.104 11.441-21.142 11.969-30.25 0.121-2.107-0.195-181.691-0.195-181.691zM794.45 382.706c-0.739 96.96 97.809 142.807 94.196 141.299v99.313c0 39.019-14.735 53.751-53.751 53.751H188.826c-39.016 0-53.751-14.733-53.751-53.751v-99.313c-3.612 1.507 96.867-50.834 94.196-141.299-2.857-96.792-97.835-142.818-94.196-141.299v-99.313c0-39.019 14.735-53.751 53.751-53.751h646.069c39.016 0 53.751 14.733 53.751 53.751v99.313c3.639-1.519-93.534 54.366-94.196 141.299z m-105.971-129.52h-129.52v-82.422c0-6.502-5.27-11.775-11.775-11.775h-47.098c-6.502 0-11.775 5.273-11.775 11.775v82.422h-129.52c-6.502 0-11.775 5.273-11.775 11.775v47.098c0 6.502 5.273 11.775 11.775 11.775h129.52v47.098h-129.52c-6.502 0-11.775 5.273-11.775 11.775v47.098c0 6.502 5.273 11.775 11.775 11.775h84.805l-93.028 93.031c-9.198 9.196-9.198 24.107 0 33.303l16.652 16.652c9.196 9.196 24.107 9.196 33.303 0l116.561-116.561 116.563 116.561c9.196 9.196 24.107 9.196 33.303 0l16.652-16.652c9.196-9.196 9.196-24.107 0-33.303l-93.031-93.031h97.908c6.504 0 11.775-5.273 11.775-11.775v-47.098c0-6.502-5.27-11.775-11.775-11.775h-129.52v-47.098h129.52c6.504 0 11.775-5.273 11.775-11.775v-47.098c-0.001-6.502-5.271-11.775-11.775-11.775z"  horiz-adv-x="1024" />

    
    <glyph glyph-name="mingxi" unicode="&#59095;" d="M785.493 753.663H735.86c-13.724 0-29.568-8.378-29.568-21.987 0-13.619 15.845-27.227 29.568-27.227h49.633c29.568 0 49.623-19.897 49.623-49.224v-566.537c0-29.316-20.055-49.224-49.623-49.224H251.181c-29.568 0-62.296 19.908-62.296 49.224V655.225c0 29.327 20.055 49.224 49.623 49.224h62.296c13.733 0 19.016 13.608 19.016 27.227 0 13.608-5.281 21.987-19.016 21.987h-62.296c-69.688 0-99.257-42.935-99.257-99.477v-560.257c0-60.742 36.96-103.677 104.538-103.677h536.412c67.588 0 104.548 35.605 104.548 103.677V654.186c0 56.542-34.85 99.477-99.257 99.477z m-484.69-222.002c0-13.619 11.623-25.137 25.347-25.137h372.749c13.724 0 25.347 11.518 25.347 25.137 0 13.608-11.623 25.126-25.347 25.126H326.15c-13.723 0.001-25.347-11.517-25.347-25.126z m397.046-111.006H326.15c-13.724 0-25.347-11.518-25.347-25.137 0-13.608 11.623-25.126 25.347-25.126h372.749c13.724 0 25.347 11.518 25.347 25.126-1.06 14.659-12.673 25.137-26.397 25.137z m0-147.65H326.15c-13.724 0-25.347-11.529-25.347-25.137 0-13.619 11.623-25.137 25.347-25.137h372.749c13.724 0 25.347 11.518 25.347 25.137-1.06 14.659-12.673 25.137-26.397 25.137zM426.467 691.88h173.176c20.065 0 36.96 19.897 36.96 42.935s-16.895 42.936-38.019 42.936H426.468c-21.115 0-38.01-19.897-38.01-42.935s16.895-42.936 38.01-42.936z"  horiz-adv-x="1024" />

    
    <glyph glyph-name="diamond1" unicode="&#58894;" d="M1041.72368926 565.02397412c-0.73140997 1.64567285-1.64567285 3.47419776-2.55993486 4.93701768l-135.85940684 228.56562333L797.06704589 564.84112119l244.65664336 0.18285293M369.74075557 565.02397412h362.7793582L551.13043467 822.48029268l-181.3896791-257.45631856M513.8285249 834H257.65217422c-10.0568874 0-20.84518477-3.65704981-29.98781016-9.50833037l109.71149941-240.99959356L513.8285249 834M875.87647315 827.41731035C867.8309627 831.62291719 859.23689521 834 851.00853271 834H588.24949238l176.63551348-250.50792393L875.87647315 827.41731035M359.31816318 527.9049164099999l191.26371445-593.72206348c0.54855791 0 0.91426289-0.18285293 1.279967-0.18285293l190.89800947 593.72206435H359.31816318M201.51645664 792.49248252L69.49695254 569.9609918c-1.09711494-1.64567285-2.01137783-3.47419776-3.10849277-4.93701768h238.62251161L201.51645664 792.49248252M62 527.9049164099999l1.09711494-1.8285249h2.01137784c2.19422988-2.74278779 5.11986972-6.3998376 8.77691952-11.15400235L493.53189717-9.681430370000044l-173.16131572 537.58634678H62M1042.45509922 527.9049164099999H781.70743584l-177.54977637-552.03169394 431.34904512 539.04916669c3.10849277 3.83990273 5.48557471 8.2283625 6.94839463 12.98252725"  horiz-adv-x="1115" />

    
    <glyph glyph-name="down1" unicode="&#58892;" d="M19.46737782 901.18826667l172.57813334 0L192.04551116 268.76586667000004l229.92213333 0-402.50026667-402.50026667 0 1034.92266667z"  horiz-adv-x="1024" />

    
    <glyph glyph-name="down" unicode="&#58880;" d="M121.00266657 896L4.26666657 803.84 823.46666657-128 1642.66666657 803.84 1525.93066657 896 823.46666657 97.27999999999997z"  horiz-adv-x="1638" />

    
    <glyph glyph-name="search" unicode="&#58881;" d="M1012-51.51999999999998L717.12 243.36a390.56 390.56 0 1 1-65.76-69.92L944-119.20000000000005z m-912 525.28a302.72 302.72 0 1 0 302.4-302.72A303.04 303.04 0 0 0 99.84 473.76z"  horiz-adv-x="1024" />

    
    <glyph glyph-name="circle2" unicode="&#58883;" d="M126.5664 570.87999999l0-9.8304a395.6736 395.6736 0 0 1 791.1424 0l0 10.0352z"  horiz-adv-x="1024" />

    
    <glyph glyph-name="home" unicode="&#58900;" d="M1007.44311478 419.38879399a35.53034975 35.53034975 0 0 1-10.33352837 25.0552655l-459.62965441 424.66552692a35.38879399 35.38879399 0 0 1-50.03975526 0l-0.28311051-0.42466504-0.42466577-0.28310933-459.1342125-423.53308667a35.24723819 35.24723819 0 0 1 24.34749127-60.86872537h106.16638112v-460.05432077a35.38879399 35.38879399 0 0 1 35.38879436-35.38879401h212.3327635a35.38879399 35.38879399 0 0 1 35.38879442 35.38879401V242.44482526000002h141.55517474v-318.49914603a35.38879399 35.38879399 0 0 1 35.38879442-35.38879401h212.3327635a35.38879399 35.38879399 0 0 1 35.38879436 35.38879401V384h106.30793695a35.38879399 35.38879399 0 0 1 35.24723818 35.38879399z m-176.94396949 35.38879338a35.38879399 35.38879399 0 0 1-35.38879424-35.38879338v-460.05432124h-141.55517631v318.49914546a35.38879399 35.38879399 0 0 1-35.38879295 35.38879442h-212.33276358a35.38879399 35.38879399 0 0 1-35.38879295-35.38879442v-318.49914546h-141.55517631v460.05432124a35.38879399 35.38879399 0 0 1-35.38879424 35.38879338h-51.66764009l369.95445141 340.86486296 370.52067329-340.86486296h-51.80919403z"  horiz-adv-x="1024" />

    
    <glyph glyph-name="user" unicode="&#58884;" d="M650.526153 306.688306c102.977342 50.420019 174.061974 155.918362 174.061974 278.289325 0 171.220228-138.802934 310.024161-310.029156 310.024161-171.220228 0-310.024161-138.803933-310.024161-310.024161 0-122.371963 71.079636-227.892289 174.055979-278.289325C207.712291 251.94971199999998 79.008349 97.48119999999994 65.481076-89.67938700000002c-1.363918-18.976952 12.893776-35.458882 31.869728-36.844783 19.11784-1.33694 35.464877 12.919755 36.849779 31.875723 14.321643 198.489604 181.413145 353.975309 380.357389 353.975309s366.034746-155.485705 380.384367-353.975309c1.314957-18.138617 16.43197-31.966651 34.32678-31.966651 0.839334 0 1.67767 0.025979 2.518003 0.091927 18.981948 1.364918 33.238643 17.867831 31.875723 36.844783-13.53127 187.159588-142.230216 341.6281-313.136692 396.366694zM273.433176 584.9786300000001c0 133.168402 107.951398 241.1198 241.124796 241.1198 133.175396 0 241.126794-107.951398 241.126794-241.1198 0-133.175396-107.951398-241.126794-241.126794-241.126794-133.173398 0-241.124796 107.951398-241.124796 241.126794z m0 0"  horiz-adv-x="1024" />

    
    <glyph glyph-name="close" unicode="&#58916;" d="M580.527 384.001l434.006 434.005c12.615 12.618 12.615 33.07 0 45.684L991.695 886.532c-12.615 12.618-33.07 12.618-45.685 0L512.001 452.526 78.135 886.393C65.443 899.086 44.923 899.147 32.309 886.532L9.469 863.69c-12.615-12.611-12.553-33.131 0.142-45.826l433.864-433.863L9.466-50.006c-12.615-12.618-12.615-33.07 0-45.684l22.842-22.842c12.614-12.618 33.069-12.618 45.684 0l434.009 434.007 433.867-433.865c12.692-12.696 33.212-12.76 45.827-0.142l22.839 22.842c12.615 12.615 12.554 33.131-0.142 45.827L580.527 384.001z"  horiz-adv-x="1024" />

    
    <glyph glyph-name="xingxing" unicode="&#58890;" d="M1080.268671 442.265298c-77.160905-88.184891-214.583736-234.424712-214.583736-234.424711s22.045973-160.203803 35.273956-269.700668c5.878993-55.851931-37.479954-80.101901-85.980894-58.054929-92.594886 43.357947-233.689712 110.966863-265.289673 126.399845-32.33596-14.697982-174.165786-81.5719-267.495671-124.928847-49.236939-21.310974-92.594886 2.204997-87.450893 58.054929 12.492985 109.496865 35.273957 268.965669 35.273957 268.965669S91.123888 354.081407 13.227984 442.266298c-27.924966 32.33496-9.551988 77.896904 44.827945 85.980895 111.701863 19.841976 284.39765 51.441937 284.39765 51.441936s94.797883 163.143799 154.32381 263.086676C529.847348 903.77073 552.62932 896.421739 556.303315 894.951741c10.287987-2.939996 26.455967-15.431981 47.032943-52.175936 58.789928-99.943877 152.119813-263.087676 152.119812-263.087676s170.49179-31.599961 280.723655-51.441936c53.645934-8.08399 71.282912-54.379933 44.092946-85.979895z"  horiz-adv-x="1092" />

    
    <glyph glyph-name="line1" unicode="&#59122;" d="M348.16 896l327.68 0 0-1024-327.68 0 0 1024Z"  horiz-adv-x="1024" />

    
    <glyph glyph-name="back" unicode="&#58885;" d="M512-128L0 384 512 896l71.68-71.68L143.36 384l440.32-440.32z"  horiz-adv-x="1024" />

    
    <glyph glyph-name="dele" unicode="&#59056;" d="M879.75301 782.486H706.62801C693.41201 847.162 636.08101 896 567.58301 896H454.05501c-68.54 0-125.843-48.838-139.032-113.514H141.90001C63.66501 782.486 0.00001 718.821 0.00001 640.587a28.358 28.358 0 0 1 28.385-28.385H141.90001v-624.34a113.623 113.623 0 0 1 113.514-113.514h510.826a113.623 113.623 0 0 1 113.514 113.514v624.34h113.513a28.358 28.358 0 0 1 28.4 28.385c0 78.234-63.666 141.9-141.913 141.9zM454.06901 839.243h113.527a85.32 85.32 0 0 0 80.282-56.77h-274.09a85.32 85.32 0 0 0 80.28 56.77z m368.94-851.38a56.839 56.839 0 0 0-56.77-56.758H255.41301a56.839 56.839 0 0 0-56.757 56.77V612.203h624.353z m56.757 681.11H61.60401a85.32 85.32 0 0 0 80.281 56.756h737.868a85.32 85.32 0 0 0 80.295-56.757z m-368.94-624.354a28.358 28.358 0 0 0-28.385 28.372V470.303a28.385 28.385 0 0 0 56.77 0v-397.299a28.358 28.358 0 0 0-28.385-28.385z m-170.285 0a28.358 28.358 0 0 0-28.371 28.372V470.303a28.385 28.385 0 0 0 56.757 0v-397.299a28.358 28.358 0 0 0-28.386-28.385z m340.57 0a28.358 28.358 0 0 0-28.4 28.372V470.303a28.385 28.385 0 0 0 56.77 0v-397.299a28.358 28.358 0 0 0-28.37-28.385z"  horiz-adv-x="1024" />

    
    <glyph glyph-name="checked" unicode="&#58895;" d="M512 896C229.052632 896 0 666.947368 0 384s229.052632-512 512-512 512 229.052632 512 512S794.947368 896 512 896z m-94.315789-735.663158L242.526316 332.79999999999995l43.115789 45.810526 132.042106-132.042105 331.452631 334.147368 45.810526-45.810526-377.263157-374.568421z"  horiz-adv-x="1024" />

    
    <glyph glyph-name="kefu" unicode="&#58928;" d="M448-21.376c0 0.043 128 0.043 128 0.043 0.085 0 0 42.709 0 42.709 0-0.043-128-0.043-128-0.043-0.085 0 0-42.709 0-42.709z m371.35 173.035a192.797 192.797 0 0 0-30.017-2.326A21.333 21.333 0 0 0 768 170.667V512a21.333 21.333 0 0 0 21.333 21.333 191.147 191.147 0 0 0 92.374-23.637C828.203 661.483 681.045 768 511.296 768c-170.005 0-317.547-106.816-370.837-259.328a191.125 191.125 0 0 0 94.208 24.661A21.333 21.333 0 0 0 256 512v-341.333a21.333 21.333 0 0 0-21.333-21.334A192 192 0 0 0 85.76 462.55a21.27 21.27 0 0 0 0.043 8.683C127.36 667.712 304.469 810.667 511.275 810.667c209.706 0 388.544-146.944 427.008-347.094l0.213-1.344a191.21 191.21 0 0 0 42.837-120.896c0-70.4-37.909-131.968-94.421-165.397-57.643-100.693-154.752-174.763-268.779-204.075A42.517 42.517 0 0 0 576-64H448c-23.573 0-42.667 19.157-42.667 42.624v42.752A42.523 42.523 0 0 0 448 64h128c23.573 0 42.667-19.157 42.667-42.624v-5.141a392.81 392.81 0 0 1 200.682 135.424zM85.332 341.333c0.299-133.589 128-148.949 128-148.949V489.856s-128.298-14.933-128-148.523z m853.334 0c0.298 133.59-128 148.523-128 148.523v-297.472s127.701 15.36 128 148.95z"  horiz-adv-x="1024" />

    
    <glyph glyph-name="catalog" unicode="&#58886;" d="M32.007053 895.986103a34.204051 34.204051 0 0 1 0-68.264505h128.001158a34.204051 34.204051 0 0 1 0 68.264505H32.007053z m0-477.846902a34.213316 34.213316 0 0 1 0-68.283034h128.001158a34.213316 34.213316 0 0 1 0 68.283034H32.007053z m0-477.860799a34.185523 34.185523 0 0 1 0-68.23208h128.001158a34.185523 34.185523 0 0 1 0 68.23208H32.007053zM351.998367 895.986103a34.204051 34.204051 0 0 1 0-68.264505h895.966417a34.204051 34.204051 0 0 1 0 68.264505H351.998367z m0-477.846902a34.213316 34.213316 0 0 1 0-68.283034h895.966417a34.213316 34.213316 0 0 1 0 68.283034H351.998367z m0-477.860799a34.185523 34.185523 0 0 1 0-68.23208h895.966417a34.185523 34.185523 0 0 1 0 68.23208H351.998367z"  horiz-adv-x="1279" />

    
    <glyph glyph-name="yhq2" unicode="&#58990;" d="M1272.620577 855.443169c-16.078744 18.238575-34.077338 27.597844-53.035857 27.837825L1082.315444 883.520975l-0.479962-127.910007 215.023201-0.719944V795.447856c0.239981 21.358331-7.919381 41.516757-24.238106 59.995313zM1013.680806 884.000937H1000.721819L49.9161 887.600656c-7.439419 0-13.43895-2.639794-18.718537-7.919381-5.519569-5.279588-9.119288-11.999063-10.559175-19.438481-1.679869-7.439419-1.199906-15.3588 1.679868-23.518163 2.399813-7.919381 7.439419-15.118819 14.878838-20.398406 6.479494-5.519569 11.999063-12.239044 16.558706-21.118351 4.799625-8.639325 7.199438-17.518631 7.919382-26.8779 0.239981-9.359269-1.199906-18.238575-4.319663-27.597844-3.119756-9.119288-8.879306-15.838763-17.518631-20.158425-11.759081-6.479494-20.638388-15.3588-26.397938-26.397937-5.519569-11.039138-8.639325-22.318256-8.639325-33.597376 0-11.039138 2.879775-22.078275 8.639325-31.677525 5.75955-9.839231 13.678931-17.038669 24.478088-21.11835 11.759081-4.559644 20.158425-10.559175 25.438012-18.718538 5.279588-8.159363 7.919381-17.038669 8.639325-26.637919 0.479963-9.839231-1.439888-19.1985-6.239512-28.317787-4.799625-9.359269-12.719006-17.27865-23.278181-23.518163-10.559175-6.239513-18.478556-14.878838-23.278182-25.677994-4.559644-10.079213-6.719475-21.11835-6.479494-32.397469 0.479963-10.319194 3.119756-20.638388 7.6794-29.997656 4.799625-9.119288 11.759081-14.398875 21.358332-15.3588 8.159363-2.399813 14.398875-6.959456 18.238575-13.918913 3.599719-7.199438 5.519569-15.118819 5.519569-23.278181 0-8.879306-2.159831-17.038669-5.75955-24.95805-3.8397-8.159363-10.079213-13.918913-18.238575-17.038669-8.399344-3.359738-15.3588-9.839231-19.918444-19.438482-4.799625-9.839231-7.6794-19.918444-7.919382-30.7176-0.479963-10.319194 0.719944-20.878369 3.8397-30.7176 3.119756-9.59925 7.919381-16.798688 14.158894-21.11835 21.11835-12.958988 31.437544-27.597844 31.437544-43.676588 0-16.078744-10.559175-32.397469-31.677525-48.236231-4.319663-3.359738-8.159363-9.359269-11.999063-17.758613-3.599719-8.879306-5.519569-17.27865-5.519568-26.157956 0-8.639325 1.91985-16.078744 6.239512-22.558238 4.319663-6.719475 11.759081-9.839231 22.318257-9.839231l85.673306-0.239982c5.999531 0 9.59925 0.479963 10.079213 1.679869 0.479963 1.199906-0.239981 2.879775-2.159831 5.519569-2.399813 3.119756-5.039606 6.239513-7.919382 9.119287-3.119756 3.119756-5.75955 6.959456-7.919381 11.279119-5.279588 15.118819-5.039606 28.077806 0.239981 38.876963 5.519569 10.799156 14.158894 19.918444 27.117882 27.357863 8.399344 4.079681 15.118819 11.5191 18.238575 20.398406 3.8397 8.879306 5.279588 18.478556 4.799625 28.077807-0.239981 9.839231-2.159831 18.238575-5.279588 25.917975-3.119756 7.6794-7.919381 13.198969-14.158894 16.318725-8.639325 3.359738-14.878838 9.359269-18.958518 17.758612-4.319663 8.399344-6.479494 17.758613-6.239513 27.597844 0 9.119288 1.679869 18.238575 4.799625 26.637919 3.359738 8.159363 7.919381 13.678931 14.638856 16.798688 8.399344 4.319663 15.3588 11.279119 19.918444 19.438481 4.799625 8.159363 7.199438 17.998594 7.199438 28.79775 0 11.039138-1.91985 21.358331-5.999531 31.677526-4.319663 10.319194-10.799156 18.718538-20.398407 25.198031-6.479494 4.319663-11.759081 10.319194-15.838762 17.758613-4.559644 7.6794-6.479494 15.598781-7.199438 24.238106-0.479963 8.639325 1.439888 17.038669 5.039606 24.95805 3.8397 8.159363 10.559175 14.638856 19.918444 20.158425 10.319194 5.279588 18.238575 13.198969 23.0382 23.278182 4.799625 10.319194 7.199438 20.878369 7.199438 31.677525 0 11.039138-2.399813 21.11835-6.959456 30.957581-4.559644 9.59925-11.279119 17.27865-19.678463 22.798219-17.998594 9.59925-27.837825 23.0382-29.277713 39.596907-1.679869 16.798688-0.239981 32.157488 4.079682 46.0764 3.359738 11.039138 9.59925 20.638388 18.958518 29.037731 9.59925 8.639325 21.838294 12.958988 36.717132 12.719007l818.81603-3.119757h12.958987L1013.680806 884.000937z m0 0M1416.129365 397.558941c11.5191 2.159831 20.158425 5.75955 25.198031 10.559175 5.279588 5.039606 8.159363 13.198969 8.159363 25.198031l0.719944 171.586595c0 29.037731-4.799625 49.9161-14.158894 62.635107-9.59925 12.479025-30.477619 18.478556-63.595032 18.718537l-181.905788 0.719944-3.119757-809.21678 66.234826-0.239981c23.0382-0.239981 45.836419 0 68.874619 0.479962 22.798219 0.239981 38.397 0.479963 46.796344 0.479963 28.557769-1.199906 48.716194 3.599719 60.475275 14.398875 11.5191 10.799156 17.758613 31.437544 17.758613 61.4352l0.959925 233.021795c0 11.759081-1.91985 20.878369-5.519569 26.637919-3.599719 5.999531-11.279119 10.079213-23.0382 12.239044-4.319663 0-9.839231 1.679869-17.518631 5.039606-7.199438 3.359738-14.638856 8.639325-22.078276 15.598782-7.439419 6.959456-13.678931 16.078744-18.958518 27.597844-5.279588 11.279119-7.919381 24.95805-7.919382 41.276775 0 24.718069 6.719475 44.15655 19.918444 58.075463 13.678931 13.678931 27.837825 22.078275 42.716663 23.758144zM1121.912351 686.97633L236.621514 690.336067c-8.399344 0-15.3588-3.359738-20.158425-10.559175-4.799625-6.959456-7.199438-14.638856-7.919381-23.518162-0.479963-8.639325 1.439888-17.27865 5.75955-25.917975 4.079681-8.639325 11.039138-14.638856 20.398406-17.758613 9.59925-3.359738 17.27865-8.879306 23.0382-16.318725 5.75955-7.439419 9.119288-16.078744 10.319194-24.95805 0.959925-9.359269-1.439888-17.998594-6.479494-26.637919-5.519569-8.639325-14.398875-15.118819-27.117881-19.1985-9.359269-4.319663-17.27865-10.559175-23.0382-19.438482-5.75955-8.639325-9.359269-17.518631-9.599251-26.637919-0.479963-9.359269 1.679869-17.998594 6.239513-26.157956 4.559644-7.919381 12.239044-13.678931 23.0382-17.038669 12.479025-3.359738 22.318256-9.59925 29.277713-18.478556 6.719475-9.359269 10.319194-18.718538 11.039137-28.557769 0.239981-9.59925-2.399813-19.438481-7.919381-29.277713-5.999531-9.59925-14.638856-16.558706-26.397938-20.878369-10.319194-4.559644-18.478556-10.799156-23.758143-19.1985-5.519569-8.879306-8.399344-17.998594-8.879307-27.597844-0.479963-9.59925 1.439888-18.958519 5.519569-27.597844 4.079681-8.639325 10.559175-15.3588 18.958519-19.438481 26.397938-13.198969 40.076869-29.037731 40.796813-47.276307 1.199906-18.238575-8.879306-32.877431-30.237638-43.676587-9.59925-4.079681-17.518631-11.279119-23.0382-19.918444-5.999531-9.119288-9.119288-18.718538-9.839231-29.277713-0.479963-10.079213 1.439888-19.438481 5.75955-27.357862 4.079681-8.399344 11.039138-13.918913 20.398406-17.278651 12.719006-3.359738 22.318256-9.119288 29.517694-17.758612 6.479494-8.399344 10.079213-17.758613 10.559175-27.357863 0.719944-10.079213-1.91985-19.438481-7.919381-29.277713-5.75955-9.839231-15.118819-17.758613-27.837826-24.238106-8.639325-4.319663-14.638856-11.039138-18.478556-20.158425-3.8397-9.359269-5.039606-17.998594-4.319662-26.637919 1.199906-8.639325 4.079681-16.558706 8.879306-23.278181 4.559644-7.199438 11.279119-10.559175 19.918444-10.559175l875.451605-3.359738 3.359738 809.21678zM877.611437 304.44621500000005c-0.959925-4.559644-1.679869-11.039138-1.679869-19.438481v-19.678463c0-5.279588-1.439888-8.159363-4.799625-8.879306-3.119756-0.479963-6.719475-0.719944-11.039138-0.719944l-92.1528 0.239981c-12.479025 0-18.958519-2.639794-18.958519-7.919381v-30.7176c0-5.519569 0.959925-8.159363 3.119756-8.159363h23.998125l31.677525-0.239981 31.677526-0.239981h18.958518c6.239513 1.199906 10.319194-0.479963 12.479026-4.799625 1.91985-4.559644 3.599719-9.359269 4.799625-14.638857 1.199906-5.519569 0.959925-10.559175 0-15.3588-1.199906-5.039606-1.439888-9.119288-1.439888-12.239043 0-14.158894-6.959456-21.11835-20.878369-21.118351l-95.272557 0.239982c-5.519569 0-8.639325-0.719944-9.359268-2.159832-0.959925-1.679869-1.679869-5.279588-1.679869-10.559175-1.199906-5.519569-1.439888-15.118819-0.719944-29.037731 0.479963-14.158894 0.719944-23.278181 0.719944-27.837825 0-11.759081-6.959456-17.758613-20.638388-17.758613l-50.876025 0.239981c-8.399344 0-12.719006 2.639794-12.719006 8.399344v11.039138l0.239981 53.515819c0 11.039138-4.799625 16.318725-14.158894 16.318725h-14.398875c-7.439419 0-15.838763 0.239981-24.718069 0.959925-9.119288 0.479963-17.758613 0.719944-25.917975 0.959925h-20.638388c-14.638856 0-22.318256 5.519569-22.318256 16.078744l0.239981 35.757206c0 9.839231 5.279588 14.638856 15.838763 14.638857l92.1528-0.239982c10.319194-2.399813 16.078744 0 16.078744 6.479494 0 4.079681 0.239981 7.919381 0.719944 11.999063 0.479963 4.559644 0.719944 9.119288 0.719944 13.678931 0 4.079681-1.679869 7.439419-5.279588 9.59925-3.599719 2.159831-7.6794 3.359738-11.999063 3.359738l-93.832669 0.479962c-10.319194 0-15.838763 3.599719-15.838762 11.279119l0.239981 38.876963c0 4.319663 1.91985 8.399344 5.75955 12.719006 3.8397 4.559644 8.399344 6.479494 13.43895 6.479494l53.995781-0.239981c5.039606 0 10.799156 0.479963 16.798688 1.679868 5.75955 1.199906 6.719475 4.559644 4.079681 9.839232-1.199906 1.91985-6.239513 9.59925-15.118818 22.798218-9.59925 14.158894-19.678463 27.837825-29.997657 41.276776-11.039138 14.638856-21.11835 28.557769-30.957581 41.276775-9.359269 12.958988-15.118819 21.11835-17.27865 24.478088-5.279588 8.399344-2.159831 18.718538 9.59925 30.477619 1.91985 2.159831 6.239513 5.519569 12.719006 9.839231 5.999531 4.319663 11.999063 7.439419 17.27865 9.59925 8.639325 3.119756 14.638856 3.599719 18.478556 1.439887 3.359738-2.159831 8.159363-6.959456 13.198969-14.638856 2.159831-3.119756 7.199438-11.039138 15.838763-23.518163 8.399344-12.719006 17.27865-25.677994 26.8779-39.836887 8.399344-12.719006 17.27865-25.438013 25.917975-37.917038 8.159363-11.5191 12.479025-18.238575 13.43895-20.398406 1.91985-4.079681 6.239513-5.999531 11.999063-4.799625s9.59925 3.8397 11.759081 7.919381c1.199906 2.159831 5.999531 8.399344 14.398875 18.718537 9.59925 11.039138 18.718538 22.558238 27.117882 34.557301 9.359269 13.198969 18.718538 24.718069 27.837825 36.237169 9.119288 11.279119 15.118819 18.958519 18.478556 23.518162 9.59925 18.238575 19.678463 23.998125 29.997657 17.518632 7.439419-4.319663 14.158894-8.879306 19.918443-13.678932 5.75955-5.039606 11.279119-9.119288 16.558707-12.479025 10.559175-7.439419 11.999063-17.27865 4.559644-29.037731-17.998594-21.358331-34.077338-41.276775-47.996251-59.755332-11.759081-15.118819-22.798219-29.277713-33.597375-43.676588-10.559175-13.678931-16.798688-21.838294-18.958519-24.238106-2.159831-4.079681 0-6.479494 6.239513-6.479494h18.718537c7.6794 0 15.3588-0.239981 23.038201-0.719943 10.319194-0.479963 19.438481-0.479963 28.077806 0.719943 8.399344 0 15.3588-1.91985 20.638388-6.479494 5.519569-3.8397 7.199438-9.119288 4.799625-15.598781z m0 0"  horiz-adv-x="1457" />

    
    <glyph glyph-name="account" unicode="&#59014;" d="M891.1 556.7h-90.2l38.7 22.3c49.4 28.6 66.3 91.8 37.8 141.2L843 779.7c-13.8 23.8-36 41-62.7 48.2-26.7 7.1-54.6 3.5-78.5-10.3l-81-46.8-43.5 36.4c-21 17.7-48.1 26.2-75.4 23.8-27.3-2.2-52.6-15.4-70.2-36.5L232 556.5h-98.9c-38.1 0-68.9-30.9-68.9-68.9v-482.5c0-38.1 30.9-68.9 68.9-68.9h758.2c38.1 0 68.9 30.9 68.9 68.9V487.8c-0.2 38.1-31.1 68.9-69.1 68.9zM736.1 758s0.1 0 0.1 0.1c16.5 9.5 37.5 3.8 47-12.7l34.5-59.7c9.4-16.5 3.8-37.5-12.6-47.1l-142-81.9H387.4L736.1 758z m-251.7-7.6c5.8 7 14.3 11.4 23.4 12.1 9.1 0.9 18.2-2 25.2-7.9l24.2-20.3-167.3-96.6 94.5 112.7z m406.7-745.1H132.9V487.8h758.2v-103.4H617.5c-38.1 0-68.9-30.9-68.9-68.9v-137.8c0-38.1 30.9-68.9 68.9-68.9h273.6v-103.5z m0 172.3H617.5V315.5h273.6v-137.9zM722 212.10000000000002c19 0 34.5 15.4 34.5 34.4S741.1 281 722.1 281s-34.5-15.4-34.5-34.4c-0.1-19.1 15.4-34.5 34.4-34.5z"  horiz-adv-x="1024" />

    
    <glyph glyph-name="chongzhi" unicode="&#58887;" d="M1063.177255 580.2457c-25.339417 60.023868-61.641278 113.937522-108.00702 160.303265-46.545455 46.365742-100.459108 82.667603-160.482976 108.00702-62.180414 26.237978-128.134784 39.716392-196.245701 39.716391-68.110916 0-134.244998-13.298701-196.425412-39.716391-60.023868-25.339417-113.937522-61.641278-160.482976-108.00702-46.365742-46.365742-82.667603-100.279396-108.186733-160.303265-22.464022-53.194805-35.403299-109.444717-38.81783-167.491751l-0.539137-7.907336H152.216216l0.539137 7.008775c14.916111 234.524395 210.442962 418.190242 445.686205 418.190242 246.025974 0 446.405054-200.199368 446.405055-446.04563 0-246.025974-200.199368-446.04563-446.405055-446.04563-101.717094 0-197.683398 33.606178-277.475605 97.044577l-1.976834 1.61741h-86.621271l13.118989-12.759565c45.646894-44.568621 98.302562-79.792208 156.529309-104.412777 62.360126-26.237978 128.314496-39.716392 196.425412-39.716391 68.110916 0 134.244998 13.298701 196.425413 39.716391 60.023868 25.339417 114.117234 61.641278 160.482976 108.00702 46.365742 46.18603 82.667603 100.099684 108.00702 160.303265 26.41769 62.180414 39.716392 128.314496 39.716392 196.2457-0.179712 68.110916-13.478413 134.065286-39.896104 196.2457zM447.303615 321.819586c-15.814672 0-28.574237-13.118989-28.574236-29.113373 0-16.174096 12.759565-29.113373 28.574236-29.113373h126.517375v-84.824149c0-15.994384 12.759565-29.113373 28.574236-29.113373s28.574237 13.118989 28.574237 29.113373V263.413127h126.337662c15.814672 0 28.574237 13.118989 28.574237 29.113374 0 16.174096-12.939277 29.113373-28.574237 29.113373h-126.517374v34.68445h126.517374c15.814672 0 28.574237 13.118989 28.574237 29.113373 0 16.174096-12.759565 29.293085-28.574237 29.293086h-126.517374v16.713232c0.539137 1.257985 1.078273 2.515971 1.437697 3.773956l122.923131 131.189891c11.142155 11.321867 11.142155 29.832222 0 41.15409-5.391365 5.571078-12.579853 8.626185-20.307476 8.626184-7.727624 0-14.916111-3.055107-20.307476-8.626184l-112.140401-121.12601-112.320112 121.305722v0.179712c-5.391365 5.571078-12.759565 8.626185-20.307476 8.626185-7.727624 0-14.736399-3.055107-20.127764-8.626185-11.142155-11.321867-11.142155-29.65251 0-41.154089l122.743418-131.369604c0.359424-1.257985 0.898561-2.515971 1.61741-3.594243v-16.713233h-126.517375c-15.814672 0-28.574237-13.118989-28.574236-29.293085 0-15.994384 12.759565-29.113373 28.574236-29.113373h126.517375v-34.864163h-126.697087z m-125.439101-116.453493c0 0.179712 0.179712 0.179712 0.179712 0.359425 0.179712 0.179712 0.359424 0.539137 0.539137 0.718848 0.718849 1.078273 1.797122 2.336258 2.51597 4.313093 1.257985 3.234819 1.976834 6.649351 1.976834 10.243594 0 3.414531-0.539137 6.829063-1.976834 10.063882-0.539137 1.437697-1.437697 2.875395-2.336258 4.13338-0.179712 0.359424-0.359424 0.539137-0.539137 0.718849-0.179712 0.179712-0.179712 0.359424-0.359424 0.539136-0.539137 0.898561-1.078273 2.156546-2.336258 3.414532l-106.749035 113.038961c-5.031941 5.391365-12.040716 8.446472-19.229203 8.446472-7.008775 0-13.658126-2.695683-18.690067-7.727623-10.603019-10.603019-10.782731-27.675676-0.718849-38.638119l63.078975-66.852931H26.777115c-14.736399 0-26.777115-12.220428-26.777115-27.316251 0-15.095823 12.040716-27.136539 26.777115-27.136539h210.982099L174.500527 126.831871c-10.063882-10.782731-9.88417-28.0351 0.718848-38.458407 5.031941-4.852229 11.681292-7.727624 18.690067-7.727623 7.368199 0 14.197262 3.055107 19.229203 8.446472l106.569323 113.038961c1.257985 1.078273 1.797122 2.336258 2.156546 3.234819z m0 0"  horiz-adv-x="1103" />

    


  </font>
</defs>
</svg>
